<?xml version="1.0" encoding="UTF-8" standalone="no"?>
<!DOCTYPE svg  PUBLIC '-//W3C//DTD SVG 1.1//EN'  'http://www.w3.org/Graphics/SVG/1.1/DTD/svg11.dtd'>
<svg xmlns="http://www.w3.org/2000/svg">
<defs>
<font id="Junegull-Regular" horiz-adv-x="686">
<font-face underline-position="-123" font-weight="400" descent="-200" panose-1="2 0 0 0 0 0 0 0 0 0" units-per-em="1000" unicode-range="U+0017-FB02" bbox="-175 -234 1130 948" x-height="704" underline-thickness="20" font-family="Junegull" ascent="800" cap-height="704"/>
<missing-glyph d="M368 572q0 39 -46 39h-193q-46 0 -46 -39v-488q0 -39 46 -39h193q46 0 46 39v488zM129 0q-97 0 -97 84v488q0 85 97 85h193q98 0 98 -85v-488q0 -84 -98 -84h-193z" horiz-adv-x="452"/>
<glyph glyph-name="copyright" horiz-adv-x="753" unicode="(C)" d="M292 349q0 -17 4.5 -33.5t14.5 -30.5t25 -24.5t35 -14.5q13 -3 29.5 -3.5t31 -4t24 -11.5t9.5 -26q0 -23 -16 -32t-39 -9q-39 0 -74.5 11t-63 34t-43.5 58.5t-16 85.5q0 49 16 84.5t43.5 57.5t63 32.5t74.5 10.5q23 0 39 -9t16 -32q0 -20 -9.5 -28t-24 -10.5t-31 -2.5 t-29.5 -3q-42 -9 -60.5 -37t-18.5 -63zM378 671q-66 0 -124 -25.5t-101 -69t-68 -101.5t-25 -124t25 -124t68 -101t101 -68t124 -25t124.5 25t102 68t68.5 101t25 124t-25 124t-68.5 101.5t-102 69t-124.5 25.5zM377 711q73 0 138.5 -28t114.5 -77t77.5 -114t28.5 -140 q0 -74 -28.5 -139.5t-77.5 -114t-114.5 -77t-138.5 -28.5q-75 0 -140 28.5t-114 77t-77 114t-28 139.5q0 75 28 140t77 114t114 77t140 28z"/>
<glyph glyph-name="registered" horiz-adv-x="561" unicode="(R)" d="M296 623q49 0 71.5 -25.5t22.5 -60.5q0 -31 -15.5 -51.5t-43.5 -31.5l47 -74q6 -9 6 -19q0 -12 -8.5 -20t-18.5 -8q-15 0 -24 16l-58 103q-4 5 -5 10t-1 10q0 15 10 18.5t22.5 5.5t22.5 9t10 29q0 20 -10.5 28.5t-28.5 8.5h-65v-208q0 -30 -29 -30t-29 30v232q0 28 28 28 h96zM270 686q-44 0 -81.5 -17t-65.5 -45.5t-44 -67t-16 -81.5q0 -44 16 -82t44 -66t65.5 -44.5t81.5 -16.5q43 0 81.5 16.5t67 44.5t45 66t16.5 82q0 43 -16.5 81.5t-45 67t-67 45.5t-81.5 17zM270 711q48 0 91 -18.5t75.5 -50.5t51 -75t18.5 -92q0 -48 -18.5 -90.5t-51 -75 t-75.5 -51t-91 -18.5q-49 0 -92 18.5t-75 51t-50.5 75t-18.5 90.5q0 49 18.5 92t50.5 75t75 50.5t92 18.5z"/>
<glyph glyph-name="uni2117" horiz-adv-x="753" unicode="(P)" d="M321 201q0 -38 -38 -38q-37 0 -37 37v304q0 37 35 37h113q66 0 98.5 -30t32.5 -84q0 -60 -32 -91t-92 -31q-17 0 -25.5 10.5t-8.5 25.5q0 22 14 28t31 9t31 10.5t14 32.5q0 51 -56 51h-80v-271zM378 671q-66 0 -124 -25.5t-101 -69t-68 -101.5t-25 -124t25 -124t68 -101 t101 -68t124 -25t124.5 25t102 68t68.5 101t25 124t-25 124t-68.5 101.5t-102 69t-124.5 25.5zM377 711q73 0 138.5 -28t114.5 -77t77.5 -114t28.5 -140q0 -74 -28.5 -139.5t-77.5 -114t-114.5 -77t-138.5 -28.5q-75 0 -140 28.5t-114 77t-77 114t-28 139.5q0 75 28 140 t77 114t114 77t140 28z"/>
<glyph glyph-name=".notdef" d="M368 572q0 39 -46 39h-193q-46 0 -46 -39v-488q0 -39 46 -39h193q46 0 46 39v488zM129 0q-97 0 -97 84v488q0 85 97 85h193q98 0 98 -85v-488q0 -84 -98 -84h-193z" horiz-adv-x="452"/>
<glyph glyph-name=".null" horiz-adv-x="0"/>
<glyph glyph-name="nonmarkingreturn" horiz-adv-x="234"/>
<glyph glyph-name="uni0017" horiz-adv-x="234"/>
<glyph glyph-name="space" horiz-adv-x="234" unicode=" "/>
<glyph glyph-name="exclam" horiz-adv-x="270" unicode="!" d="M233 94q0 -20 -7.5 -37.5t-21 -31t-31 -21.5t-37.5 -8t-37.5 8t-31 21.5t-21 31t-7.5 37.5q0 19 7.5 37t21 31.5t31 21.5t37.5 8t37.5 -8t31 -21.5t21 -31.5t7.5 -37zM230 354q0 -23 -8 -41t-21.5 -30.5t-31 -19t-35.5 -6.5q-39 0 -68 25.5t-29 71.5v253q0 48 29 72.5 t68 24.5q40 0 68 -24.5t28 -72.5v-253z"/>
<glyph glyph-name="quotedbl" horiz-adv-x="448" unicode='&quot;' d="M423 529q0 -42 -25 -63t-59 -21q-35 0 -60.5 21t-25.5 63v135q0 42 25.5 64.5t60.5 22.5q34 0 59 -22.5t25 -64.5v-135zM194 529q0 -42 -25 -63t-59 -21q-35 0 -60.5 21t-25.5 63v135q0 42 25.5 64.5t60.5 22.5q34 0 59 -22.5t25 -64.5v-135z"/>
<glyph glyph-name="numbersign" horiz-adv-x="707" unicode="#" d="M287 319h107l24 91h-106zM300 704q27 0 50.5 -17.5t23.5 -46.5q0 -7 -1.5 -12.5t-2.5 -10.5l-21 -75h108l31 112q14 50 59 50q27 0 50.5 -17.5t23.5 -46.5q0 -7 -1.5 -12.5t-2.5 -10.5l-21 -75h26q31 0 48.5 -20t17.5 -47q0 -26 -17.5 -45.5t-48.5 -19.5h-63l-25 -91h59 q31 0 48.5 -20t17.5 -46t-17.5 -46t-48.5 -20h-97l-38 -140q-8 -26 -24 -38.5t-35 -12.5q-29 0 -52.5 17.5t-23.5 44.5q0 18 4 25l30 104h-108l-38 -140q-8 -26 -24 -38.5t-35 -12.5q-29 0 -52.5 17.5t-23.5 44.5q0 18 4 25l30 104h-22q-30 0 -47 20t-17 46t17 46t47 20h59 l25 91h-54q-31 0 -48 19.5t-17 45.5q0 27 17 47t48 20h92l31 112q14 50 59 50z"/>
<glyph glyph-name="dollar" horiz-adv-x="627" unicode="$" d="M235 508q-39 0 -39 -30q0 -29 39 -29h32v59h-32zM393 195q38 0 38 29q0 30 -38 30h-32v-59h32zM601 224q0 -224 -219 -224h-21v-16q0 -24 -15 -36t-32 -12q-18 0 -32.5 12t-14.5 36v16h-137q-93 0 -93 94v4q3 97 94 97h136v59h-33q-106 0 -156.5 57.5t-50.5 166.5 q0 226 221 226h19v14q0 26 14.5 37t32.5 11q17 0 32 -11t15 -37v-14h102q92 0 92 -94v-4q-2 -98 -94 -98h-100v-59h33q207 0 207 -225z"/>
<glyph glyph-name="percent" horiz-adv-x="775" unicode="%" d="M508 135q0 -23 16 -39t39 -16t39 16t16 39t-16 39t-39 16t-39 -16t-16 -39zM706 135q0 -29 -11 -54.5t-30.5 -45t-45.5 -31t-56 -11.5q-32 0 -58.5 11t-46 30t-30 45t-10.5 56t11.5 56.5t31 46t46 31t56.5 11.5t56 -11.5t45.5 -31.5t30.5 -46.5t11 -55.5zM135 566 q0 -23 16 -38.5t39 -15.5t39.5 15.5t16.5 38.5q0 24 -16.5 40t-39.5 16t-39 -16t-16 -40zM333 566q0 -28 -11 -53.5t-30.5 -45t-45.5 -31.5t-56 -12q-32 0 -58 11t-45.5 30.5t-30 45t-10.5 55.5t11.5 56.5t31 46t45.5 31t56 11.5t56 -11.5t45.5 -31.5t30.5 -46t11 -56z M589 707q13 0 26 -5.5t23.5 -15t17 -22t6.5 -25.5q0 -22 -15 -41l-428 -573q-22 -29 -52 -29q-15 0 -28 6t-22.5 15.5t-15.5 22t-6 25.5q0 19 16 41l428 571q22 30 50 30z"/>
<glyph glyph-name="ampersand" horiz-adv-x="718" unicode="&amp;" d="M282 254q-39 0 -39 -30q0 -29 39 -29h117v59h-117zM593 98q0 -26 -9 -44.5t-24 -30.5t-34 -17.5t-40 -5.5h-274q-47 0 -80 13.5t-54.5 38t-31.5 58t-10 74.5q0 69 36 113.5t102 54.5q-66 10 -102 53t-36 112q0 40 10 74.5t31.5 59.5t55.5 39t81 14h88q88 0 88 -98 t-89 -98h-19q-39 0 -39 -30q0 -29 39 -29h117v16q0 48 28.5 72t68.5 24q39 0 68 -24t29 -72v-16h17q91 0 91 -97q0 -98 -93 -98h-15v-156z"/>
<glyph glyph-name="quotesingle" horiz-adv-x="219" unicode="&apos;" d="M194 529q0 -42 -25 -63t-59 -21q-35 0 -60.5 21t-25.5 63v135q0 42 25.5 64.5t60.5 22.5q34 0 59 -22.5t25 -64.5v-135z"/>
<glyph glyph-name="parenleft" horiz-adv-x="348" unicode="(" d="M290 754q-90 0 -90 -55v-650q0 -73 90 -73q45 0 45 -49q0 -50 -45 -50h-15q-198 0 -198 170v652q0 155 192 155h21q45 0 45 -49q0 -51 -45 -51z"/>
<glyph glyph-name="parenright" horiz-adv-x="348" unicode=")" d="M122 754q-46 0 -46 51q0 49 46 49h21q191 0 191 -155v-652q0 -170 -198 -170h-14q-46 0 -46 50q0 49 46 49q90 0 90 73v650q0 55 -90 55z"/>
<glyph glyph-name="asterisk" horiz-adv-x="436" unicode="*" d="M267 689q7 18 32 18q15 0 27.5 -9.5t12.5 -26.5q0 -4 -2 -8t-4 -10l-50 -87h103q18 0 26.5 -11t8.5 -25q0 -13 -8.5 -24.5t-26.5 -11.5h-103l50 -86q2 -6 4 -10.5t2 -8.5q0 -17 -12.5 -26t-27.5 -9q-24 0 -32 17l-49 87l-49 -87q-9 -17 -33 -17q-14 0 -27 9t-13 26 q0 4 2 8.5t4 10.5l50 86h-103q-18 0 -26.5 11.5t-8.5 24.5q0 14 8.5 25t26.5 11h103l-50 87q-2 6 -4 10t-2 8q0 17 13 26.5t27 9.5q22 0 33 -18l49 -85z"/>
<glyph glyph-name="plus" horiz-adv-x="580" unicode="+" d="M207 269h-93q-38 0 -59.5 24t-21.5 56q0 34 21.5 59t59.5 25h93v92q0 38 24.5 60t56.5 22q34 0 58.5 -22t24.5 -60v-92h94q38 0 59.5 -25t21.5 -59q0 -32 -21.5 -56t-59.5 -24h-94v-94q0 -38 -24.5 -59.5t-58.5 -21.5q-32 0 -56.5 21.5t-24.5 59.5v94z"/>
<glyph glyph-name="comma" horiz-adv-x="264" unicode="," d="M200 -108q-9 -33 -30.5 -48.5t-47.5 -15.5q-38 0 -65 22t-27 57q0 19 4 26l36 133q18 65 79 65q45 0 66.5 -27t21.5 -66q0 -2 -0.5 -5.5t-1.5 -8.5z"/>
<glyph glyph-name="hyphen" horiz-adv-x="348" unicode="-" d="M100 269q-38 0 -59.5 24t-21.5 56q0 34 21.5 59t59.5 25h148q38 0 59.5 -25t21.5 -59q0 -32 -21.5 -56t-59.5 -24h-148z"/>
<glyph glyph-name="period" horiz-adv-x="252" unicode="." d="M223 93q0 -20 -8 -37.5t-21.5 -30.5t-31.5 -21t-37 -8q-20 0 -37.5 8t-30.5 21t-21 30.5t-8 37.5t8 37.5t21 31t30.5 21t37.5 7.5q19 0 37 -7.5t31.5 -21t21.5 -31t8 -37.5z"/>
<glyph glyph-name="slash" horiz-adv-x="368" unicode="/" d="M296 827q28 0 51 -17.5t23 -46.5q0 -6 -1 -11.5t-2 -10.5l-222 -782q-17 -51 -59 -51q-29 0 -52 17t-23 45q0 13 3 25l223 782q17 50 59 50z"/>
<glyph glyph-name="zero" horiz-adv-x="669" unicode="0" d="M388 196q26 0 37 14t11 56v172q0 42 -11 56t-37 14h-105q-26 0 -37 -14t-11 -56v-172q0 -42 11 -56t37 -14h105zM626 261q0 -73 -16.5 -123t-47 -80.5t-73.5 -44t-96 -13.5h-115q-53 0 -96 13.5t-73.5 44t-47 80.5t-16.5 123v182q0 73 16.5 123t47 80.5t73.5 44t96 13.5 h115q53 0 96 -13.5t73.5 -44t47 -80.5t16.5 -123v-182z"/>
<glyph glyph-name="one" horiz-adv-x="381" unicode="1" d="M340 93q0 -48 -28.5 -72.5t-68.5 -24.5q-38 0 -67 25t-29 72v284q-24 -12 -49 -12q-20 0 -36.5 8t-28.5 21t-18.5 30.5t-6.5 36.5q0 21 8 41t25 37l133 131q40 40 83 40q38 0 60.5 -28.5t22.5 -79.5v-509z"/>
<glyph glyph-name="two" horiz-adv-x="649" unicode="2" d="M64 0q-25 0 -25 29v195q0 109 46 158t151 49h157q50 0 50 38q0 39 -50 39h-241q-92 0 -94 98v4q0 94 93 94h241q221 0 221 -226q0 -54 -9.5 -93.5t-32 -66t-60 -39t-92.5 -12.5h-165q-46 0 -46 -37l2 -35h301q55 0 78.5 -24t23.5 -73q0 -98 -103 -98h-446z"/>
<glyph glyph-name="three" horiz-adv-x="628" unicode="3" d="M39 98q0 97 94 97h239q21 0 30.5 13t9.5 27q0 15 -9.5 27.5t-30.5 12.5h-215q-68 0 -68 72q0 70 66 70h217q20 0 30 15t10 34q0 16 -9.5 29t-30.5 13h-244q-89 0 -89 98t88 98h309q37 0 65 -15.5t47 -41t28.5 -58.5t9.5 -67q0 -60 -25.5 -105.5t-79.5 -57.5 q27 -3 48.5 -18t36.5 -39t23.5 -55t8.5 -65q0 -37 -10 -70t-31 -58t-54.5 -39.5t-79.5 -14.5h-292q-92 0 -92 98z"/>
<glyph glyph-name="four" horiz-adv-x="613" unicode="4" d="M571 98q0 -48 -28.5 -72.5t-68.5 -24.5q-39 0 -68 24.5t-29 72.5v156h-254q-98 0 -98 98v254q0 48 29.5 72t68.5 24t68 -24t29 -72v-175h157v175q0 48 29 72t68 24q40 0 68.5 -24t28.5 -72v-508z"/>
<glyph glyph-name="five" horiz-adv-x="642" unicode="5" d="M607 225q0 -225 -219 -225h-240q-105 0 -105 98q0 49 27.5 73t78.5 24h234q54 0 54 40q0 41 -54 41h-295q-18 0 -28.5 11.5t-10.5 33.5v354q8 29 37 29h418q92 0 92 -98t-94 -98h-267v-71h165q103 0 155 -51.5t52 -160.5z"/>
<glyph glyph-name="six" horiz-adv-x="633" unicode="6" d="M381 195q42 0 42 50q0 51 -42 51h-115q-39 0 -39 -51q0 -50 39 -50h115zM598 224q0 -224 -220 -224h-135q-109 0 -158 55.5t-49 173.5v252q0 223 222 223h218q93 0 93 -98q0 -49 -24.5 -73.5t-69.5 -24.5h-208q-18 0 -29 -10.5t-11 -31.5v-35q9 5 20 7t22 2h121 q208 0 208 -216z"/>
<glyph glyph-name="seven" horiz-adv-x="601" unicode="7" d="M260 48q-18 -29 -41 -40.5t-45 -11.5q-19 0 -36.5 7t-31 19.5t-21.5 29t-8 36.5q0 10 4 25t15 32l237 363h-216q-48 0 -73 29t-25 69t25 69t73 29h382q40 0 65.5 -23t25.5 -65q0 -14 -4 -30t-14 -32z"/>
<glyph glyph-name="eight" horiz-adv-x="645" unicode="8" d="M260 275q-20 0 -29.5 -12.5t-9.5 -27.5q0 -14 9.5 -27t29.5 -13h123q21 0 30 13t9 27q0 15 -9 27.5t-30 12.5h-123zM260 508q-20 0 -29.5 -13t-9.5 -29q0 -19 10 -34t29 -15h123q19 0 29 15t10 34q0 16 -9 29t-30 13h-123zM210 0q-47 0 -80.5 14.5t-54.5 39.5t-30.5 58 t-9.5 70q0 34 8.5 65t23.5 55t36.5 39t48.5 18q-54 12 -79.5 57.5t-25.5 105.5q0 34 9.5 67t28.5 58.5t47 41t64 15.5h251q37 0 64.5 -15.5t46.5 -41t28.5 -58.5t9.5 -67q0 -60 -25 -105.5t-79 -57.5q27 -3 48.5 -18t36.5 -39t23 -55t8 -65q0 -37 -9.5 -70t-30.5 -58 t-54 -39.5t-80 -14.5h-224z"/>
<glyph glyph-name="nine" horiz-adv-x="634" unicode="9" d="M252 508q-42 0 -42 -49q0 -52 42 -52h115q39 0 39 52q0 49 -39 49h-115zM35 478q0 226 219 226h135q109 0 158 -56t49 -174v-252q0 -222 -221 -222h-218q-93 0 -93 98q0 49 24.5 73t69.5 24h208q17 0 28.5 10.5t11.5 30.5v35q-9 -4 -20.5 -5.5t-21.5 -1.5h-122 q-207 0 -207 214z"/>
<glyph glyph-name="colon" horiz-adv-x="288" unicode=":" d="M243 472q0 -42 -28 -69.5t-68 -27.5q-20 0 -37.5 7.5t-31 20.5t-21.5 30.5t-8 38.5q0 19 8 37t21.5 31.5t31 21.5t37.5 8t37.5 -8t30.5 -21.5t20.5 -31.5t7.5 -37zM245 93q0 -20 -8 -37.5t-21.5 -31t-31.5 -21t-37 -7.5q-20 0 -37.5 7.5t-31 21t-21.5 31t-8 37.5t8 37.5 t21.5 31t31 21t37.5 7.5q19 0 37 -7.5t31.5 -21t21.5 -31t8 -37.5z"/>
<glyph glyph-name="semicolon" horiz-adv-x="270" unicode=";" d="M189 -108q-9 -33 -30.5 -48.5t-47.5 -15.5q-38 0 -64.5 22t-26.5 57q0 19 4 26l35 133q17 65 80 65q37 0 62.5 -24t25.5 -59q0 -6 -0.5 -12.5t-2.5 -11.5zM236 470q0 -42 -28 -70t-68 -28q-20 0 -37.5 7.5t-31 20.5t-21.5 31t-8 39q0 19 8 37t21.5 31.5t31 21.5t37.5 8 t37.5 -8t30.5 -21.5t20.5 -31.5t7.5 -37z"/>
<glyph glyph-name="less" horiz-adv-x="499" unicode="&lt;" d="M380 216q21 -26 21 -51q0 -30 -21.5 -51t-50.5 -21q-30 0 -51 21l-186 187q-13 13 -18 25t-5 26t5 25.5t18 24.5l186 187q23 23 51 23q15 0 28 -6t22.5 -16.5t15.5 -23.5t6 -27q0 -30 -21 -51l-137 -136z"/>
<glyph glyph-name="equal" horiz-adv-x="580" unicode="=" d="M114 410q-38 0 -59.5 24t-21.5 56q0 34 21.5 59t59.5 25h351q38 0 59.5 -25t21.5 -59q0 -32 -21.5 -56t-59.5 -24h-351zM114 127q-38 0 -59.5 24.5t-21.5 56.5q0 34 21.5 59t59.5 25h351q38 0 59.5 -25t21.5 -59q0 -32 -21.5 -56.5t-59.5 -24.5h-351z"/>
<glyph glyph-name="greater" horiz-adv-x="499" unicode="&gt;" d="M261 352l-137 136q-20 20 -20 51q0 14 5.5 27t15.5 23.5t22.5 16.5t27.5 6q30 0 50 -23l188 -187q23 -23 23 -50q0 -28 -23 -51l-188 -187q-21 -21 -47 -21q-30 0 -52 20t-22 52q0 28 20 51z"/>
<glyph glyph-name="question" horiz-adv-x="636" unicode="?" d="M292 254q-103 0 -103 98q0 97 101 97h102q38 0 38 29q0 30 -38 30h-255q-99 0 -101 98v4q0 94 100 94h245q219 0 219 -226q0 -224 -218 -224h-90zM380 98q-1 -20 -9 -37.5t-21 -31t-30.5 -21.5t-37.5 -8t-37.5 8t-31 21.5t-21.5 31t-8 37.5t8 37.5t21.5 31t31 21 t37.5 7.5q19 0 37 -7.5t31.5 -21t21.5 -31t8 -37.5z"/>
<glyph glyph-name="at" horiz-adv-x="727" unicode="@" d="M495 299q0 -22 14 -31t34 -9q24 0 40 23t16 86q0 55 -13 101t-41 79.5t-73 52t-108 18.5q-50 0 -93 -17t-75 -50.5t-50.5 -83t-18.5 -114.5q0 -68 16.5 -115t46 -79t70.5 -50.5t91 -27.5q23 -5 35 -15.5t12 -33.5q0 -44 -51 -44q-77 0 -136 32t-99.5 83.5t-61 117 t-20.5 133.5q0 85 27.5 151t74 111.5t107 69.5t125.5 24q77 0 138.5 -21t104.5 -63.5t66 -107t23 -152.5q0 -25 -7 -58t-24.5 -63t-48 -50.5t-77.5 -20.5q-35 0 -62 13.5t-41 34.5q-20 -13 -41 -18t-43 -5q-27 0 -51 8.5t-42 25.5t-28.5 41t-10.5 56q0 66 34 100.5t97 34.5 q20 0 36 -3.5t30 -11.5q10 15 40 15q38 0 38 -41v-126zM413 367q-10 8 -23.5 13.5t-26.5 5.5q-61 0 -61 -55q0 -50 56 -50q32 0 55 23v63z"/>
<glyph glyph-name="A" d="M447 136h-208l-31 -77q-14 -32 -37 -47.5t-48 -15.5q-20 0 -38.5 6.5t-33.5 18.5t-24 29t-9 38q0 26 7 39l238 522q12 26 31 42t59 16q38 0 57.5 -16t30.5 -43l217 -521q7 -13 7 -39q0 -20 -9 -37t-23.5 -29t-33.5 -19t-38 -7q-64 0 -86 63zM300 289h94l-43 127z" unicode="A"/>
<glyph glyph-name="B" horiz-adv-x="636" unicode="B" d="M41 606q0 98 88 98h307q37 0 65 -15.5t47 -41t28.5 -58.5t9.5 -67q0 -60 -25.5 -105.5t-79.5 -57.5q27 -3 48.5 -18t36.5 -39t23.5 -55t8.5 -65q0 -37 -10 -70t-31 -58t-54.5 -39.5t-79.5 -14.5h-289q-93 0 -93 99v507zM227 275v-80h145q21 0 30.5 13t9.5 27 q0 15 -9.5 27.5t-30.5 12.5h-145zM227 508v-91h145q20 0 30 15t10 34q0 16 -9.5 29t-30.5 13h-145z"/>
<glyph glyph-name="C" horiz-adv-x="571" unicode="C" d="M375 506q-41 0 -71 -13t-50.5 -34.5t-30.5 -49.5t-10 -57q0 -30 10 -58.5t30.5 -50t50.5 -35t70 -13.5h72q25 0 43 -8.5t30 -22t18 -31t6 -35.5q0 -39 -24 -68.5t-73 -29.5h-71q-87 0 -153 29.5t-109.5 78.5t-65.5 111t-22 128t22.5 130.5t68.5 114.5t114 81t160 31h56 q24 0 42.5 -8.5t31 -22.5t19 -31.5t6.5 -36.5t-6.5 -37t-19 -31.5t-31 -22t-42.5 -8.5h-71z"/>
<glyph glyph-name="D" horiz-adv-x="625" unicode="D" d="M252 195q38 0 67.5 14t49 36.5t29.5 52t10 59.5q0 28 -9.5 54.5t-28.5 47.5t-49 34t-70 13h-17v-311h18zM40 606q0 19 9 37t23.5 31.5t32.5 21.5t36 8h94q91 0 159.5 -31t114 -81t68.5 -114.5t23 -130.5t-22 -128t-66 -111t-109 -78.5t-152 -29.5h-110q-46 0 -73.5 26 t-27.5 72v508z"/>
<glyph glyph-name="E" horiz-adv-x="602" unicode="E" d="M136 0q-96 0 -96 98v508q0 98 96 98h330q46 0 71.5 -29t25.5 -69t-25.5 -69t-71.5 -29h-233v-67h194q42 0 65.5 -26.5t23.5 -62.5t-23.5 -62.5t-65.5 -26.5h-194v-68h233q46 0 71.5 -28.5t25.5 -68.5t-25.5 -69t-71.5 -29h-330z"/>
<glyph glyph-name="F" horiz-adv-x="575" unicode="F" d="M233 98q0 -48 -29 -72.5t-68 -24.5t-67.5 24.5t-28.5 72.5v508q0 98 96 98h330q46 0 71.5 -29t25.5 -69t-25.5 -69t-71.5 -29h-233v-68h190q45 0 69 -27.5t24 -65.5t-24 -65.5t-69 -27.5h-190v-156z"/>
<glyph glyph-name="G" horiz-adv-x="584" unicode="G" d="M545 98q0 -48 -28.5 -73t-70.5 -25h-71q-87 0 -153 29.5t-109.5 78.5t-65.5 111t-22 128q0 72 22.5 137t68.5 114t114 77.5t160 28.5h56q24 0 42.5 -8.5t31 -22.5t19 -31.5t6.5 -36.5t-6.5 -37t-19 -31.5t-31 -22t-42.5 -8.5h-71q-41 0 -71 -13t-50.5 -34.5t-30.5 -49.5 t-10 -57q0 -30 8 -57.5t25.5 -49t44 -34.5t63.5 -15v116q0 45 28.5 70t66.5 25q39 0 67.5 -25t28.5 -70v-214z"/>
<glyph glyph-name="H" horiz-adv-x="627" unicode="H" d="M586 93q0 -48 -29 -72.5t-69 -24.5q-39 0 -67.5 24.5t-28.5 72.5v167h-158v-167q0 -48 -29 -72.5t-69 -24.5q-39 0 -67.5 24.5t-28.5 72.5v518q0 46 28.5 71t67.5 25q40 0 69 -25t29 -71v-168h158v168q0 46 28.5 71t67.5 25q40 0 69 -25t29 -71v-518z"/>
<glyph glyph-name="I" horiz-adv-x="274" unicode="I" d="M233 93q0 -48 -29 -72.5t-68 -24.5q-40 0 -68.5 24.5t-28.5 72.5v518q0 46 28.5 71t68.5 25q39 0 68 -25t29 -71v-518z"/>
<glyph glyph-name="J" horiz-adv-x="507" unicode="J" d="M472 351q0 -80 -20 -145t-60 -111t-100 -70.5t-140 -24.5h-46q-46 0 -72 29t-26 69t26 68.5t72 28.5h29q35 0 62 7t45.5 23.5t28 44.5t9.5 69v272q0 46 28.5 71t67.5 25t67.5 -25t28.5 -71v-260z"/>
<glyph glyph-name="K" horiz-adv-x="595" unicode="K" d="M234 93q0 -48 -29 -72.5t-68 -24.5q-40 0 -68.5 24.5t-28.5 72.5v518q0 46 28.5 71t68.5 25q39 0 68 -25t29 -71v-166l159 225q7 10 14 17.5t15 11.5t19 6t27 2q48 0 74.5 -27.5t26.5 -69.5q0 -17 -5 -33t-17 -28l-163 -184l164 -210q23 -29 23 -61q0 -45 -28 -71.5 t-73 -26.5q-22 0 -41.5 9t-33.5 29l-161 225v-166z"/>
<glyph glyph-name="L" horiz-adv-x="440" unicode="L" d="M136 0q-96 0 -96 98v513q0 46 28.5 71t67.5 25t68 -25t29 -71v-416h103q45 0 68.5 -28.5t23.5 -68.5t-23.5 -69t-68.5 -29h-200z"/>
<glyph glyph-name="M" horiz-adv-x="758" unicode="M" d="M378 259q-39 0 -71 41l-72 94v-301q0 -47 -29 -72t-67 -25q-40 0 -69 24.5t-29 72.5v511q0 24 8.5 43.5t22.5 32.5t32.5 20t38.5 7q26 0 52 -12.5t45 -36.5l138 -177l139 177q19 24 44.5 36.5t51.5 12.5q20 0 38.5 -7t33 -20t23 -32.5t8.5 -43.5v-511q0 -48 -29 -72.5 t-69 -24.5q-39 0 -67.5 24.5t-28.5 72.5v301l-71 -94q-17 -23 -35 -32t-38 -9z"/>
<glyph glyph-name="N" horiz-adv-x="627" unicode="N" d="M400 615q0 45 27.5 68.5t66.5 23.5q37 0 64.5 -23.5t27.5 -68.5v-522q0 -23 -8 -41t-20.5 -30.5t-29 -19t-34.5 -6.5q-24 0 -47 12t-40 38l-182 271v-229q0 -45 -27.5 -68.5t-66.5 -23.5q-37 0 -64 23.5t-27 68.5v523q0 22 7.5 40t20.5 30.5t29 19t34 6.5q25 0 48 -11.5 t40 -37.5l181 -271v228z"/>
<glyph glyph-name="O" horiz-adv-x="775" unicode="O" d="M225 349q0 -34 13 -63.5t35 -51.5t51.5 -34.5t63.5 -12.5t63.5 12.5t52 34.5t35.5 51.5t13 63.5t-13 64t-35.5 52t-52 35t-63.5 13t-63.5 -13t-51.5 -35t-35 -52t-13 -64zM28 352q0 75 28 140t77 114t114 77t140 28t140.5 -28t114 -77t77 -114t28.5 -140t-28.5 -140 t-77 -114t-114 -77t-140.5 -28t-140 28t-114 77t-77 114t-28 140z"/>
<glyph glyph-name="P" horiz-adv-x="590" unicode="P" d="M236 96q0 -100 -97 -100q-98 0 -98 98v512q0 98 94 98h198q63 0 109.5 -16t76.5 -45.5t44.5 -71.5t14.5 -94q0 -48 -13.5 -89.5t-38.5 -71.5t-61 -47.5t-82 -17.5h-34q-48 0 -67 22.5t-19 60.5t21 56t53 18h16q25 0 39 13t14 40q0 30 -17 43.5t-48 13.5h-105v-422z"/>
<glyph glyph-name="Q" horiz-adv-x="780" unicode="Q" d="M219 349q0 -35 13 -66t36 -54t54 -36t66 -13q10 0 20.5 1t19.5 3l-85 85q-14 14 -19.5 28.5t-5.5 31.5q0 18 7.5 34t19.5 28t28 19.5t34 7.5q17 0 31 -5.5t28 -19.5l87 -87q6 19 6 43q0 35 -13.5 66t-37 54t-54.5 36.5t-66 13.5t-66 -13.5t-54 -36.5t-36 -54t-13 -66z M569 42q-42 -23 -86.5 -36t-95.5 -13q-75 0 -140 28t-114 77t-77 114t-28 140t28 140t77 114t114 77t140 28t140.5 -28t114 -77t77 -114t28.5 -140q0 -54 -14 -99.5t-39 -87.5l18 -19q14 -15 20.5 -31t6.5 -29q0 -18 -7.5 -34t-20 -28.5t-28.5 -20t-34 -7.5q-32 0 -60 27z "/>
<glyph glyph-name="R" horiz-adv-x="610" unicode="R" d="M272 266q-5 8 -10 22q-4 12 -4 25v6q0 45 17.5 68.5t57.5 23.5h14q25 0 40 14t15 44q0 27 -15 38t-46 11h-105v-418q0 -100 -97 -100q-98 0 -98 98v508q0 98 94 98h210q62 0 107 -18.5t74 -48.5t43 -68.5t14 -78.5q0 -72 -34.5 -122t-83.5 -70l93 -146q19 -34 19 -60 q0 -21 -9 -39t-24 -30.5t-34 -19.5t-38 -7q-23 0 -45.5 12t-36.5 38z"/>
<glyph glyph-name="S" horiz-adv-x="581" unicode="S" d="M549 224q0 -224 -219 -224h-193q-24 0 -42 8.5t-30 22t-18 31t-6 36.5q0 18 6 35.5t18.5 31t31 22t42.5 8.5h202q20 0 29.5 11.5t9.5 24.5q0 14 -9.5 26t-29.5 12h-100q-103 0 -155 50t-52 159q0 226 221 226h156q25 0 44 -8.5t32 -22t19.5 -31t6.5 -35.5t-6.5 -36 t-19.5 -32t-32.5 -22.5t-44.5 -8.5h-168q-20 0 -29 -11.5t-9 -25.5q0 -13 9 -24.5t29 -11.5h100q106 0 156.5 -51t50.5 -160z"/>
<glyph glyph-name="T" horiz-adv-x="558" unicode="T" d="M375 93q0 -48 -29 -72.5t-69 -24.5q-39 0 -67.5 24.5t-28.5 72.5v415h-68q-46 0 -71.5 29t-25.5 69t25.5 69t71.5 29h328q46 0 72 -29t26 -69t-26 -69t-72 -29h-66v-415z"/>
<glyph glyph-name="U" horiz-adv-x="642" unicode="U" d="M606 302q0 -309 -283 -309q-287 0 -287 309v309q0 46 29 71t68 25q40 0 68.5 -25t28.5 -71v-339q0 -86 91 -86t91 86v339q0 23 8 41t21 30t30.5 18.5t36.5 6.5q40 0 69 -25t29 -71v-309z"/>
<glyph glyph-name="V" horiz-adv-x="671" unicode="V" d="M327 293l139 352q13 32 37 47t50 15q19 0 38 -6.5t34 -18.5t24 -29t9 -38q0 -14 -2 -22t-7 -17l-233 -522q-13 -26 -33 -42t-59 -16t-57.5 16t-30.5 43l-213 521q-4 9 -6.5 18.5t-2.5 20.5q0 20 9 37t24 29t33.5 19t38.5 7q26 0 50.5 -15t35.5 -47z"/>
<glyph glyph-name="W" horiz-adv-x="982" unicode="W" d="M763 640q9 35 31.5 51t52.5 16q18 0 35 -6.5t30.5 -18.5t21.5 -30t8 -40q0 -8 -1 -17t-4 -18l-162 -513q-12 -35 -39.5 -51.5t-53.5 -16.5q-32 0 -57.5 17.5t-37.5 50.5l-93 258l-89 -258q-12 -35 -39.5 -51.5t-53.5 -16.5q-32 0 -58.5 17.5t-36.5 50.5l-172 517 q-3 8 -5.5 15t-2.5 15q0 22 8 40t21.5 30.5t31 19t36.5 6.5q29 0 53 -15.5t34 -50.5l96 -345l91 340q18 71 90 71q28 0 54.5 -18t35.5 -53l89 -340z"/>
<glyph glyph-name="X" horiz-adv-x="592" unicode="X" d="M371 657q29 50 81 50q19 0 38 -8t33 -21.5t23 -31t9 -36.5q0 -28 -16 -51l-141 -208l141 -208q7 -12 11.5 -24t4.5 -26q0 -20 -9.5 -37.5t-25 -31t-34.5 -21t-38 -7.5q-48 0 -77 50l-76 134l-75 -134q-15 -26 -35 -38t-42 -12q-18 0 -37 7.5t-34.5 21t-25.5 31t-10 37.5 q0 9 4.5 23t12.5 27l140 208l-140 208q-7 10 -12 20t-5 21q0 20 8 39.5t21.5 34.5t32.5 24t42 9t44 -12.5t36 -37.5l75 -135z"/>
<glyph glyph-name="Y" horiz-adv-x="576" unicode="Y" d="M375 657q15 26 37.5 38t45.5 12q19 0 37 -7.5t32 -20t22.5 -30t8.5 -37.5q0 -26 -16 -53l-156 -254v-212q0 -48 -29 -72.5t-68 -24.5q-40 0 -68.5 24.5t-28.5 72.5v212l-158 255q-16 25 -16 49q0 20 8.5 38t22.5 31.5t32 21t38 7.5q21 0 44 -11.5t38 -37.5l87 -152z"/>
<glyph glyph-name="Z" horiz-adv-x="649" unicode="Z" d="M502 195q46 0 72 -28.5t26 -68.5t-26 -69t-72 -29h-357q-57 0 -82.5 25.5t-25.5 58.5q0 42 28 79l262 345h-190q-46 0 -71.5 29t-25.5 69t25.5 69t71.5 29h365q45 0 69 -27t24 -64q0 -23 -6 -35t-17 -27l-256 -356h186z"/>
<glyph glyph-name="bracketleft" horiz-adv-x="347" unicode="[" d="M217 754v-778h60q50 0 50 -49q0 -50 -50 -50h-146q-18 0 -28 8t-10 34v893q0 26 8 34t30 8h149q47 0 47 -47q0 -53 -47 -53h-63z"/>
<glyph glyph-name="backslash" horiz-adv-x="368" unicode="\" d="M84 827q19 0 35 -12.5t24 -37.5l224 -782q3 -12 3 -25q0 -28 -23 -45t-52 -17q-43 0 -59 51l-222 782q-1 5 -2 10.5t-1 11.5q0 29 23 46.5t50 17.5z"/>
<glyph glyph-name="bracketright" horiz-adv-x="347" unicode="]" d="M139 754q-47 0 -47 53q0 47 47 47h148q23 0 30.5 -8t7.5 -34v-893q0 -26 -9.5 -34t-28.5 -8h-146q-49 0 -49 50q0 49 49 49h61v778h-63z"/>
<glyph glyph-name="asciicircum" horiz-adv-x="553" unicode="^" d="M140 395q-26 -21 -51 -21q-29 0 -50 21.5t-21 50.5t21 50l186 187q24 24 51 24t51 -24l187 -187q22 -22 22 -50q0 -15 -6 -28t-16 -22.5t-23 -15.5t-27 -6q-30 0 -51 21l-137 136z"/>
<glyph glyph-name="underscore" horiz-adv-x="777" unicode="_" d="M134 -214q-45 0 -71 28.5t-26 67.5t26 67.5t71 28.5h508q48 0 73 -28.5t25 -67.5t-25 -67.5t-73 -28.5h-508z"/>
<glyph glyph-name="grave" horiz-adv-x="384" unicode="`" d="M70 813q-23 6 -32.5 21.5t-9.5 30.5q0 22 14 39t39 17q2 0 6 -0.5t9 -1.5l220 -58q23 -6 32 -20.5t9 -31.5q0 -20 -14.5 -37.5t-37.5 -17.5q-2 0 -7 0.5t-10 1.5z"/>
<glyph glyph-name="a" d="M447 136h-208l-31 -77q-14 -32 -37 -47.5t-48 -15.5q-20 0 -38.5 6.5t-33.5 18.5t-24 29t-9 38q0 26 7 39l238 522q12 26 31 42t59 16q38 0 57.5 -16t30.5 -43l217 -521q7 -13 7 -39q0 -20 -9 -37t-23.5 -29t-33.5 -19t-38 -7q-64 0 -86 63zM300 289h94l-43 127z" unicode="a"/>
<glyph glyph-name="b" horiz-adv-x="636" unicode="b" d="M41 606q0 98 88 98h307q37 0 65 -15.5t47 -41t28.5 -58.5t9.5 -67q0 -60 -25.5 -105.5t-79.5 -57.5q27 -3 48.5 -18t36.5 -39t23.5 -55t8.5 -65q0 -37 -10 -70t-31 -58t-54.5 -39.5t-79.5 -14.5h-289q-93 0 -93 99v507zM227 275v-80h145q21 0 30.5 13t9.5 27 q0 15 -9.5 27.5t-30.5 12.5h-145zM227 508v-91h145q20 0 30 15t10 34q0 16 -9.5 29t-30.5 13h-145z"/>
<glyph glyph-name="c" horiz-adv-x="571" unicode="c" d="M375 506q-41 0 -71 -13t-50.5 -34.5t-30.5 -49.5t-10 -57q0 -30 10 -58.5t30.5 -50t50.5 -35t70 -13.5h72q25 0 43 -8.5t30 -22t18 -31t6 -35.5q0 -39 -24 -68.5t-73 -29.5h-71q-87 0 -153 29.5t-109.5 78.5t-65.5 111t-22 128t22.5 130.5t68.5 114.5t114 81t160 31h56 q24 0 42.5 -8.5t31 -22.5t19 -31.5t6.5 -36.5t-6.5 -37t-19 -31.5t-31 -22t-42.5 -8.5h-71z"/>
<glyph glyph-name="d" horiz-adv-x="625" unicode="d" d="M252 195q38 0 67.5 14t49 36.5t29.5 52t10 59.5q0 28 -9.5 54.5t-28.5 47.5t-49 34t-70 13h-17v-311h18zM40 606q0 19 9 37t23.5 31.5t32.5 21.5t36 8h94q91 0 159.5 -31t114 -81t68.5 -114.5t23 -130.5t-22 -128t-66 -111t-109 -78.5t-152 -29.5h-110q-46 0 -73.5 26 t-27.5 72v508z"/>
<glyph glyph-name="e" horiz-adv-x="602" unicode="e" d="M136 0q-96 0 -96 98v508q0 98 96 98h330q46 0 71.5 -29t25.5 -69t-25.5 -69t-71.5 -29h-233v-67h194q42 0 65.5 -26.5t23.5 -62.5t-23.5 -62.5t-65.5 -26.5h-194v-68h233q46 0 71.5 -28.5t25.5 -68.5t-25.5 -69t-71.5 -29h-330z"/>
<glyph glyph-name="f" horiz-adv-x="575" unicode="f" d="M233 98q0 -48 -29 -72.5t-68 -24.5t-67.5 24.5t-28.5 72.5v508q0 98 96 98h330q46 0 71.5 -29t25.5 -69t-25.5 -69t-71.5 -29h-233v-68h190q45 0 69 -27.5t24 -65.5t-24 -65.5t-69 -27.5h-190v-156z"/>
<glyph glyph-name="g" horiz-adv-x="584" unicode="g" d="M545 98q0 -48 -28.5 -73t-70.5 -25h-71q-87 0 -153 29.5t-109.5 78.5t-65.5 111t-22 128q0 72 22.5 137t68.5 114t114 77.5t160 28.5h56q24 0 42.5 -8.5t31 -22.5t19 -31.5t6.5 -36.5t-6.5 -37t-19 -31.5t-31 -22t-42.5 -8.5h-71q-41 0 -71 -13t-50.5 -34.5t-30.5 -49.5 t-10 -57q0 -30 8 -57.5t25.5 -49t44 -34.5t63.5 -15v116q0 45 28.5 70t66.5 25q39 0 67.5 -25t28.5 -70v-214z"/>
<glyph glyph-name="h" horiz-adv-x="627" unicode="h" d="M586 93q0 -48 -29 -72.5t-69 -24.5q-39 0 -67.5 24.5t-28.5 72.5v167h-158v-167q0 -48 -29 -72.5t-69 -24.5q-39 0 -67.5 24.5t-28.5 72.5v518q0 46 28.5 71t67.5 25q40 0 69 -25t29 -71v-168h158v168q0 46 28.5 71t67.5 25q40 0 69 -25t29 -71v-518z"/>
<glyph glyph-name="i" horiz-adv-x="274" unicode="i" d="M233 93q0 -48 -29 -72.5t-68 -24.5q-40 0 -68.5 24.5t-28.5 72.5v518q0 46 28.5 71t68.5 25q39 0 68 -25t29 -71v-518z"/>
<glyph glyph-name="j" horiz-adv-x="507" unicode="j" d="M472 351q0 -80 -20 -145t-60 -111t-100 -70.5t-140 -24.5h-46q-46 0 -72 29t-26 69t26 68.5t72 28.5h29q35 0 62 7t45.5 23.5t28 44.5t9.5 69v272q0 46 28.5 71t67.5 25t67.5 -25t28.5 -71v-260z"/>
<glyph glyph-name="k" horiz-adv-x="595" unicode="k" d="M234 93q0 -48 -29 -72.5t-68 -24.5q-40 0 -68.5 24.5t-28.5 72.5v518q0 46 28.5 71t68.5 25q39 0 68 -25t29 -71v-166l159 225q7 10 14 17.5t15 11.5t19 6t27 2q48 0 74.5 -27.5t26.5 -69.5q0 -17 -5 -33t-17 -28l-163 -184l164 -210q23 -29 23 -61q0 -45 -28 -71.5 t-73 -26.5q-22 0 -41.5 9t-33.5 29l-161 225v-166z"/>
<glyph glyph-name="l" horiz-adv-x="440" unicode="l" d="M136 0q-96 0 -96 98v513q0 46 28.5 71t67.5 25t68 -25t29 -71v-416h103q45 0 68.5 -28.5t23.5 -68.5t-23.5 -69t-68.5 -29h-200z"/>
<glyph glyph-name="m" horiz-adv-x="758" unicode="m" d="M378 259q-39 0 -71 41l-72 94v-301q0 -47 -29 -72t-67 -25q-40 0 -69 24.5t-29 72.5v511q0 24 8.5 43.5t22.5 32.5t32.5 20t38.5 7q26 0 52 -12.5t45 -36.5l138 -177l139 177q19 24 44.5 36.5t51.5 12.5q20 0 38.5 -7t33 -20t23 -32.5t8.5 -43.5v-511q0 -48 -29 -72.5 t-69 -24.5q-39 0 -67.5 24.5t-28.5 72.5v301l-71 -94q-17 -23 -35 -32t-38 -9z"/>
<glyph glyph-name="n" horiz-adv-x="627" unicode="n" d="M400 615q0 45 27.5 68.5t66.5 23.5q37 0 64.5 -23.5t27.5 -68.5v-522q0 -23 -8 -41t-20.5 -30.5t-29 -19t-34.5 -6.5q-24 0 -47 12t-40 38l-182 271v-229q0 -45 -27.5 -68.5t-66.5 -23.5q-37 0 -64 23.5t-27 68.5v523q0 22 7.5 40t20.5 30.5t29 19t34 6.5q25 0 48 -11.5 t40 -37.5l181 -271v228z"/>
<glyph glyph-name="o" horiz-adv-x="775" unicode="o" d="M225 349q0 -34 13 -63.5t35 -51.5t51.5 -34.5t63.5 -12.5t63.5 12.5t52 34.5t35.5 51.5t13 63.5t-13 64t-35.5 52t-52 35t-63.5 13t-63.5 -13t-51.5 -35t-35 -52t-13 -64zM28 352q0 75 28 140t77 114t114 77t140 28t140.5 -28t114 -77t77 -114t28.5 -140t-28.5 -140 t-77 -114t-114 -77t-140.5 -28t-140 28t-114 77t-77 114t-28 140z"/>
<glyph glyph-name="p" horiz-adv-x="590" unicode="p" d="M236 96q0 -100 -97 -100q-98 0 -98 98v512q0 98 94 98h198q63 0 109.5 -16t76.5 -45.5t44.5 -71.5t14.5 -94q0 -48 -13.5 -89.5t-38.5 -71.5t-61 -47.5t-82 -17.5h-34q-48 0 -67 22.5t-19 60.5t21 56t53 18h16q25 0 39 13t14 40q0 30 -17 43.5t-48 13.5h-105v-422z"/>
<glyph glyph-name="q" horiz-adv-x="780" unicode="q" d="M219 349q0 -35 13 -66t36 -54t54 -36t66 -13q10 0 20.5 1t19.5 3l-85 85q-14 14 -19.5 28.5t-5.5 31.5q0 18 7.5 34t19.5 28t28 19.5t34 7.5q17 0 31 -5.5t28 -19.5l87 -87q6 19 6 43q0 35 -13.5 66t-37 54t-54.5 36.5t-66 13.5t-66 -13.5t-54 -36.5t-36 -54t-13 -66z M569 42q-42 -23 -86.5 -36t-95.5 -13q-75 0 -140 28t-114 77t-77 114t-28 140t28 140t77 114t114 77t140 28t140.5 -28t114 -77t77 -114t28.5 -140q0 -54 -14 -99.5t-39 -87.5l18 -19q14 -15 20.5 -31t6.5 -29q0 -18 -7.5 -34t-20 -28.5t-28.5 -20t-34 -7.5q-32 0 -60 27z "/>
<glyph glyph-name="r" horiz-adv-x="610" unicode="r" d="M272 266q-5 8 -10 22q-4 12 -4 25v6q0 45 17.5 68.5t57.5 23.5h14q25 0 40 14t15 44q0 27 -15 38t-46 11h-105v-418q0 -100 -97 -100q-98 0 -98 98v508q0 98 94 98h210q62 0 107 -18.5t74 -48.5t43 -68.5t14 -78.5q0 -72 -34.5 -122t-83.5 -70l93 -146q19 -34 19 -60 q0 -21 -9 -39t-24 -30.5t-34 -19.5t-38 -7q-23 0 -45.5 12t-36.5 38z"/>
<glyph glyph-name="s" horiz-adv-x="581" unicode="s" d="M549 224q0 -224 -219 -224h-193q-24 0 -42 8.5t-30 22t-18 31t-6 36.5q0 18 6 35.5t18.5 31t31 22t42.5 8.5h202q20 0 29.5 11.5t9.5 24.5q0 14 -9.5 26t-29.5 12h-100q-103 0 -155 50t-52 159q0 226 221 226h156q25 0 44 -8.5t32 -22t19.5 -31t6.5 -35.5t-6.5 -36 t-19.5 -32t-32.5 -22.5t-44.5 -8.5h-168q-20 0 -29 -11.5t-9 -25.5q0 -13 9 -24.5t29 -11.5h100q106 0 156.5 -51t50.5 -160z"/>
<glyph glyph-name="t" horiz-adv-x="558" unicode="t" d="M375 93q0 -48 -29 -72.5t-69 -24.5q-39 0 -67.5 24.5t-28.5 72.5v415h-68q-46 0 -71.5 29t-25.5 69t25.5 69t71.5 29h328q46 0 72 -29t26 -69t-26 -69t-72 -29h-66v-415z"/>
<glyph glyph-name="u" horiz-adv-x="642" unicode="u" d="M606 302q0 -309 -283 -309q-287 0 -287 309v309q0 46 29 71t68 25q40 0 68.5 -25t28.5 -71v-339q0 -86 91 -86t91 86v339q0 23 8 41t21 30t30.5 18.5t36.5 6.5q40 0 69 -25t29 -71v-309z"/>
<glyph glyph-name="v" horiz-adv-x="671" unicode="v" d="M327 293l139 352q13 32 37 47t50 15q19 0 38 -6.5t34 -18.5t24 -29t9 -38q0 -14 -2 -22t-7 -17l-233 -522q-13 -26 -33 -42t-59 -16t-57.5 16t-30.5 43l-213 521q-4 9 -6.5 18.5t-2.5 20.5q0 20 9 37t24 29t33.5 19t38.5 7q26 0 50.5 -15t35.5 -47z"/>
<glyph glyph-name="w" horiz-adv-x="982" unicode="w" d="M763 640q9 35 31.5 51t52.5 16q18 0 35 -6.5t30.5 -18.5t21.5 -30t8 -40q0 -8 -1 -17t-4 -18l-162 -513q-12 -35 -39.5 -51.5t-53.5 -16.5q-32 0 -57.5 17.5t-37.5 50.5l-93 258l-89 -258q-12 -35 -39.5 -51.5t-53.5 -16.5q-32 0 -58.5 17.5t-36.5 50.5l-172 517 q-3 8 -5.5 15t-2.5 15q0 22 8 40t21.5 30.5t31 19t36.5 6.5q29 0 53 -15.5t34 -50.5l96 -345l91 340q18 71 90 71q28 0 54.5 -18t35.5 -53l89 -340z"/>
<glyph glyph-name="x" horiz-adv-x="592" unicode="x" d="M371 657q29 50 81 50q19 0 38 -8t33 -21.5t23 -31t9 -36.5q0 -28 -16 -51l-141 -208l141 -208q7 -12 11.5 -24t4.5 -26q0 -20 -9.5 -37.5t-25 -31t-34.5 -21t-38 -7.5q-48 0 -77 50l-76 134l-75 -134q-15 -26 -35 -38t-42 -12q-18 0 -37 7.5t-34.5 21t-25.5 31t-10 37.5 q0 9 4.5 23t12.5 27l140 208l-140 208q-7 10 -12 20t-5 21q0 20 8 39.5t21.5 34.5t32.5 24t42 9t44 -12.5t36 -37.5l75 -135z"/>
<glyph glyph-name="y" horiz-adv-x="576" unicode="y" d="M375 657q15 26 37.5 38t45.5 12q19 0 37 -7.5t32 -20t22.5 -30t8.5 -37.5q0 -26 -16 -53l-156 -254v-212q0 -48 -29 -72.5t-68 -24.5q-40 0 -68.5 24.5t-28.5 72.5v212l-158 255q-16 25 -16 49q0 20 8.5 38t22.5 31.5t32 21t38 7.5q21 0 44 -11.5t38 -37.5l87 -152z"/>
<glyph glyph-name="z" horiz-adv-x="649" unicode="z" d="M502 195q46 0 72 -28.5t26 -68.5t-26 -69t-72 -29h-357q-57 0 -82.5 25.5t-25.5 58.5q0 42 28 79l262 345h-190q-46 0 -71.5 29t-25.5 69t25.5 69t71.5 29h365q45 0 69 -27t24 -64q0 -23 -6 -35t-17 -27l-256 -356h186z"/>
<glyph glyph-name="braceleft" horiz-adv-x="358" unicode="{" d="M228 -123q-144 0 -144 88v328q0 25 -12 25q-53 0 -53 51q0 52 53 52q12 0 12 20v325q0 88 151 88h14q50 0 50 -52q0 -48 -50 -48h-39q-23 0 -23 -18v-285q0 -52 -64 -85q64 -37 64 -86v-299q0 -5 23 -5h32q46 0 46 -49q0 -50 -46 -50h-14z"/>
<glyph glyph-name="bar" horiz-adv-x="369" unicode="|" d="M184 827q28 0 48 -16t20 -51v-782q0 -32 -20 -49t-48 -17t-47.5 17t-19.5 49v782q0 35 19.5 51t47.5 16z"/>
<glyph glyph-name="braceright" horiz-adv-x="358" unicode="}" d="M89 854q144 0 144 -88v-327q0 -25 13 -25q53 0 53 -51q0 -52 -53 -52q-13 0 -13 -21v-325q0 -88 -151 -88h-13q-50 0 -50 52q0 48 50 48h39q22 0 22 18v286q0 50 65 85q-65 36 -65 86v299q0 4 -22 4h-33q-46 0 -46 50q0 49 46 49h14z"/>
<glyph glyph-name="asciitilde" horiz-adv-x="623" unicode="~" d="M468 436q21 22 40 22q23 0 42 -16.5t19 -42.5q0 -29 -14.5 -51.5t-37 -38.5t-50 -24.5t-54.5 -8.5t-55 9t-54 19.5t-51 19.5t-46 9q-10 0 -17 -2t-14 -6.5t-15.5 -12.5t-20.5 -20q-22 -22 -40 -22q-23 0 -42 16.5t-19 42.5q0 28 14 51t36.5 39t50.5 24.5t55 8.5t53.5 -9 t53 -19.5t51.5 -19.5t48 -9q10 0 17 2t14 6.5t15.5 12.5t20.5 20z"/>
<glyph glyph-name="uni00A0" horiz-adv-x="0" unicode=" "/>
<glyph glyph-name="exclamdown" horiz-adv-x="270" unicode="¡" d="M37.0146 606.006q0 19.999 7.49902 37.498q7.5 17.498 20.999 30.998q13.499 13.499 30.998 21.498q17.499 8 37.4971 8q19.999 0 37.498 -8q17.499 -7.99902 30.998 -21.498q13.499 -13.5 20.999 -30.998q7.49902 -17.499 7.49902 -37.498q0 -18.999 -7.49902 -36.998 q-7.5 -17.999 -20.999 -31.498t-30.998 -21.498q-17.499 -8 -37.498 -8q-19.998 0 -37.4971 8q-17.499 7.99902 -30.998 21.498t-20.999 31.498q-7.49902 17.999 -7.49902 36.998zM40.0137 346.021q0 22.999 8 40.998q7.99902 17.998 21.499 30.498 q13.499 12.499 30.998 18.998q17.499 6.5 35.4971 6.5q38.998 0 67.9961 -25.498q28.998 -25.499 28.998 -71.4961v-252.984q0 -47.9971 -28.998 -72.4961q-28.998 -24.498 -67.9961 -24.498q-39.9971 0 -67.9951 24.498q-27.999 24.499 -27.999 72.4961v252.984z"/>
<glyph glyph-name="cent" horiz-adv-x="576" unicode="¢" d="M213 352q0 -48 25 -89t76 -58v291q-51 -17 -76 -56.5t-25 -87.5zM408 704h38q24 0 42.5 -8.5t31 -22.5t19 -31.5t6.5 -36.5t-6.5 -37t-19 -31.5t-31 -22t-42.5 -8.5h-38v-311h38q25 0 43 -8.5t30 -22t18 -31t6 -35.5q0 -39 -24 -68.5t-73 -29.5h-38v-16q0 -24 -15 -36 t-32 -12q-18 0 -32.5 12t-14.5 36v21q-72 10 -126 42.5t-90.5 79t-54.5 103.5t-18 117q0 59 18 116.5t54 105t90 81.5t127 46v22q0 26 14.5 37t32.5 11q17 0 32 -11t15 -37v-14z"/>
<glyph glyph-name="sterling" horiz-adv-x="527" unicode="£" d="M34 302q-25 0 -36.5 14.5t-11.5 32.5q0 17 11.5 32t36.5 15h7q4 70 26.5 127.5t63 98t98 62.5t132.5 22h46q46 0 72 -29t26 -69t-26 -68.5t-72 -28.5h-30q-63 0 -100.5 -25.5t-42.5 -89.5h132q25 0 36.5 -15t11.5 -32q0 -18 -11.5 -32.5t-36.5 -14.5h-133v-107h185 q45 0 69 -28.5t24 -68.5t-24 -69t-69 -29h-282q-96 0 -96 100v202h-6z"/>
<glyph glyph-name="currency" horiz-adv-x="620" unicode="¤" d="M190 349q0 -24 9 -45t24.5 -36.5t36.5 -24.5t45 -9t45 9t37 24.5t25 36.5t9 45t-9 45t-25 37t-37 25t-45 9t-45 -9t-36.5 -25t-24.5 -37t-9 -45zM85 349q0 46 19 88l-50 50q-25 25 -25 57q0 16 7 31.5t19 26.5t27 18t32 7q14 0 28.5 -5.5t27.5 -18.5l51 -51q42 17 84 17 q23 0 44.5 -5t41.5 -13l51 51q13 13 28.5 19.5t30.5 6.5q16 0 31 -7t26.5 -19t18 -27t6.5 -31q0 -14 -6 -29.5t-19 -28.5l-51 -51q8 -20 13 -41.5t5 -44.5q0 -42 -17 -84l52 -51q13 -13 18.5 -28t5.5 -29q0 -16 -7 -31t-18 -27t-26.5 -19.5t-31.5 -7.5q-31 0 -57 26l-50 50 q-42 -19 -89 -19t-86 18l-49 -49q-14 -14 -28.5 -19.5t-29.5 -5.5q-16 0 -31 7t-26.5 18t-18.5 26t-7 32q0 15 6 30t19 28l49 49q-18 39 -18 86z"/>
<glyph glyph-name="yen" horiz-adv-x="576" unicode="¥" d="M152 163q-33 0 -52 13.5t-19 34.5q0 20 17.5 34.5t53.5 14.5h40v26h-40q-33 0 -52 14t-19 34q0 42 62 48l-108 177q-16 25 -16 52q0 19 9 36t23.5 30.5t33 21.5t38.5 8t42 -12.5t37 -37.5l86 -147l86 147q29 50 80 50q19 0 38 -8t33.5 -21.5t23.5 -30.5t9 -36t-4.5 -29 t-12.5 -23l-108 -179q25 -3 36.5 -16t11.5 -30q0 -20 -19.5 -34t-51.5 -14h-24v-26h24q36 0 53.5 -14.5t17.5 -34.5q0 -21 -19.5 -34.5t-51.5 -13.5h-24v-70q0 -48 -29 -72.5t-68 -24.5q-40 0 -68.5 24.5t-28.5 72.5v70h-40z"/>
<glyph glyph-name="brokenbar" horiz-adv-x="369" unicode="¦" d="M184 263q28 0 48 -16.5t20 -51.5v-217q0 -32 -20 -49t-48 -17t-47.5 17t-19.5 49v217q0 35 19.5 51.5t47.5 16.5zM184 827q28 0 48 -16t20 -51v-217q0 -32 -20 -49.5t-48 -17.5t-47.5 17.5t-19.5 49.5v217q0 35 19.5 51t47.5 16z"/>
<glyph glyph-name="section" horiz-adv-x="500" unicode="§" d="M293 312q25 1 35.5 13.5t10.5 29.5t-11.5 31t-35.5 14h-79q-25 0 -34.5 -14t-9.5 -31t10.5 -30t34.5 -13h79zM441 349q0 -57 -35 -95q35 -32 35 -93q0 -161 -157 -161h-152q-31 0 -46 19t-15 42t16 42.5t46 19.5h159q24 0 35.5 13.5t11.5 30.5t-11.5 30.5t-35.5 13.5h-79 q-72 0 -109.5 36t-37.5 115q0 56 43 95q-43 36 -43 93q0 162 159 162h122q32 0 48.5 -19t16.5 -42t-16.5 -43t-48.5 -20h-133q-24 0 -34.5 -13.5t-10.5 -30.5t10.5 -30.5t34.5 -13.5h79q78 0 113 -36t35 -115z"/>
<glyph glyph-name="dieresis" horiz-adv-x="448" unicode="¨" d="M272 825q0 32 22 53.5t53 21.5t51.5 -21.5t20.5 -53.5q0 -31 -20.5 -51.5t-51.5 -20.5t-53 20.5t-22 51.5zM28 825q0 32 21 53.5t52 21.5q32 0 53 -21.5t21 -53.5q0 -31 -21 -51.5t-53 -20.5q-31 0 -52 20.5t-21 51.5z"/>
<glyph glyph-name="ordfeminine" horiz-adv-x="412" unicode="ª" d="M269 365h-126l-19 -47q-8 -20 -21.5 -29t-29.5 -9q-23 0 -42.5 15t-19.5 40q0 6 1 12.5t4 11.5l142 312q8 16 19 26t35 10q22 0 33.5 -9.5t19.5 -26.5l129 -312q6 -11 6 -24q0 -25 -20 -40t-44 -15q-15 0 -29.5 9t-22.5 29zM180 457h56l-25 74z"/>
<glyph glyph-name="guillemotleft" horiz-adv-x="548" unicode="«" d="M257 247q4 -5 5.5 -10.5t2.5 -10.5t2 -9.5t5 -6.5q0 -22 -16 -37.5t-36 -15.5t-38 15l-137 139q-17 17 -17 31q0 25 17 42l137 138q17 17 38 17q20 0 36 -16.5t16 -36.5q0 -23 -15 -38l-100 -101zM504 247q8 -9 11 -18.5t4 -18.5q0 -22 -16 -37.5t-37 -15.5q-19 0 -37 15 l-137 139q-17 17 -17 31q0 25 17 42l137 138q17 17 37 17q21 0 37 -16.5t16 -36.5q0 -23 -15 -38l-100 -101z"/>
<glyph glyph-name="logicalnot" horiz-adv-x="577" unicode="¬" d="M408 319h-296q-56 0 -56 47q0 48 56 48h351q57 0 57 -51v-186q0 -51 -54 -51q-58 0 -58 51v142z"/>
<glyph glyph-name="macron" horiz-adv-x="461" unicode="¯" d="M94 759q-31 0 -48.5 19.5t-17.5 45.5q0 27 17.5 48t48.5 21h273q31 0 48.5 -21t17.5 -48q0 -26 -17.5 -45.5t-48.5 -19.5h-273z"/>
<glyph glyph-name="degree" horiz-adv-x="380" unicode="°" d="M135 566q0 -23 16 -38.5t39 -15.5t39.5 15.5t16.5 38.5q0 24 -16.5 40t-39.5 16t-39 -16t-16 -40zM333 566q0 -28 -11 -53.5t-30.5 -45t-45.5 -31.5t-56 -12q-32 0 -58 11t-45.5 30.5t-30 45t-10.5 55.5t11.5 56.5t31 46t45.5 31t56 11.5t56 -11.5t45.5 -31.5t30.5 -46 t11 -56z"/>
<glyph glyph-name="plusminus" horiz-adv-x="580" unicode="±" d="M207 387h-93q-38 0 -59.5 24t-21.5 56q0 34 21.5 59t59.5 25h93v92q0 38 24.5 60t56.5 22q34 0 58.5 -22t24.5 -60v-92h94q38 0 59.5 -25t21.5 -59q0 -32 -21.5 -56t-59.5 -24h-94v-94q0 -38 -24.5 -59.5t-58.5 -21.5q-32 0 -56.5 21.5t-24.5 59.5v94zM114 1 q-38 0 -59.5 24t-21.5 56q0 34 21.5 59t59.5 25h351q38 0 59.5 -25t21.5 -59q0 -32 -21.5 -56t-59.5 -24h-351z"/>
<glyph glyph-name="twosuperior" horiz-adv-x="425" unicode="²" d="M55.3984 353q-14.999 0 -14.999 17.3994v116.995q0 65.3975 27.5986 94.7959q27.5986 29.3994 90.5957 29.3994h94.1963q29.999 0 29.999 22.7988q0 23.3984 -29.999 23.3984h-144.594q-55.1982 0 -56.3975 58.7979v2.40039q0 56.3975 55.7979 56.3975h144.594 q132.595 0 132.595 -135.595q0 -32.3984 -5.7002 -56.0977q-5.69922 -23.6992 -19.1992 -39.5986q-13.499 -15.8984 -35.998 -23.3984t-55.498 -7.5h-98.9961q-27.5986 0 -27.5986 -22.1992l1.2002 -20.999h180.593q32.998 0 47.0977 -14.3994t14.0996 -43.7979 q0 -58.7979 -61.7979 -58.7979h-267.589z"/>
<glyph glyph-name="threesuperior" horiz-adv-x="417" unicode="³" d="M40.3994 411.798q0 58.1973 56.3975 58.1973h143.395q12.5986 0 18.2988 7.7998q5.69922 7.7998 5.69922 16.1992q0 9 -5.69922 16.499q-5.7002 7.5 -18.2988 7.5h-128.995q-40.7988 0 -40.7988 43.1982q0 41.998 39.5986 41.998h130.195q11.999 0 17.999 9 q5.99902 9 5.99902 20.3994q0 9.59961 -5.69922 17.3994q-5.7002 7.79883 -18.2988 7.79883h-146.395q-53.3975 0 -53.3975 58.7979t52.7979 58.7979h185.393q22.1982 0 38.998 -9.2998q16.7988 -9.2998 28.1992 -24.5986q11.3994 -15.2998 17.0986 -35.0986 q5.7002 -19.7998 5.7002 -40.1982q0 -35.999 -15.2998 -63.2979q-15.2988 -27.2988 -47.6982 -34.498q16.1992 -1.7998 29.0996 -10.7998q12.8994 -9 21.8984 -23.3994q9 -14.3994 14.0996 -32.998q5.09961 -18.5996 5.09961 -38.999q0 -22.1992 -6 -41.998 q-5.99902 -19.7988 -18.5986 -34.7988q-12.5996 -14.999 -32.6992 -23.6992q-20.0986 -8.69922 -47.6973 -8.69922h-175.193q-55.1973 0 -55.1973 58.7979z"/>
<glyph glyph-name="acute" horiz-adv-x="384" unicode="´" d="M96 756q-5 -1 -9.5 -1.5t-6.5 -0.5q-24 0 -38 17.5t-14 37.5q0 16 9.5 31.5t32.5 20.5l218 58q5 1 9 1.5t7 0.5q24 0 38.5 -17t14.5 -39q0 -15 -9 -30.5t-32 -21.5z"/>
<glyph glyph-name="mu" horiz-adv-x="642" unicode="µ" d="M606 302q0 -309 -283 -309q-287 0 -287 309v309q0 46 29 71t68 25q40 0 68.5 -25t28.5 -71v-339q0 -86 91 -86t91 86v339q0 23 8 41t21 30t30.5 18.5t36.5 6.5q40 0 69 -25t29 -71v-309z"/>
<glyph glyph-name="mu" horiz-adv-x="642" unicode="μ" d="M606 302q0 -309 -283 -309q-287 0 -287 309v309q0 46 29 71t68 25q40 0 68.5 -25t28.5 -71v-339q0 -86 91 -86t91 86v339q0 23 8 41t21 30t30.5 18.5t36.5 6.5q40 0 69 -25t29 -71v-309z"/>
<glyph glyph-name="paragraph" horiz-adv-x="515" unicode="¶" d="M464 36q0 -40 -43 -40t-43 40v582h-94v-582q0 -40 -42 -40t-42 40v266h-37q-133 0 -133 174v53q0 175 133 175h271q13 0 21.5 -9t8.5 -23v-636z"/>
<glyph glyph-name="periodcentered" horiz-adv-x="288" unicode="·" d="M243 353q0 -43 -28 -70.5t-68 -27.5t-69 27.5t-29 70.5q0 19 8 37t21.5 31.5t31 21.5t37.5 8t37.5 -8t30.5 -21.5t20.5 -31.5t7.5 -37z"/>
<glyph glyph-name="cedilla" horiz-adv-x="220" unicode="¸" d="M57 24q0 32 14 44t36 12q17 0 32 -11.5t15 -35.5q0 -26 6.5 -42t14.5 -29.5t14.5 -28t6.5 -36.5q0 -51 -30 -81t-90 -30q-25 0 -36.5 15t-11.5 32t10.5 33.5t33.5 16.5q25 0 25 28q0 14 -6.5 26.5t-14 25.5t-13.5 28t-6 33z"/>
<glyph glyph-name="onesuperior" horiz-adv-x="280" unicode="¹" d="M238.992 408.798q0 -28.7988 -17.0996 -43.498q-17.0996 -14.7002 -41.0986 -14.7002q-22.7988 0 -40.1982 15q-17.3994 14.999 -17.3994 43.1982v170.393q-14.3994 -7.19922 -29.3984 -7.19922q-12 0 -21.8994 4.7998t-17.0996 12.5996 q-7.19922 7.7998 -11.0996 18.2988q-3.89941 10.5 -3.89941 21.8994q0 12.5996 4.7998 24.5986q4.7998 12 14.999 22.1992l79.7969 78.5967q23.999 23.999 49.7979 23.999q22.7998 0 36.2988 -17.0986q13.5 -17.0996 13.5 -47.6982v-305.388z"/>
<glyph glyph-name="ordmasculine" horiz-adv-x="465" unicode="º" d="M135 489q0 -42 28 -69.5t70 -27.5t69.5 27.5t27.5 69.5t-27.5 70.5t-69.5 28.5t-70 -28.5t-28 -70.5zM17 490q0 45 17 85t46 69t68 46t83 17q45 0 85 -17t69 -46t46 -69t17 -85t-17 -84t-46 -68t-69 -46t-85 -17q-44 0 -83 17t-68 46t-46 68t-17 84z"/>
<glyph glyph-name="guillemotright" horiz-adv-x="548" unicode="»" d="M145 347l-100 101q-17 17 -17 38q0 20 16.5 36.5t36.5 16.5q21 0 38 -17l138 -138q9 -9 12 -18t3 -19q0 -11 -3 -19t-12 -17l-138 -139q-18 -15 -38 -15t-36.5 15.5t-16.5 37.5q1 8 4.5 18t12.5 19zM392 347l-100 101q-17 17 -17 38q0 20 16.5 36.5t36.5 16.5 q21 0 38 -17l138 -138q4 -5 5.5 -10.5t2.5 -10.5t2 -9.5t5 -6.5q0 -21 -15 -36l-138 -139q-18 -15 -38 -15t-36.5 15.5t-16.5 37.5q1 8 4.5 18t12.5 19z"/>
<glyph glyph-name="onequarter" horiz-adv-x="818" unicode="¼" d="M238.992 408.798q0 -28.7988 -17.0996 -43.498q-17.0996 -14.7002 -41.0986 -14.7002q-22.7988 0 -40.1982 15q-17.3994 14.999 -17.3994 43.1982v170.393q-14.3994 -7.19922 -29.3984 -7.19922q-12 0 -21.8994 4.7998t-17.0996 12.5996 q-7.19922 7.7998 -11.0996 18.2988q-3.89941 10.5 -3.89941 21.8994q0 12.5996 4.7998 24.5986q4.7998 12 14.999 22.1992l79.7969 78.5967q23.999 23.999 49.7979 23.999q22.7998 0 36.2988 -17.0986q13.5 -17.0996 13.5 -47.6982v-305.388zM844.586 -11.2021 q0 -28.7988 -17.0996 -43.498q-17.0986 -14.7002 -41.0977 -14.7002q-23.3994 0 -40.7988 14.7002q-17.3994 14.6992 -17.3994 43.498v93.5957h-152.394q-58.7979 0 -58.7979 58.7979v152.394q0 28.7988 17.6992 43.1982q17.7002 14.3994 41.0986 14.3994 q23.3994 0 40.7988 -14.3994q17.3984 -14.3994 17.3984 -43.1982v-104.995h94.1963v104.995q0 28.7988 17.3994 43.1982t40.7988 14.3994q23.999 0 41.0977 -14.3994q17.0996 -14.3994 17.0996 -43.1982v-304.787zM594 707q13 0 26 -5.5t23.5 -15t17 -22t6.5 -25.5 q0 -11 -4 -20.5t-12 -20.5l-428 -573q-22 -29 -52 -29q-14 0 -27 6t-23 15.5t-15.5 22t-5.5 25.5q0 9 3.5 19.5t11.5 21.5l429 571q19 30 50 30z"/>
<glyph glyph-name="onehalf" horiz-adv-x="900" unicode="½" d="M238.992 408.798q0 -28.7988 -17.0996 -43.498q-17.0996 -14.7002 -41.0986 -14.7002q-22.7988 0 -40.1982 15q-17.3994 14.999 -17.3994 43.1982v170.393q-14.3994 -7.19922 -29.3984 -7.19922q-12 0 -21.8994 4.7998t-17.0996 12.5996 q-7.19922 7.7998 -11.0996 18.2988q-3.89941 10.5 -3.89941 21.8994q0 12.5996 4.7998 24.5986q4.7998 12 14.999 22.1992l79.7969 78.5967q23.999 23.999 49.7979 23.999q22.7998 0 36.2988 -17.0986q13.5 -17.0996 13.5 -47.6982v-305.388zM528.398 -70 q-14.999 0 -14.999 17.3994v116.995q0 65.3975 27.5986 94.7959q27.5986 29.3994 90.5957 29.3994h94.1963q29.999 0 29.999 22.7988q0 23.3984 -29.999 23.3984h-144.594q-55.1982 0 -56.3975 58.7979v2.40039q0 56.3975 55.7979 56.3975h144.594 q132.595 0 132.595 -135.595q0 -32.3984 -5.7002 -56.0977q-5.69922 -23.6992 -19.1992 -39.5986q-13.499 -15.8984 -35.998 -23.3984t-55.498 -7.5h-98.9961q-27.5986 0 -27.5986 -22.1992l1.2002 -20.999h180.593q32.998 0 47.0977 -14.3994t14.0996 -43.7979 q0 -58.7979 -61.7979 -58.7979h-267.589zM605 707q13 0 26 -5.5t23.5 -15t17 -22t6.5 -25.5q0 -11 -4 -20.5t-12 -20.5l-428 -573q-22 -29 -52 -29q-14 0 -27 6t-23 15.5t-15.5 22t-5.5 25.5q0 9 3.5 19.5t11.5 21.5l429 571q19 30 50 30z"/>
<glyph glyph-name="threequarters" horiz-adv-x="930" unicode="¾" d="M952.586 -11.2021q0 -28.7988 -17.0996 -43.498q-17.0986 -14.7002 -41.0977 -14.7002q-23.3994 0 -40.7988 14.7002q-17.3994 14.6992 -17.3994 43.498v93.5957h-152.394q-58.7979 0 -58.7979 58.7979v152.394q0 28.7988 17.6992 43.1982 q17.7002 14.3994 41.0986 14.3994q23.3994 0 40.7988 -14.3994q17.3984 -14.3994 17.3984 -43.1982v-104.995h94.1963v104.995q0 28.7988 17.3994 43.1982t40.7988 14.3994q23.999 0 41.0977 -14.3994q17.0996 -14.3994 17.0996 -43.1982v-304.787zM40.3994 411.798 q0 58.1973 56.3975 58.1973h143.395q12.5986 0 18.2988 7.7998q5.69922 7.7998 5.69922 16.1992q0 9 -5.69922 16.499q-5.7002 7.5 -18.2988 7.5h-128.995q-40.7988 0 -40.7988 43.1982q0 41.998 39.5986 41.998h130.195q11.999 0 17.999 9q5.99902 9 5.99902 20.3994 q0 9.59961 -5.69922 17.3994q-5.7002 7.79883 -18.2988 7.79883h-146.395q-53.3975 0 -53.3975 58.7979t52.7979 58.7979h185.393q22.1982 0 38.998 -9.2998q16.7988 -9.2998 28.1992 -24.5986q11.3994 -15.2998 17.0986 -35.0986q5.7002 -19.7998 5.7002 -40.1982 q0 -35.999 -15.2998 -63.2979q-15.2988 -27.2988 -47.6982 -34.498q16.1992 -1.7998 29.0996 -10.7998q12.8994 -9 21.8984 -23.3994q9 -14.3994 14.0996 -32.998q5.09961 -18.5996 5.09961 -38.999q0 -22.1992 -6 -41.998q-5.99902 -19.7988 -18.5986 -34.7988 q-12.5996 -14.999 -32.6992 -23.6992q-20.0986 -8.69922 -47.6973 -8.69922h-175.193q-55.1973 0 -55.1973 58.7979zM701 707q13 0 26 -5.5t23.5 -15t17 -22t6.5 -25.5q0 -11 -4 -20.5t-12 -20.5l-428 -573q-22 -29 -52 -29q-14 0 -27 6t-23 15.5t-15.5 22t-5.5 25.5 q0 9 3.5 19.5t11.5 21.5l429 571q19 30 50 30z"/>
<glyph glyph-name="questiondown" horiz-adv-x="636" unicode="¿" d="M344.018 450.016q102.994 0 102.994 -97.9941q0 -96.9941 -100.994 -96.9941h-101.994q-37.9971 0 -37.9971 -28.998q0 -29.998 37.9971 -29.998h254.985q98.9932 0 100.993 -97.9941v-4q0 -93.9941 -99.9941 -93.9941h-244.984q-218.986 0 -218.986 225.986 q0 223.986 217.986 223.986h89.9941zM256.023 606.006q1 19.999 8.99902 37.498q8 17.499 20.999 30.998t30.498 21.498q17.499 8 37.498 8q19.998 0 37.4971 -8q17.499 -7.99902 30.998 -21.498t21.499 -30.998t8 -37.498t-8 -37.498q-8 -17.498 -21.499 -30.998 q-13.499 -13.499 -30.998 -20.998q-17.499 -7.5 -37.4971 -7.5q-18.999 0 -36.998 7.5q-17.999 7.49902 -31.498 20.998q-13.499 13.5 -21.499 30.998q-7.99902 17.499 -7.99902 37.498z"/>
<glyph glyph-name="Agrave" d="M447 136h-208l-31 -77q-14 -32 -37 -47.5t-48 -15.5q-20 0 -38.5 6.5t-33.5 18.5t-24 29t-9 38q0 26 7 39l238 522q12 26 31 42t59 16q38 0 57.5 -16t30.5 -43l217 -521q7 -13 7 -39q0 -20 -9 -37t-23.5 -29t-33.5 -19t-38 -7q-64 0 -86 63zM300 289h94l-43 127zM191 813 q-23 6 -32.5 21.5t-9.5 30.5q0 22 14 39t39 17q2 0 6 -0.5t9 -1.5l220 -58q23 -6 32 -20.5t9 -31.5q0 -20 -14.5 -37.5t-37.5 -17.5q-2 0 -7 0.5t-10 1.5z" unicode="À"/>
<glyph glyph-name="Aacute" d="M447 136h-208l-31 -77q-14 -32 -37 -47.5t-48 -15.5q-20 0 -38.5 6.5t-33.5 18.5t-24 29t-9 38q0 26 7 39l238 522q12 26 31 42t59 16q38 0 57.5 -16t30.5 -43l217 -521q7 -13 7 -39q0 -20 -9 -37t-23.5 -29t-33.5 -19t-38 -7q-64 0 -86 63zM300 289h94l-43 127zM275 756 q-5 -1 -9.5 -1.5t-6.5 -0.5q-24 0 -38 17.5t-14 37.5q0 16 9.5 31.5t32.5 20.5l218 58q5 1 9 1.5t7 0.5q24 0 38.5 -17t14.5 -39q0 -15 -9 -30.5t-32 -21.5z" unicode="Á"/>
<glyph glyph-name="Acircumflex" d="M447 136h-208l-31 -77q-14 -32 -37 -47.5t-48 -15.5q-20 0 -38.5 6.5t-33.5 18.5t-24 29t-9 38q0 26 7 39l238 522q12 26 31 42t59 16q38 0 57.5 -16t30.5 -43l217 -521q7 -13 7 -39q0 -20 -9 -37t-23.5 -29t-33.5 -19t-38 -7q-64 0 -86 63zM300 289h94l-43 127zM343 800 l-94 -51q-7 -4 -13 -5t-13 -1q-20 0 -35 15.5t-15 37.5q0 8 6.5 21.5t20.5 21.5l117 63q18 5 27 5q6 0 12.5 -1t11.5 -4l117 -63q14 -8 20.5 -21.5t6.5 -21.5q0 -22 -15 -37.5t-35 -15.5q-15 0 -25 6z" unicode="Â"/>
<glyph glyph-name="Atilde" d="M447 136h-208l-31 -77q-14 -32 -37 -47.5t-48 -15.5q-20 0 -38.5 6.5t-33.5 18.5t-24 29t-9 38q0 26 7 39l238 522q12 26 31 42t59 16q38 0 57.5 -16t30.5 -43l217 -521q7 -13 7 -39q0 -20 -9 -37t-23.5 -29t-33.5 -19t-38 -7q-64 0 -86 63zM300 289h94l-43 127zM477 886 q9 11 18 14.5t15 3.5q20 0 35.5 -14t15.5 -34q0 -23 -12 -41.5t-30.5 -32t-41.5 -20.5t-45 -7q-23 0 -46 7.5t-44.5 16t-41.5 16t-38 7.5q-15 0 -25 -7t-30 -28q-8 -9 -17 -13t-16 -4q-18 0 -34 14t-16 34q0 22 12 41t30.5 32.5t41.5 21t45 7.5q21 0 43 -7.5t43.5 -16 t42 -16t39.5 -7.5q17 0 27.5 6.5t28.5 26.5z" unicode="Ã"/>
<glyph glyph-name="Adieresis" d="M447 136h-208l-31 -77q-14 -32 -37 -47.5t-48 -15.5q-20 0 -38.5 6.5t-33.5 18.5t-24 29t-9 38q0 26 7 39l238 522q12 26 31 42t59 16q38 0 57.5 -16t30.5 -43l217 -521q7 -13 7 -39q0 -20 -9 -37t-23.5 -29t-33.5 -19t-38 -7q-64 0 -86 63zM300 289h94l-43 127zM391 825 q0 32 22 53.5t53 21.5t51.5 -21.5t20.5 -53.5q0 -31 -20.5 -51.5t-51.5 -20.5t-53 20.5t-22 51.5zM147 825q0 32 21 53.5t52 21.5q32 0 53 -21.5t21 -53.5q0 -31 -21 -51.5t-53 -20.5q-31 0 -52 20.5t-21 51.5z" unicode="Ä"/>
<glyph glyph-name="Aring" d="M447 136h-208l-31 -77q-14 -32 -37 -47.5t-48 -15.5q-20 0 -38.5 6.5t-33.5 18.5t-24 29t-9 38q0 26 7 39l238 522q12 26 31 42t59 16q38 0 57.5 -16t30.5 -43l217 -521q7 -13 7 -39q0 -20 -9 -37t-23.5 -29t-33.5 -19t-38 -7q-64 0 -86 63zM300 289h94l-43 127zM307 817 q0 -18 13 -31.5t30 -13.5q18 0 30.5 13.5t12.5 31.5q0 19 -12.5 32t-30.5 13q-17 0 -30 -13t-13 -32zM239 818q0 22 8.5 41.5t23.5 34t35.5 22.5t43.5 8t43 -8t35 -22.5t23.5 -34t8.5 -41.5t-8.5 -41.5t-23.5 -33.5t-35 -22.5t-43 -8.5t-43.5 8.5t-35.5 22.5t-23.5 33.5 t-8.5 41.5z" unicode="Å"/>
<glyph glyph-name="AE" horiz-adv-x="995" unicode="Æ" d="M470 289v146l-111 -146h111zM563 0q-52 0 -72.5 28.5t-20.5 69.5v38h-213l-61 -91q-17 -26 -39.5 -37.5t-44.5 -11.5q-18 0 -35 6.5t-30 18t-21 27t-8 33.5q0 11 4.5 27.5t14.5 30.5l363 502q22 30 49.5 46.5t62.5 16.5h346q46 0 72 -29t26 -69t-26 -69t-72 -29h-197v-67 h158q42 0 66 -26.5t24 -62.5t-24 -62.5t-66 -26.5h-158v-68h197q46 0 72 -28.5t26 -68.5t-26 -69t-72 -29h-295z"/>
<glyph glyph-name="Ccedilla" horiz-adv-x="571" unicode="Ç" d="M375 506q-41 0 -71 -13t-50.5 -34.5t-30.5 -49.5t-10 -57q0 -30 10 -58.5t30.5 -50t50.5 -35t70 -13.5h72q25 0 43 -8.5t30 -22t18 -31t6 -35.5q0 -39 -24 -68.5t-73 -29.5h-40q4 -15 10.5 -26.5t12.5 -22.5t10.5 -23.5t4.5 -30.5q0 -51 -30 -81t-90 -30q-25 0 -36.5 15 t-11.5 32t10 33.5t33 16.5q11 0 18.5 7t7.5 21q0 12 -5 23t-11 22.5t-12.5 23t-9.5 25.5q-71 11 -123.5 44t-88 79.5t-53 103t-17.5 115.5q0 66 22.5 130.5t68.5 114.5t114 81t160 31h56q24 0 42.5 -8.5t31 -22.5t19 -31.5t6.5 -36.5t-6.5 -37t-19 -31.5t-31 -22t-42.5 -8.5 h-71z"/>
<glyph glyph-name="Egrave" horiz-adv-x="602" unicode="È" d="M136 0q-96 0 -96 98v508q0 98 96 98h330q46 0 71.5 -29t25.5 -69t-25.5 -69t-71.5 -29h-233v-67h194q42 0 65.5 -26.5t23.5 -62.5t-23.5 -62.5t-65.5 -26.5h-194v-68h233q46 0 71.5 -28.5t25.5 -68.5t-25.5 -69t-71.5 -29h-330zM148 813q-23 6 -32.5 21.5t-9.5 30.5 q0 22 14 39t39 17q2 0 6 -0.5t9 -1.5l220 -58q23 -6 32 -20.5t9 -31.5q0 -20 -14.5 -37.5t-37.5 -17.5q-2 0 -7 0.5t-10 1.5z"/>
<glyph glyph-name="Eacute" horiz-adv-x="602" unicode="É" d="M136 0q-96 0 -96 98v508q0 98 96 98h330q46 0 71.5 -29t25.5 -69t-25.5 -69t-71.5 -29h-233v-67h194q42 0 65.5 -26.5t23.5 -62.5t-23.5 -62.5t-65.5 -26.5h-194v-68h233q46 0 71.5 -28.5t25.5 -68.5t-25.5 -69t-71.5 -29h-330zM233 756q-5 -1 -9.5 -1.5t-6.5 -0.5 q-24 0 -38 17.5t-14 37.5q0 16 9.5 31.5t32.5 20.5l218 58q5 1 9 1.5t7 0.5q24 0 38.5 -17t14.5 -39q0 -15 -9 -30.5t-32 -21.5z"/>
<glyph glyph-name="Ecircumflex" horiz-adv-x="602" unicode="Ê" d="M136 0q-96 0 -96 98v508q0 98 96 98h330q46 0 71.5 -29t25.5 -69t-25.5 -69t-71.5 -29h-233v-67h194q42 0 65.5 -26.5t23.5 -62.5t-23.5 -62.5t-65.5 -26.5h-194v-68h233q46 0 71.5 -28.5t25.5 -68.5t-25.5 -69t-71.5 -29h-330zM301 800l-94 -51q-7 -4 -13 -5t-13 -1 q-20 0 -35 15.5t-15 37.5q0 8 6.5 21.5t20.5 21.5l117 63q18 5 27 5q6 0 12.5 -1t11.5 -4l117 -63q14 -8 20.5 -21.5t6.5 -21.5q0 -22 -15 -37.5t-35 -15.5q-15 0 -25 6z"/>
<glyph glyph-name="Edieresis" horiz-adv-x="602" unicode="Ë" d="M136 0q-96 0 -96 98v508q0 98 96 98h330q46 0 71.5 -29t25.5 -69t-25.5 -69t-71.5 -29h-233v-67h194q42 0 65.5 -26.5t23.5 -62.5t-23.5 -62.5t-65.5 -26.5h-194v-68h233q46 0 71.5 -28.5t25.5 -68.5t-25.5 -69t-71.5 -29h-330zM348 825q0 32 22 53.5t53 21.5t51.5 -21.5 t20.5 -53.5q0 -31 -20.5 -51.5t-51.5 -20.5t-53 20.5t-22 51.5zM104 825q0 32 21 53.5t52 21.5q32 0 53 -21.5t21 -53.5q0 -31 -21 -51.5t-53 -20.5q-31 0 -52 20.5t-21 51.5z"/>
<glyph glyph-name="Igrave" horiz-adv-x="274" unicode="Ì" d="M233 93q0 -48 -29 -72.5t-68 -24.5q-40 0 -68.5 24.5t-28.5 72.5v518q0 46 28.5 71t68.5 25q39 0 68 -25t29 -71v-518zM-13 813q-23 6 -32.5 21.5t-9.5 30.5q0 22 14 39t39 17q2 0 6 -0.5t9 -1.5l220 -58q23 -6 32 -20.5t9 -31.5q0 -20 -14.5 -37.5t-37.5 -17.5 q-2 0 -7 0.5t-10 1.5z"/>
<glyph glyph-name="Iacute" horiz-adv-x="274" unicode="Í" d="M233 93q0 -48 -29 -72.5t-68 -24.5q-40 0 -68.5 24.5t-28.5 72.5v518q0 46 28.5 71t68.5 25q39 0 68 -25t29 -71v-518zM72 756q-5 -1 -9.5 -1.5t-6.5 -0.5q-24 0 -38 17.5t-14 37.5q0 16 9.5 31.5t32.5 20.5l218 58q5 1 9 1.5t7 0.5q24 0 38.5 -17t14.5 -39 q0 -15 -9 -30.5t-32 -21.5z"/>
<glyph glyph-name="Icircumflex" horiz-adv-x="274" unicode="Î" d="M233 93q0 -48 -29 -72.5t-68 -24.5q-40 0 -68.5 24.5t-28.5 72.5v518q0 46 28.5 71t68.5 25q39 0 68 -25t29 -71v-518zM139 800l-94 -51q-7 -4 -13 -5t-13 -1q-20 0 -35 15.5t-15 37.5q0 8 6.5 21.5t20.5 21.5l117 63q18 5 27 5q6 0 12.5 -1t11.5 -4l117 -63 q14 -8 20.5 -21.5t6.5 -21.5q0 -22 -15 -37.5t-35 -15.5q-15 0 -25 6z"/>
<glyph glyph-name="Idieresis" horiz-adv-x="274" unicode="Ï" d="M233 93q0 -48 -29 -72.5t-68 -24.5q-40 0 -68.5 24.5t-28.5 72.5v518q0 46 28.5 71t68.5 25q39 0 68 -25t29 -71v-518zM187 825q0 32 22 53.5t53 21.5t51.5 -21.5t20.5 -53.5q0 -31 -20.5 -51.5t-51.5 -20.5t-53 20.5t-22 51.5zM-57 825q0 32 21 53.5t52 21.5 q32 0 53 -21.5t21 -53.5q0 -31 -21 -51.5t-53 -20.5q-31 0 -52 20.5t-21 51.5z"/>
<glyph glyph-name="Eth" horiz-adv-x="625" unicode="Ð" d="M252 195q38 0 67.5 14t49 36.5t29.5 52t10 59.5q0 28 -9.5 54.5t-28.5 47.5t-49 34t-70 13h-17v-105h5q26 0 41 -18t15 -41q0 -22 -15 -38.5t-41 -16.5h-5v-92h18zM40 288q-20 5 -30.5 20.5t-10.5 33.5q0 20 10.5 36t30.5 21v207q0 19 9 37t23.5 31.5t32.5 21.5t36 8h94 q91 0 159.5 -31t114 -81t68.5 -114.5t23 -130.5t-22 -128t-66 -111t-109 -78.5t-152 -29.5h-110q-46 0 -73.5 26t-27.5 72v190z"/>
<glyph glyph-name="Ntilde" horiz-adv-x="627" unicode="Ñ" d="M400 615q0 45 27.5 68.5t66.5 23.5q37 0 64.5 -23.5t27.5 -68.5v-522q0 -23 -8 -41t-20.5 -30.5t-29 -19t-34.5 -6.5q-24 0 -47 12t-40 38l-182 271v-229q0 -45 -27.5 -68.5t-66.5 -23.5q-37 0 -64 23.5t-27 68.5v523q0 22 7.5 40t20.5 30.5t29 19t34 6.5q25 0 48 -11.5 t40 -37.5l181 -271v228zM448 886q9 11 18 14.5t15 3.5q20 0 35.5 -14t15.5 -34q0 -23 -12 -41.5t-30.5 -32t-41.5 -20.5t-45 -7q-23 0 -46 7.5t-44.5 16t-41.5 16t-38 7.5q-15 0 -25 -7t-30 -28q-8 -9 -17 -13t-16 -4q-18 0 -34 14t-16 34q0 22 12 41t30.5 32.5t41.5 21 t45 7.5q21 0 43 -7.5t43.5 -16t42 -16t39.5 -7.5q17 0 27.5 6.5t28.5 26.5z"/>
<glyph glyph-name="Ograve" horiz-adv-x="775" unicode="Ò" d="M225 349q0 -34 13 -63.5t35 -51.5t51.5 -34.5t63.5 -12.5t63.5 12.5t52 34.5t35.5 51.5t13 63.5t-13 64t-35.5 52t-52 35t-63.5 13t-63.5 -13t-51.5 -35t-35 -52t-13 -64zM28 352q0 75 28 140t77 114t114 77t140 28t140.5 -28t114 -77t77 -114t28.5 -140t-28.5 -140 t-77 -114t-114 -77t-140.5 -28t-140 28t-114 77t-77 114t-28 140zM236 813q-23 6 -32.5 21.5t-9.5 30.5q0 22 14 39t39 17q2 0 6 -0.5t9 -1.5l220 -58q23 -6 32 -20.5t9 -31.5q0 -20 -14.5 -37.5t-37.5 -17.5q-2 0 -7 0.5t-10 1.5z"/>
<glyph glyph-name="Oacute" horiz-adv-x="775" unicode="Ó" d="M225 349q0 -34 13 -63.5t35 -51.5t51.5 -34.5t63.5 -12.5t63.5 12.5t52 34.5t35.5 51.5t13 63.5t-13 64t-35.5 52t-52 35t-63.5 13t-63.5 -13t-51.5 -35t-35 -52t-13 -64zM28 352q0 75 28 140t77 114t114 77t140 28t140.5 -28t114 -77t77 -114t28.5 -140t-28.5 -140 t-77 -114t-114 -77t-140.5 -28t-140 28t-114 77t-77 114t-28 140zM320 756q-5 -1 -9.5 -1.5t-6.5 -0.5q-24 0 -38 17.5t-14 37.5q0 16 9.5 31.5t32.5 20.5l218 58q5 1 9 1.5t7 0.5q24 0 38.5 -17t14.5 -39q0 -15 -9 -30.5t-32 -21.5z"/>
<glyph glyph-name="Ocircumflex" horiz-adv-x="775" unicode="Ô" d="M225 349q0 -34 13 -63.5t35 -51.5t51.5 -34.5t63.5 -12.5t63.5 12.5t52 34.5t35.5 51.5t13 63.5t-13 64t-35.5 52t-52 35t-63.5 13t-63.5 -13t-51.5 -35t-35 -52t-13 -64zM28 352q0 75 28 140t77 114t114 77t140 28t140.5 -28t114 -77t77 -114t28.5 -140t-28.5 -140 t-77 -114t-114 -77t-140.5 -28t-140 28t-114 77t-77 114t-28 140zM388 800l-94 -51q-7 -4 -13 -5t-13 -1q-20 0 -35 15.5t-15 37.5q0 8 6.5 21.5t20.5 21.5l117 63q18 5 27 5q6 0 12.5 -1t11.5 -4l117 -63q14 -8 20.5 -21.5t6.5 -21.5q0 -22 -15 -37.5t-35 -15.5 q-15 0 -25 6z"/>
<glyph glyph-name="Otilde" horiz-adv-x="775" unicode="Õ" d="M225 349q0 -34 13 -63.5t35 -51.5t51.5 -34.5t63.5 -12.5t63.5 12.5t52 34.5t35.5 51.5t13 63.5t-13 64t-35.5 52t-52 35t-63.5 13t-63.5 -13t-51.5 -35t-35 -52t-13 -64zM28 352q0 75 28 140t77 114t114 77t140 28t140.5 -28t114 -77t77 -114t28.5 -140t-28.5 -140 t-77 -114t-114 -77t-140.5 -28t-140 28t-114 77t-77 114t-28 140zM522 886q9 11 18 14.5t15 3.5q20 0 35.5 -14t15.5 -34q0 -23 -12 -41.5t-30.5 -32t-41.5 -20.5t-45 -7q-23 0 -46 7.5t-44.5 16t-41.5 16t-38 7.5q-15 0 -25 -7t-30 -28q-8 -9 -17 -13t-16 -4q-18 0 -34 14 t-16 34q0 22 12 41t30.5 32.5t41.5 21t45 7.5q21 0 43 -7.5t43.5 -16t42 -16t39.5 -7.5q17 0 27.5 6.5t28.5 26.5z"/>
<glyph glyph-name="Odieresis" horiz-adv-x="775" unicode="Ö" d="M225 349q0 -34 13 -63.5t35 -51.5t51.5 -34.5t63.5 -12.5t63.5 12.5t52 34.5t35.5 51.5t13 63.5t-13 64t-35.5 52t-52 35t-63.5 13t-63.5 -13t-51.5 -35t-35 -52t-13 -64zM28 352q0 75 28 140t77 114t114 77t140 28t140.5 -28t114 -77t77 -114t28.5 -140t-28.5 -140 t-77 -114t-114 -77t-140.5 -28t-140 28t-114 77t-77 114t-28 140zM436 825q0 32 22 53.5t53 21.5t51.5 -21.5t20.5 -53.5q0 -31 -20.5 -51.5t-51.5 -20.5t-53 20.5t-22 51.5zM192 825q0 32 21 53.5t52 21.5q32 0 53 -21.5t21 -53.5q0 -31 -21 -51.5t-53 -20.5 q-31 0 -52 20.5t-21 51.5z"/>
<glyph glyph-name="multiply" horiz-adv-x="580" unicode="×" d="M172 351l-65 66q-25 22 -25 52q0 17 6.5 33t18 28t27 19.5t33.5 7.5q32 0 56 -24l66 -67l66 67q25 25 57 25q17 0 32 -7.5t26.5 -19.5t18 -28t6.5 -32q0 -30 -24 -54l-65 -66l65 -67q13 -11 18.5 -26t5.5 -30q0 -17 -6.5 -32t-18 -27t-26.5 -19t-32 -7t-30 6t-27 20 l-66 65l-66 -65q-12 -12 -26 -19t-28 -7q-17 0 -32.5 6.5t-27.5 18t-19.5 27t-7.5 33.5q0 30 25 56z"/>
<glyph glyph-name="Oslash" horiz-adv-x="775" unicode="Ø" d="M225 349q0 -23 5.5 -42.5t15.5 -36.5l185 237q-21 6 -43 6q-34 0 -63.5 -13t-51.5 -35t-35 -52t-13 -64zM552 349q0 24 -7 46t-18 40l-187 -241q14 -7 48 -7t63.5 12.5t52 34.5t35.5 51.5t13 63.5zM643 754q13 0 26 -5.5t23.5 -15t17 -22t6.5 -25.5q0 -22 -15 -41 l-43 -57q42 -48 65.5 -107.5t23.5 -128.5q0 -75 -28.5 -140t-77 -114t-114 -77t-140.5 -28q-92 0 -165 40l-44 -56q-22 -28 -51 -28q-15 0 -28 6t-22.5 15.5t-15.5 22t-6 25.5q0 9 3.5 19.5t12.5 21.5l45 58q-42 46 -65 106t-23 129q0 75 28 140t77 114t114 77t140 28 q45 0 86 -10.5t79 -29.5l41 53q12 15 23.5 22.5t26.5 7.5z"/>
<glyph glyph-name="Ugrave" horiz-adv-x="642" unicode="Ù" d="M606 302q0 -309 -283 -309q-287 0 -287 309v309q0 46 29 71t68 25q40 0 68.5 -25t28.5 -71v-339q0 -86 91 -86t91 86v339q0 23 8 41t21 30t30.5 18.5t36.5 6.5q40 0 69 -25t29 -71v-309zM169 813q-23 6 -32.5 21.5t-9.5 30.5q0 22 14 39t39 17q2 0 6 -0.5t9 -1.5l220 -58 q23 -6 32 -20.5t9 -31.5q0 -20 -14.5 -37.5t-37.5 -17.5q-2 0 -7 0.5t-10 1.5z"/>
<glyph glyph-name="Uacute" horiz-adv-x="642" unicode="Ú" d="M606 302q0 -309 -283 -309q-287 0 -287 309v309q0 46 29 71t68 25q40 0 68.5 -25t28.5 -71v-339q0 -86 91 -86t91 86v339q0 23 8 41t21 30t30.5 18.5t36.5 6.5q40 0 69 -25t29 -71v-309zM254 756q-5 -1 -9.5 -1.5t-6.5 -0.5q-24 0 -38 17.5t-14 37.5q0 16 9.5 31.5 t32.5 20.5l218 58q5 1 9 1.5t7 0.5q24 0 38.5 -17t14.5 -39q0 -15 -9 -30.5t-32 -21.5z"/>
<glyph glyph-name="Ucircumflex" horiz-adv-x="642" unicode="Û" d="M606 302q0 -309 -283 -309q-287 0 -287 309v309q0 46 29 71t68 25q40 0 68.5 -25t28.5 -71v-339q0 -86 91 -86t91 86v339q0 23 8 41t21 30t30.5 18.5t36.5 6.5q40 0 69 -25t29 -71v-309zM321 800l-94 -51q-7 -4 -13 -5t-13 -1q-20 0 -35 15.5t-15 37.5q0 8 6.5 21.5 t20.5 21.5l117 63q18 5 27 5q6 0 12.5 -1t11.5 -4l117 -63q14 -8 20.5 -21.5t6.5 -21.5q0 -22 -15 -37.5t-35 -15.5q-15 0 -25 6z"/>
<glyph glyph-name="Udieresis" horiz-adv-x="642" unicode="Ü" d="M606 302q0 -309 -283 -309q-287 0 -287 309v309q0 46 29 71t68 25q40 0 68.5 -25t28.5 -71v-339q0 -86 91 -86t91 86v339q0 23 8 41t21 30t30.5 18.5t36.5 6.5q40 0 69 -25t29 -71v-309zM369 825q0 32 22 53.5t53 21.5t51.5 -21.5t20.5 -53.5q0 -31 -20.5 -51.5 t-51.5 -20.5t-53 20.5t-22 51.5zM125 825q0 32 21 53.5t52 21.5q32 0 53 -21.5t21 -53.5q0 -31 -21 -51.5t-53 -20.5q-31 0 -52 20.5t-21 51.5z"/>
<glyph glyph-name="Yacute" horiz-adv-x="576" unicode="Ý" d="M375 657q15 26 37.5 38t45.5 12q19 0 37 -7.5t32 -20t22.5 -30t8.5 -37.5q0 -26 -16 -53l-156 -254v-212q0 -48 -29 -72.5t-68 -24.5q-40 0 -68.5 24.5t-28.5 72.5v212l-158 255q-16 25 -16 49q0 20 8.5 38t22.5 31.5t32 21t38 7.5q21 0 44 -11.5t38 -37.5l87 -152z M220 756q-5 -1 -9.5 -1.5t-6.5 -0.5q-24 0 -38 17.5t-14 37.5q0 16 9.5 31.5t32.5 20.5l218 58q5 1 9 1.5t7 0.5q24 0 38.5 -17t14.5 -39q0 -15 -9 -30.5t-32 -21.5z"/>
<glyph glyph-name="Thorn" horiz-adv-x="590" unicode="Þ" d="M236 96q0 -100 -97 -100q-54 0 -77 27.5t-23 70.5v517q0 46 28.5 71t68.5 25q39 0 68 -25t29 -71v-22h100q63 0 109.5 -19.5t76.5 -51t44.5 -72t14.5 -82.5t-13.5 -82.5t-39.5 -72t-64.5 -50.5t-88.5 -19h-31q-88 0 -88 79q0 29 11 43.5t27 22t35 10.5t35.5 8.5t28 16 t12.5 32.5q0 53 -61 53h-105v-309z"/>
<glyph glyph-name="germandbls" horiz-adv-x="1162" unicode="ß" d="M549 224q0 -224 -219 -224h-193q-24 0 -42 8.5t-30 22t-18 31t-6 36.5q0 18 6 35.5t18.5 31t31 22t42.5 8.5h202q20 0 29.5 11.5t9.5 24.5q0 14 -9.5 26t-29.5 12h-100q-103 0 -155 50t-52 159q0 226 221 226h156q25 0 44 -8.5t32 -22t19.5 -31t6.5 -35.5t-6.5 -36 t-19.5 -32t-32.5 -22.5t-44.5 -8.5h-168q-20 0 -29 -11.5t-9 -25.5q0 -13 9 -24.5t29 -11.5h100q106 0 156.5 -51t50.5 -160zM1130 224q0 -224 -219 -224h-193q-24 0 -42 8.5t-30 22t-18 31t-6 36.5q0 18 6 35.5t18.5 31t31 22t42.5 8.5h202q20 0 29.5 11.5t9.5 24.5 q0 14 -9.5 26t-29.5 12h-100q-103 0 -155 50t-52 159q0 226 221 226h156q25 0 44 -8.5t32 -22t19.5 -31t6.5 -35.5t-6.5 -36t-19.5 -32t-32.5 -22.5t-44.5 -8.5h-168q-20 0 -29 -11.5t-9 -25.5q0 -13 9 -24.5t29 -11.5h100q106 0 156.5 -51t50.5 -160z"/>
<glyph glyph-name="agrave" d="M447 136h-208l-31 -77q-14 -32 -37 -47.5t-48 -15.5q-20 0 -38.5 6.5t-33.5 18.5t-24 29t-9 38q0 26 7 39l238 522q12 26 31 42t59 16q38 0 57.5 -16t30.5 -43l217 -521q7 -13 7 -39q0 -20 -9 -37t-23.5 -29t-33.5 -19t-38 -7q-64 0 -86 63zM300 289h94l-43 127zM191 813 q-23 6 -32.5 21.5t-9.5 30.5q0 22 14 39t39 17q2 0 6 -0.5t9 -1.5l220 -58q23 -6 32 -20.5t9 -31.5q0 -20 -14.5 -37.5t-37.5 -17.5q-2 0 -7 0.5t-10 1.5z" unicode="à"/>
<glyph glyph-name="aacute" d="M447 136h-208l-31 -77q-14 -32 -37 -47.5t-48 -15.5q-20 0 -38.5 6.5t-33.5 18.5t-24 29t-9 38q0 26 7 39l238 522q12 26 31 42t59 16q38 0 57.5 -16t30.5 -43l217 -521q7 -13 7 -39q0 -20 -9 -37t-23.5 -29t-33.5 -19t-38 -7q-64 0 -86 63zM300 289h94l-43 127zM275 756 q-5 -1 -9.5 -1.5t-6.5 -0.5q-24 0 -38 17.5t-14 37.5q0 16 9.5 31.5t32.5 20.5l218 58q5 1 9 1.5t7 0.5q24 0 38.5 -17t14.5 -39q0 -15 -9 -30.5t-32 -21.5z" unicode="á"/>
<glyph glyph-name="acircumflex" d="M447 136h-208l-31 -77q-14 -32 -37 -47.5t-48 -15.5q-20 0 -38.5 6.5t-33.5 18.5t-24 29t-9 38q0 26 7 39l238 522q12 26 31 42t59 16q38 0 57.5 -16t30.5 -43l217 -521q7 -13 7 -39q0 -20 -9 -37t-23.5 -29t-33.5 -19t-38 -7q-64 0 -86 63zM300 289h94l-43 127zM343 800 l-94 -51q-7 -4 -13 -5t-13 -1q-20 0 -35 15.5t-15 37.5q0 8 6.5 21.5t20.5 21.5l117 63q18 5 27 5q6 0 12.5 -1t11.5 -4l117 -63q14 -8 20.5 -21.5t6.5 -21.5q0 -22 -15 -37.5t-35 -15.5q-15 0 -25 6z" unicode="â"/>
<glyph glyph-name="atilde" d="M447 136h-208l-31 -77q-14 -32 -37 -47.5t-48 -15.5q-20 0 -38.5 6.5t-33.5 18.5t-24 29t-9 38q0 26 7 39l238 522q12 26 31 42t59 16q38 0 57.5 -16t30.5 -43l217 -521q7 -13 7 -39q0 -20 -9 -37t-23.5 -29t-33.5 -19t-38 -7q-64 0 -86 63zM300 289h94l-43 127zM477 886 q9 11 18 14.5t15 3.5q20 0 35.5 -14t15.5 -34q0 -23 -12 -41.5t-30.5 -32t-41.5 -20.5t-45 -7q-23 0 -46 7.5t-44.5 16t-41.5 16t-38 7.5q-15 0 -25 -7t-30 -28q-8 -9 -17 -13t-16 -4q-18 0 -34 14t-16 34q0 22 12 41t30.5 32.5t41.5 21t45 7.5q21 0 43 -7.5t43.5 -16 t42 -16t39.5 -7.5q17 0 27.5 6.5t28.5 26.5z" unicode="ã"/>
<glyph glyph-name="adieresis" d="M447 136h-208l-31 -77q-14 -32 -37 -47.5t-48 -15.5q-20 0 -38.5 6.5t-33.5 18.5t-24 29t-9 38q0 26 7 39l238 522q12 26 31 42t59 16q38 0 57.5 -16t30.5 -43l217 -521q7 -13 7 -39q0 -20 -9 -37t-23.5 -29t-33.5 -19t-38 -7q-64 0 -86 63zM300 289h94l-43 127zM391 825 q0 32 22 53.5t53 21.5t51.5 -21.5t20.5 -53.5q0 -31 -20.5 -51.5t-51.5 -20.5t-53 20.5t-22 51.5zM147 825q0 32 21 53.5t52 21.5q32 0 53 -21.5t21 -53.5q0 -31 -21 -51.5t-53 -20.5q-31 0 -52 20.5t-21 51.5z" unicode="ä"/>
<glyph glyph-name="aring" d="M447 136h-208l-31 -77q-14 -32 -37 -47.5t-48 -15.5q-20 0 -38.5 6.5t-33.5 18.5t-24 29t-9 38q0 26 7 39l238 522q12 26 31 42t59 16q38 0 57.5 -16t30.5 -43l217 -521q7 -13 7 -39q0 -20 -9 -37t-23.5 -29t-33.5 -19t-38 -7q-64 0 -86 63zM300 289h94l-43 127zM311 817 q0 -18 13 -31.5t30 -13.5q18 0 30.5 13.5t12.5 31.5q0 19 -12.5 32t-30.5 13q-17 0 -30 -13t-13 -32zM243 818q0 22 8.5 41.5t23.5 34t35.5 22.5t43.5 8t43 -8t35 -22.5t23.5 -34t8.5 -41.5t-8.5 -41.5t-23.5 -33.5t-35 -22.5t-43 -8.5t-43.5 8.5t-35.5 22.5t-23.5 33.5 t-8.5 41.5z" unicode="å"/>
<glyph glyph-name="ae" horiz-adv-x="995" unicode="æ" d="M470 289v146l-111 -146h111zM563 0q-52 0 -72.5 28.5t-20.5 69.5v38h-213l-61 -91q-17 -26 -39.5 -37.5t-44.5 -11.5q-18 0 -35 6.5t-30 18t-21 27t-8 33.5q0 11 4.5 27.5t14.5 30.5l363 502q22 30 49.5 46.5t62.5 16.5h346q46 0 72 -29t26 -69t-26 -69t-72 -29h-197v-67 h158q42 0 66 -26.5t24 -62.5t-24 -62.5t-66 -26.5h-158v-68h197q46 0 72 -28.5t26 -68.5t-26 -69t-72 -29h-295z"/>
<glyph glyph-name="ccedilla" horiz-adv-x="571" unicode="ç" d="M375 506q-41 0 -71 -13t-50.5 -34.5t-30.5 -49.5t-10 -57q0 -30 10 -58.5t30.5 -50t50.5 -35t70 -13.5h72q25 0 43 -8.5t30 -22t18 -31t6 -35.5q0 -39 -24 -68.5t-73 -29.5h-40q4 -15 10.5 -26.5t12.5 -22.5t10.5 -23.5t4.5 -30.5q0 -51 -30 -81t-90 -30q-25 0 -36.5 15 t-11.5 32t10 33.5t33 16.5q11 0 18.5 7t7.5 21q0 12 -5 23t-11 22.5t-12.5 23t-9.5 25.5q-71 11 -123.5 44t-88 79.5t-53 103t-17.5 115.5q0 66 22.5 130.5t68.5 114.5t114 81t160 31h56q24 0 42.5 -8.5t31 -22.5t19 -31.5t6.5 -36.5t-6.5 -37t-19 -31.5t-31 -22t-42.5 -8.5 h-71z"/>
<glyph glyph-name="egrave" horiz-adv-x="602" unicode="è" d="M136 0q-96 0 -96 98v508q0 98 96 98h330q46 0 71.5 -29t25.5 -69t-25.5 -69t-71.5 -29h-233v-67h194q42 0 65.5 -26.5t23.5 -62.5t-23.5 -62.5t-65.5 -26.5h-194v-68h233q46 0 71.5 -28.5t25.5 -68.5t-25.5 -69t-71.5 -29h-330zM148 813q-23 6 -32.5 21.5t-9.5 30.5 q0 22 14 39t39 17q2 0 6 -0.5t9 -1.5l220 -58q23 -6 32 -20.5t9 -31.5q0 -20 -14.5 -37.5t-37.5 -17.5q-2 0 -7 0.5t-10 1.5z"/>
<glyph glyph-name="eacute" horiz-adv-x="602" unicode="é" d="M136 0q-96 0 -96 98v508q0 98 96 98h330q46 0 71.5 -29t25.5 -69t-25.5 -69t-71.5 -29h-233v-67h194q42 0 65.5 -26.5t23.5 -62.5t-23.5 -62.5t-65.5 -26.5h-194v-68h233q46 0 71.5 -28.5t25.5 -68.5t-25.5 -69t-71.5 -29h-330zM233 756q-5 -1 -9.5 -1.5t-6.5 -0.5 q-24 0 -38 17.5t-14 37.5q0 16 9.5 31.5t32.5 20.5l218 58q5 1 9 1.5t7 0.5q24 0 38.5 -17t14.5 -39q0 -15 -9 -30.5t-32 -21.5z"/>
<glyph glyph-name="ecircumflex" horiz-adv-x="602" unicode="ê" d="M136 0q-96 0 -96 98v508q0 98 96 98h330q46 0 71.5 -29t25.5 -69t-25.5 -69t-71.5 -29h-233v-67h194q42 0 65.5 -26.5t23.5 -62.5t-23.5 -62.5t-65.5 -26.5h-194v-68h233q46 0 71.5 -28.5t25.5 -68.5t-25.5 -69t-71.5 -29h-330zM301 800l-94 -51q-7 -4 -13 -5t-13 -1 q-20 0 -35 15.5t-15 37.5q0 8 6.5 21.5t20.5 21.5l117 63q18 5 27 5q6 0 12.5 -1t11.5 -4l117 -63q14 -8 20.5 -21.5t6.5 -21.5q0 -22 -15 -37.5t-35 -15.5q-15 0 -25 6z"/>
<glyph glyph-name="edieresis" horiz-adv-x="602" unicode="ë" d="M136 0q-96 0 -96 98v508q0 98 96 98h330q46 0 71.5 -29t25.5 -69t-25.5 -69t-71.5 -29h-233v-67h194q42 0 65.5 -26.5t23.5 -62.5t-23.5 -62.5t-65.5 -26.5h-194v-68h233q46 0 71.5 -28.5t25.5 -68.5t-25.5 -69t-71.5 -29h-330zM348 825q0 32 22 53.5t53 21.5t51.5 -21.5 t20.5 -53.5q0 -31 -20.5 -51.5t-51.5 -20.5t-53 20.5t-22 51.5zM104 825q0 32 21 53.5t52 21.5q32 0 53 -21.5t21 -53.5q0 -31 -21 -51.5t-53 -20.5q-31 0 -52 20.5t-21 51.5z"/>
<glyph glyph-name="igrave" horiz-adv-x="274" unicode="ì" d="M233 93q0 -48 -29 -72.5t-68 -24.5q-40 0 -68.5 24.5t-28.5 72.5v518q0 46 28.5 71t68.5 25q39 0 68 -25t29 -71v-518zM-13 813q-23 6 -32.5 21.5t-9.5 30.5q0 22 14 39t39 17q2 0 6 -0.5t9 -1.5l220 -58q23 -6 32 -20.5t9 -31.5q0 -20 -14.5 -37.5t-37.5 -17.5 q-2 0 -7 0.5t-10 1.5z"/>
<glyph glyph-name="iacute" horiz-adv-x="274" unicode="í" d="M233 93q0 -48 -29 -72.5t-68 -24.5q-40 0 -68.5 24.5t-28.5 72.5v518q0 46 28.5 71t68.5 25q39 0 68 -25t29 -71v-518zM72 756q-5 -1 -9.5 -1.5t-6.5 -0.5q-24 0 -38 17.5t-14 37.5q0 16 9.5 31.5t32.5 20.5l218 58q5 1 9 1.5t7 0.5q24 0 38.5 -17t14.5 -39 q0 -15 -9 -30.5t-32 -21.5z"/>
<glyph glyph-name="icircumflex" horiz-adv-x="274" unicode="î" d="M233 93q0 -48 -29 -72.5t-68 -24.5q-40 0 -68.5 24.5t-28.5 72.5v518q0 46 28.5 71t68.5 25q39 0 68 -25t29 -71v-518zM139 800l-94 -51q-7 -4 -13 -5t-13 -1q-20 0 -35 15.5t-15 37.5q0 8 6.5 21.5t20.5 21.5l117 63q18 5 27 5q6 0 12.5 -1t11.5 -4l117 -63 q14 -8 20.5 -21.5t6.5 -21.5q0 -22 -15 -37.5t-35 -15.5q-15 0 -25 6z"/>
<glyph glyph-name="idieresis" horiz-adv-x="274" unicode="ï" d="M233 93q0 -48 -29 -72.5t-68 -24.5q-40 0 -68.5 24.5t-28.5 72.5v518q0 46 28.5 71t68.5 25q39 0 68 -25t29 -71v-518zM187 825q0 32 22 53.5t53 21.5t51.5 -21.5t20.5 -53.5q0 -31 -20.5 -51.5t-51.5 -20.5t-53 20.5t-22 51.5zM-57 825q0 32 21 53.5t52 21.5 q32 0 53 -21.5t21 -53.5q0 -31 -21 -51.5t-53 -20.5q-31 0 -52 20.5t-21 51.5z"/>
<glyph glyph-name="eth" horiz-adv-x="625" unicode="ð" d="M252 195q38 0 67.5 14t49 36.5t29.5 52t10 59.5q0 28 -9.5 54.5t-28.5 47.5t-49 34t-70 13h-17v-105h5q26 0 41 -18t15 -41q0 -22 -15 -38.5t-41 -16.5h-5v-92h18zM40 288q-20 5 -30.5 20.5t-10.5 33.5q0 20 10.5 36t30.5 21v207q0 19 9 37t23.5 31.5t32.5 21.5t36 8h94 q91 0 159.5 -31t114 -81t68.5 -114.5t23 -130.5t-22 -128t-66 -111t-109 -78.5t-152 -29.5h-110q-46 0 -73.5 26t-27.5 72v190z"/>
<glyph glyph-name="ntilde" horiz-adv-x="627" unicode="ñ" d="M400 615q0 45 27.5 68.5t66.5 23.5q37 0 64.5 -23.5t27.5 -68.5v-522q0 -23 -8 -41t-20.5 -30.5t-29 -19t-34.5 -6.5q-24 0 -47 12t-40 38l-182 271v-229q0 -45 -27.5 -68.5t-66.5 -23.5q-37 0 -64 23.5t-27 68.5v523q0 22 7.5 40t20.5 30.5t29 19t34 6.5q25 0 48 -11.5 t40 -37.5l181 -271v228zM448 886q9 11 18 14.5t15 3.5q20 0 35.5 -14t15.5 -34q0 -23 -12 -41.5t-30.5 -32t-41.5 -20.5t-45 -7q-23 0 -46 7.5t-44.5 16t-41.5 16t-38 7.5q-15 0 -25 -7t-30 -28q-8 -9 -17 -13t-16 -4q-18 0 -34 14t-16 34q0 22 12 41t30.5 32.5t41.5 21 t45 7.5q21 0 43 -7.5t43.5 -16t42 -16t39.5 -7.5q17 0 27.5 6.5t28.5 26.5z"/>
<glyph glyph-name="ograve" horiz-adv-x="775" unicode="ò" d="M225 349q0 -34 13 -63.5t35 -51.5t51.5 -34.5t63.5 -12.5t63.5 12.5t52 34.5t35.5 51.5t13 63.5t-13 64t-35.5 52t-52 35t-63.5 13t-63.5 -13t-51.5 -35t-35 -52t-13 -64zM28 352q0 75 28 140t77 114t114 77t140 28t140.5 -28t114 -77t77 -114t28.5 -140t-28.5 -140 t-77 -114t-114 -77t-140.5 -28t-140 28t-114 77t-77 114t-28 140zM236 813q-23 6 -32.5 21.5t-9.5 30.5q0 22 14 39t39 17q2 0 6 -0.5t9 -1.5l220 -58q23 -6 32 -20.5t9 -31.5q0 -20 -14.5 -37.5t-37.5 -17.5q-2 0 -7 0.5t-10 1.5z"/>
<glyph glyph-name="oacute" horiz-adv-x="775" unicode="ó" d="M225 349q0 -34 13 -63.5t35 -51.5t51.5 -34.5t63.5 -12.5t63.5 12.5t52 34.5t35.5 51.5t13 63.5t-13 64t-35.5 52t-52 35t-63.5 13t-63.5 -13t-51.5 -35t-35 -52t-13 -64zM28 352q0 75 28 140t77 114t114 77t140 28t140.5 -28t114 -77t77 -114t28.5 -140t-28.5 -140 t-77 -114t-114 -77t-140.5 -28t-140 28t-114 77t-77 114t-28 140zM320 756q-5 -1 -9.5 -1.5t-6.5 -0.5q-24 0 -38 17.5t-14 37.5q0 16 9.5 31.5t32.5 20.5l218 58q5 1 9 1.5t7 0.5q24 0 38.5 -17t14.5 -39q0 -15 -9 -30.5t-32 -21.5z"/>
<glyph glyph-name="ocircumflex" horiz-adv-x="775" unicode="ô" d="M225 349q0 -34 13 -63.5t35 -51.5t51.5 -34.5t63.5 -12.5t63.5 12.5t52 34.5t35.5 51.5t13 63.5t-13 64t-35.5 52t-52 35t-63.5 13t-63.5 -13t-51.5 -35t-35 -52t-13 -64zM28 352q0 75 28 140t77 114t114 77t140 28t140.5 -28t114 -77t77 -114t28.5 -140t-28.5 -140 t-77 -114t-114 -77t-140.5 -28t-140 28t-114 77t-77 114t-28 140zM388 800l-94 -51q-7 -4 -13 -5t-13 -1q-20 0 -35 15.5t-15 37.5q0 8 6.5 21.5t20.5 21.5l117 63q18 5 27 5q6 0 12.5 -1t11.5 -4l117 -63q14 -8 20.5 -21.5t6.5 -21.5q0 -22 -15 -37.5t-35 -15.5 q-15 0 -25 6z"/>
<glyph glyph-name="otilde" horiz-adv-x="775" unicode="õ" d="M225 349q0 -34 13 -63.5t35 -51.5t51.5 -34.5t63.5 -12.5t63.5 12.5t52 34.5t35.5 51.5t13 63.5t-13 64t-35.5 52t-52 35t-63.5 13t-63.5 -13t-51.5 -35t-35 -52t-13 -64zM28 352q0 75 28 140t77 114t114 77t140 28t140.5 -28t114 -77t77 -114t28.5 -140t-28.5 -140 t-77 -114t-114 -77t-140.5 -28t-140 28t-114 77t-77 114t-28 140zM522 886q9 11 18 14.5t15 3.5q20 0 35.5 -14t15.5 -34q0 -23 -12 -41.5t-30.5 -32t-41.5 -20.5t-45 -7q-23 0 -46 7.5t-44.5 16t-41.5 16t-38 7.5q-15 0 -25 -7t-30 -28q-8 -9 -17 -13t-16 -4q-18 0 -34 14 t-16 34q0 22 12 41t30.5 32.5t41.5 21t45 7.5q21 0 43 -7.5t43.5 -16t42 -16t39.5 -7.5q17 0 27.5 6.5t28.5 26.5z"/>
<glyph glyph-name="odieresis" horiz-adv-x="775" unicode="ö" d="M225 349q0 -34 13 -63.5t35 -51.5t51.5 -34.5t63.5 -12.5t63.5 12.5t52 34.5t35.5 51.5t13 63.5t-13 64t-35.5 52t-52 35t-63.5 13t-63.5 -13t-51.5 -35t-35 -52t-13 -64zM28 352q0 75 28 140t77 114t114 77t140 28t140.5 -28t114 -77t77 -114t28.5 -140t-28.5 -140 t-77 -114t-114 -77t-140.5 -28t-140 28t-114 77t-77 114t-28 140zM436 825q0 32 22 53.5t53 21.5t51.5 -21.5t20.5 -53.5q0 -31 -20.5 -51.5t-51.5 -20.5t-53 20.5t-22 51.5zM192 825q0 32 21 53.5t52 21.5q32 0 53 -21.5t21 -53.5q0 -31 -21 -51.5t-53 -20.5 q-31 0 -52 20.5t-21 51.5z"/>
<glyph glyph-name="divide" horiz-adv-x="580" unicode="÷" d="M386 574q0 -43 -28.5 -70.5t-68.5 -27.5t-68.5 27.5t-28.5 70.5q0 20 7.5 37.5t21 31t31 21t37.5 7.5t37.5 -7.5t31 -21t21 -31t7.5 -37.5zM387 123q0 -20 -8 -37t-21.5 -30.5t-31.5 -21t-37 -7.5q-20 0 -37.5 7.5t-31 21t-21 30.5t-7.5 37q0 19 7.5 37t21 31.5t31 21.5 t37.5 8q19 0 37 -8t31.5 -21.5t21.5 -31.5t8 -37zM114 269q-38 0 -59.5 24t-21.5 56q0 34 21.5 59t59.5 25h351q38 0 59.5 -25t21.5 -59q0 -32 -21.5 -56t-59.5 -24h-351z"/>
<glyph glyph-name="oslash" horiz-adv-x="775" unicode="ø" d="M225 349q0 -23 5.5 -42.5t15.5 -36.5l185 237q-21 6 -43 6q-34 0 -63.5 -13t-51.5 -35t-35 -52t-13 -64zM552 349q0 24 -7 46t-18 40l-187 -241q14 -7 48 -7t63.5 12.5t52 34.5t35.5 51.5t13 63.5zM643 754q13 0 26 -5.5t23.5 -15t17 -22t6.5 -25.5q0 -22 -15 -41 l-43 -57q42 -48 65.5 -107.5t23.5 -128.5q0 -75 -28.5 -140t-77 -114t-114 -77t-140.5 -28q-92 0 -165 40l-44 -56q-22 -28 -51 -28q-15 0 -28 6t-22.5 15.5t-15.5 22t-6 25.5q0 9 3.5 19.5t12.5 21.5l45 58q-42 46 -65 106t-23 129q0 75 28 140t77 114t114 77t140 28 q45 0 86 -10.5t79 -29.5l41 53q12 15 23.5 22.5t26.5 7.5z"/>
<glyph glyph-name="ugrave" horiz-adv-x="642" unicode="ù" d="M606 302q0 -309 -283 -309q-287 0 -287 309v309q0 46 29 71t68 25q40 0 68.5 -25t28.5 -71v-339q0 -86 91 -86t91 86v339q0 23 8 41t21 30t30.5 18.5t36.5 6.5q40 0 69 -25t29 -71v-309zM169 813q-23 6 -32.5 21.5t-9.5 30.5q0 22 14 39t39 17q2 0 6 -0.5t9 -1.5l220 -58 q23 -6 32 -20.5t9 -31.5q0 -20 -14.5 -37.5t-37.5 -17.5q-2 0 -7 0.5t-10 1.5z"/>
<glyph glyph-name="uacute" horiz-adv-x="642" unicode="ú" d="M606 302q0 -309 -283 -309q-287 0 -287 309v309q0 46 29 71t68 25q40 0 68.5 -25t28.5 -71v-339q0 -86 91 -86t91 86v339q0 23 8 41t21 30t30.5 18.5t36.5 6.5q40 0 69 -25t29 -71v-309zM254 756q-5 -1 -9.5 -1.5t-6.5 -0.5q-24 0 -38 17.5t-14 37.5q0 16 9.5 31.5 t32.5 20.5l218 58q5 1 9 1.5t7 0.5q24 0 38.5 -17t14.5 -39q0 -15 -9 -30.5t-32 -21.5z"/>
<glyph glyph-name="ucircumflex" horiz-adv-x="642" unicode="û" d="M606 302q0 -309 -283 -309q-287 0 -287 309v309q0 46 29 71t68 25q40 0 68.5 -25t28.5 -71v-339q0 -86 91 -86t91 86v339q0 23 8 41t21 30t30.5 18.5t36.5 6.5q40 0 69 -25t29 -71v-309zM321 800l-94 -51q-7 -4 -13 -5t-13 -1q-20 0 -35 15.5t-15 37.5q0 8 6.5 21.5 t20.5 21.5l117 63q18 5 27 5q6 0 12.5 -1t11.5 -4l117 -63q14 -8 20.5 -21.5t6.5 -21.5q0 -22 -15 -37.5t-35 -15.5q-15 0 -25 6z"/>
<glyph glyph-name="udieresis" horiz-adv-x="642" unicode="ü" d="M606 302q0 -309 -283 -309q-287 0 -287 309v309q0 46 29 71t68 25q40 0 68.5 -25t28.5 -71v-339q0 -86 91 -86t91 86v339q0 23 8 41t21 30t30.5 18.5t36.5 6.5q40 0 69 -25t29 -71v-309zM369 825q0 32 22 53.5t53 21.5t51.5 -21.5t20.5 -53.5q0 -31 -20.5 -51.5 t-51.5 -20.5t-53 20.5t-22 51.5zM125 825q0 32 21 53.5t52 21.5q32 0 53 -21.5t21 -53.5q0 -31 -21 -51.5t-53 -20.5q-31 0 -52 20.5t-21 51.5z"/>
<glyph glyph-name="yacute" horiz-adv-x="576" unicode="ý" d="M375 657q15 26 37.5 38t45.5 12q19 0 37 -7.5t32 -20t22.5 -30t8.5 -37.5q0 -26 -16 -53l-156 -254v-212q0 -48 -29 -72.5t-68 -24.5q-40 0 -68.5 24.5t-28.5 72.5v212l-158 255q-16 25 -16 49q0 20 8.5 38t22.5 31.5t32 21t38 7.5q21 0 44 -11.5t38 -37.5l87 -152z M220 756q-5 -1 -9.5 -1.5t-6.5 -0.5q-24 0 -38 17.5t-14 37.5q0 16 9.5 31.5t32.5 20.5l218 58q5 1 9 1.5t7 0.5q24 0 38.5 -17t14.5 -39q0 -15 -9 -30.5t-32 -21.5z"/>
<glyph glyph-name="thorn" horiz-adv-x="590" unicode="þ" d="M236 96q0 -100 -97 -100q-54 0 -77 27.5t-23 70.5v517q0 46 28.5 71t68.5 25q39 0 68 -25t29 -71v-22h100q63 0 109.5 -19.5t76.5 -51t44.5 -72t14.5 -82.5t-13.5 -82.5t-39.5 -72t-64.5 -50.5t-88.5 -19h-31q-88 0 -88 79q0 29 11 43.5t27 22t35 10.5t35.5 8.5t28 16 t12.5 32.5q0 53 -61 53h-105v-309z"/>
<glyph glyph-name="ydieresis" horiz-adv-x="576" unicode="ÿ" d="M375 657q15 26 37.5 38t45.5 12q19 0 37 -7.5t32 -20t22.5 -30t8.5 -37.5q0 -26 -16 -53l-156 -254v-212q0 -48 -29 -72.5t-68 -24.5q-40 0 -68.5 24.5t-28.5 72.5v212l-158 255q-16 25 -16 49q0 20 8.5 38t22.5 31.5t32 21t38 7.5q21 0 44 -11.5t38 -37.5l87 -152z M336 825q0 32 22 53.5t53 21.5t51.5 -21.5t20.5 -53.5q0 -31 -20.5 -51.5t-51.5 -20.5t-53 20.5t-22 51.5zM92 825q0 32 21 53.5t52 21.5q32 0 53 -21.5t21 -53.5q0 -31 -21 -51.5t-53 -20.5q-31 0 -52 20.5t-21 51.5z"/>
<glyph glyph-name="Amacron" d="M447 136h-208l-31 -77q-14 -32 -37 -47.5t-48 -15.5q-20 0 -38.5 6.5t-33.5 18.5t-24 29t-9 38q0 26 7 39l238 522q12 26 31 42t59 16q38 0 57.5 -16t30.5 -43l217 -521q7 -13 7 -39q0 -20 -9 -37t-23.5 -29t-33.5 -19t-38 -7q-64 0 -86 63zM300 289h94l-43 127zM206 759 q-31 0 -48.5 19.5t-17.5 45.5q0 27 17.5 48t48.5 21h273q31 0 48.5 -21t17.5 -48q0 -26 -17.5 -45.5t-48.5 -19.5h-273z" unicode="Ā"/>
<glyph glyph-name="amacron" d="M447 136h-208l-31 -77q-14 -32 -37 -47.5t-48 -15.5q-20 0 -38.5 6.5t-33.5 18.5t-24 29t-9 38q0 26 7 39l238 522q12 26 31 42t59 16q38 0 57.5 -16t30.5 -43l217 -521q7 -13 7 -39q0 -20 -9 -37t-23.5 -29t-33.5 -19t-38 -7q-64 0 -86 63zM300 289h94l-43 127zM206 759 q-31 0 -48.5 19.5t-17.5 45.5q0 27 17.5 48t48.5 21h273q31 0 48.5 -21t17.5 -48q0 -26 -17.5 -45.5t-48.5 -19.5h-273z" unicode="ā"/>
<glyph glyph-name="Abreve" d="M447 136h-208l-31 -77q-14 -32 -37 -47.5t-48 -15.5q-20 0 -38.5 6.5t-33.5 18.5t-24 29t-9 38q0 26 7 39l238 522q12 26 31 42t59 16q38 0 57.5 -16t30.5 -43l217 -521q7 -13 7 -39q0 -20 -9 -37t-23.5 -29t-33.5 -19t-38 -7q-64 0 -86 63zM300 289h94l-43 127zM462 907 q20 0 35 -15.5t15 -36.5q0 -27 -17 -47.5t-42.5 -35t-55 -22t-54.5 -7.5q-26 0 -55.5 7.5t-55 22t-42.5 35t-17 47.5q0 21 15 36.5t35 15.5q23 0 34 -10t20.5 -22.5t23 -22.5t42.5 -10q28 0 41.5 10t23 22.5t20.5 22.5t34 10z" unicode="Ă"/>
<glyph glyph-name="abreve" d="M447 136h-208l-31 -77q-14 -32 -37 -47.5t-48 -15.5q-20 0 -38.5 6.5t-33.5 18.5t-24 29t-9 38q0 26 7 39l238 522q12 26 31 42t59 16q38 0 57.5 -16t30.5 -43l217 -521q7 -13 7 -39q0 -20 -9 -37t-23.5 -29t-33.5 -19t-38 -7q-64 0 -86 63zM300 289h94l-43 127zM462 907 q20 0 35 -15.5t15 -36.5q0 -27 -17 -47.5t-42.5 -35t-55 -22t-54.5 -7.5q-26 0 -55.5 7.5t-55 22t-42.5 35t-17 47.5q0 21 15 36.5t35 15.5q23 0 34 -10t20.5 -22.5t23 -22.5t42.5 -10q28 0 41.5 10t23 22.5t20.5 22.5t34 10z" unicode="ă"/>
<glyph glyph-name="Aogonek" d="M300 289h94l-43 127zM447 136h-208l-31 -77q-14 -32 -37 -47.5t-48 -15.5q-20 0 -38.5 6.5t-33.5 18.5t-24 29t-9 38q0 26 7 39l238 522q12 26 31 42t59 16q38 0 57.5 -16t30.5 -43l217 -521q7 -13 7 -39t-8 -42.5t-17.5 -29t-17.5 -24t-8 -27.5q0 -19 13.5 -25t58.5 -6 t66.5 -25t21.5 -60q0 -33 -21.5 -58t-61.5 -25q-51 0 -86 11t-56 30t-30 44.5t-9 54.5q0 51 22 94q-19 6 -33.5 20t-23.5 39z" unicode="Ą"/>
<glyph glyph-name="aogonek" d="M300 289h94l-43 127zM447 136h-208l-31 -77q-14 -32 -37 -47.5t-48 -15.5q-20 0 -38.5 6.5t-33.5 18.5t-24 29t-9 38q0 26 7 39l238 522q12 26 31 42t59 16q38 0 57.5 -16t30.5 -43l217 -521q7 -13 7 -39t-8 -42.5t-17.5 -29t-17.5 -24t-8 -27.5q0 -19 13.5 -25t58.5 -6 t66.5 -25t21.5 -60q0 -33 -21.5 -58t-61.5 -25q-51 0 -86 11t-56 30t-30 44.5t-9 54.5q0 51 22 94q-19 6 -33.5 20t-23.5 39z" unicode="ą"/>
<glyph glyph-name="Cacute" horiz-adv-x="571" unicode="Ć" d="M375 506q-41 0 -71 -13t-50.5 -34.5t-30.5 -49.5t-10 -57q0 -30 10 -58.5t30.5 -50t50.5 -35t70 -13.5h72q25 0 43 -8.5t30 -22t18 -31t6 -35.5q0 -39 -24 -68.5t-73 -29.5h-71q-87 0 -153 29.5t-109.5 78.5t-65.5 111t-22 128t22.5 130.5t68.5 114.5t114 81t160 31h56 q24 0 42.5 -8.5t31 -22.5t19 -31.5t6.5 -36.5t-6.5 -37t-19 -31.5t-31 -22t-42.5 -8.5h-71zM277 756q-5 -1 -9.5 -1.5t-6.5 -0.5q-24 0 -38 17.5t-14 37.5q0 16 9.5 31.5t32.5 20.5l218 58q5 1 9 1.5t7 0.5q24 0 38.5 -17t14.5 -39q0 -15 -9 -30.5t-32 -21.5z"/>
<glyph glyph-name="cacute" horiz-adv-x="571" unicode="ć" d="M375 506q-41 0 -71 -13t-50.5 -34.5t-30.5 -49.5t-10 -57q0 -30 10 -58.5t30.5 -50t50.5 -35t70 -13.5h72q25 0 43 -8.5t30 -22t18 -31t6 -35.5q0 -39 -24 -68.5t-73 -29.5h-71q-87 0 -153 29.5t-109.5 78.5t-65.5 111t-22 128t22.5 130.5t68.5 114.5t114 81t160 31h56 q24 0 42.5 -8.5t31 -22.5t19 -31.5t6.5 -36.5t-6.5 -37t-19 -31.5t-31 -22t-42.5 -8.5h-71zM277 756q-5 -1 -9.5 -1.5t-6.5 -0.5q-24 0 -38 17.5t-14 37.5q0 16 9.5 31.5t32.5 20.5l218 58q5 1 9 1.5t7 0.5q24 0 38.5 -17t14.5 -39q0 -15 -9 -30.5t-32 -21.5z"/>
<glyph glyph-name="Ccircumflex" horiz-adv-x="571" unicode="Ĉ" d="M375 506q-41 0 -71 -13t-50.5 -34.5t-30.5 -49.5t-10 -57q0 -30 10 -58.5t30.5 -50t50.5 -35t70 -13.5h72q25 0 43 -8.5t30 -22t18 -31t6 -35.5q0 -39 -24 -68.5t-73 -29.5h-71q-87 0 -153 29.5t-109.5 78.5t-65.5 111t-22 128t22.5 130.5t68.5 114.5t114 81t160 31h56 q24 0 42.5 -8.5t31 -22.5t19 -31.5t6.5 -36.5t-6.5 -37t-19 -31.5t-31 -22t-42.5 -8.5h-71zM345 800l-94 -51q-7 -4 -13 -5t-13 -1q-20 0 -35 15.5t-15 37.5q0 8 6.5 21.5t20.5 21.5l117 63q18 5 27 5q6 0 12.5 -1t11.5 -4l117 -63q14 -8 20.5 -21.5t6.5 -21.5 q0 -22 -15 -37.5t-35 -15.5q-15 0 -25 6z"/>
<glyph glyph-name="ccircumflex" horiz-adv-x="571" unicode="ĉ" d="M375 506q-41 0 -71 -13t-50.5 -34.5t-30.5 -49.5t-10 -57q0 -30 10 -58.5t30.5 -50t50.5 -35t70 -13.5h72q25 0 43 -8.5t30 -22t18 -31t6 -35.5q0 -39 -24 -68.5t-73 -29.5h-71q-87 0 -153 29.5t-109.5 78.5t-65.5 111t-22 128t22.5 130.5t68.5 114.5t114 81t160 31h56 q24 0 42.5 -8.5t31 -22.5t19 -31.5t6.5 -36.5t-6.5 -37t-19 -31.5t-31 -22t-42.5 -8.5h-71zM345 800l-94 -51q-7 -4 -13 -5t-13 -1q-20 0 -35 15.5t-15 37.5q0 8 6.5 21.5t20.5 21.5l117 63q18 5 27 5q6 0 12.5 -1t11.5 -4l117 -63q14 -8 20.5 -21.5t6.5 -21.5 q0 -22 -15 -37.5t-35 -15.5q-15 0 -25 6z"/>
<glyph glyph-name="Cdotaccent" horiz-adv-x="571" unicode="Ċ" d="M375 506q-41 0 -71 -13t-50.5 -34.5t-30.5 -49.5t-10 -57q0 -30 10 -58.5t30.5 -50t50.5 -35t70 -13.5h72q25 0 43 -8.5t30 -22t18 -31t6 -35.5q0 -39 -24 -68.5t-73 -29.5h-71q-87 0 -153 29.5t-109.5 78.5t-65.5 111t-22 128t22.5 130.5t68.5 114.5t114 81t160 31h56 q24 0 42.5 -8.5t31 -22.5t19 -31.5t6.5 -36.5t-6.5 -37t-19 -31.5t-31 -22t-42.5 -8.5h-71zM270 825q0 32 21 53.5t52 21.5q32 0 53 -21.5t21 -53.5q0 -31 -21 -51.5t-53 -20.5q-31 0 -52 20.5t-21 51.5z"/>
<glyph glyph-name="cdotaccent" horiz-adv-x="571" unicode="ċ" d="M375 506q-41 0 -71 -13t-50.5 -34.5t-30.5 -49.5t-10 -57q0 -30 10 -58.5t30.5 -50t50.5 -35t70 -13.5h72q25 0 43 -8.5t30 -22t18 -31t6 -35.5q0 -39 -24 -68.5t-73 -29.5h-71q-87 0 -153 29.5t-109.5 78.5t-65.5 111t-22 128t22.5 130.5t68.5 114.5t114 81t160 31h56 q24 0 42.5 -8.5t31 -22.5t19 -31.5t6.5 -36.5t-6.5 -37t-19 -31.5t-31 -22t-42.5 -8.5h-71zM270 825q0 32 21 53.5t52 21.5q32 0 53 -21.5t21 -53.5q0 -31 -21 -51.5t-53 -20.5q-31 0 -52 20.5t-21 51.5z"/>
<glyph glyph-name="Ccaron" horiz-adv-x="571" unicode="Č" d="M375 506q-41 0 -71 -13t-50.5 -34.5t-30.5 -49.5t-10 -57q0 -30 10 -58.5t30.5 -50t50.5 -35t70 -13.5h72q25 0 43 -8.5t30 -22t18 -31t6 -35.5q0 -39 -24 -68.5t-73 -29.5h-71q-87 0 -153 29.5t-109.5 78.5t-65.5 111t-22 128t22.5 130.5t68.5 114.5t114 81t160 31h56 q24 0 42.5 -8.5t31 -22.5t19 -31.5t6.5 -36.5t-6.5 -37t-19 -31.5t-31 -22t-42.5 -8.5h-71zM345 851l94 51q6 4 12 4.5t13 0.5q20 0 35 -15.5t15 -36.5q0 -31 -27 -44l-117 -62q-11 -6 -27 -6q-14 0 -24 6l-117 62q-15 8 -21 19t-6 25q0 21 15 36.5t35 15.5q7 0 13 -0.5 t13 -4.5z"/>
<glyph glyph-name="ccaron" horiz-adv-x="571" unicode="č" d="M375 506q-41 0 -71 -13t-50.5 -34.5t-30.5 -49.5t-10 -57q0 -30 10 -58.5t30.5 -50t50.5 -35t70 -13.5h72q25 0 43 -8.5t30 -22t18 -31t6 -35.5q0 -39 -24 -68.5t-73 -29.5h-71q-87 0 -153 29.5t-109.5 78.5t-65.5 111t-22 128t22.5 130.5t68.5 114.5t114 81t160 31h56 q24 0 42.5 -8.5t31 -22.5t19 -31.5t6.5 -36.5t-6.5 -37t-19 -31.5t-31 -22t-42.5 -8.5h-71zM345 851l94 51q6 4 12 4.5t13 0.5q20 0 35 -15.5t15 -36.5q0 -31 -27 -44l-117 -62q-11 -6 -27 -6q-14 0 -24 6l-117 62q-15 8 -21 19t-6 25q0 21 15 36.5t35 15.5q7 0 13 -0.5 t13 -4.5z"/>
<glyph glyph-name="Dcaron" horiz-adv-x="625" unicode="Ď" d="M252 195q38 0 67.5 14t49 36.5t29.5 52t10 59.5q0 28 -9.5 54.5t-28.5 47.5t-49 34t-70 13h-17v-311h18zM40 606q0 19 9 37t23.5 31.5t32.5 21.5t36 8h94q91 0 159.5 -31t114 -81t68.5 -114.5t23 -130.5t-22 -128t-66 -111t-109 -78.5t-152 -29.5h-110q-46 0 -73.5 26 t-27.5 72v508zM254 851l94 51q6 4 12 4.5t13 0.5q20 0 35 -15.5t15 -36.5q0 -31 -27 -44l-117 -62q-11 -6 -27 -6q-14 0 -24 6l-117 62q-15 8 -21 19t-6 25q0 21 15 36.5t35 15.5q7 0 13 -0.5t13 -4.5z"/>
<glyph glyph-name="dcaron" horiz-adv-x="625" unicode="ď" d="M252 195q38 0 67.5 14t49 36.5t29.5 52t10 59.5q0 28 -9.5 54.5t-28.5 47.5t-49 34t-70 13h-17v-311h18zM40 606q0 19 9 37t23.5 31.5t32.5 21.5t36 8h94q91 0 159.5 -31t114 -81t68.5 -114.5t23 -130.5t-22 -128t-66 -111t-109 -78.5t-152 -29.5h-110q-46 0 -73.5 26 t-27.5 72v508zM254 851l94 51q6 4 12 4.5t13 0.5q20 0 35 -15.5t15 -36.5q0 -31 -27 -44l-117 -62q-11 -6 -27 -6q-14 0 -24 6l-117 62q-15 8 -21 19t-6 25q0 21 15 36.5t35 15.5q7 0 13 -0.5t13 -4.5z"/>
<glyph glyph-name="Dcroat" horiz-adv-x="625" unicode="Đ" d="M252 195q38 0 67.5 14t49 36.5t29.5 52t10 59.5q0 28 -9.5 54.5t-28.5 47.5t-49 34t-70 13h-17v-105h5q26 0 41 -18t15 -41q0 -22 -15 -38.5t-41 -16.5h-5v-92h18zM40 288q-20 5 -30.5 20.5t-10.5 33.5q0 20 10.5 36t30.5 21v207q0 19 9 37t23.5 31.5t32.5 21.5t36 8h94 q91 0 159.5 -31t114 -81t68.5 -114.5t23 -130.5t-22 -128t-66 -111t-109 -78.5t-152 -29.5h-110q-46 0 -73.5 26t-27.5 72v190z"/>
<glyph glyph-name="dcroat" horiz-adv-x="625" unicode="đ" d="M252 195q38 0 67.5 14t49 36.5t29.5 52t10 59.5q0 28 -9.5 54.5t-28.5 47.5t-49 34t-70 13h-17v-105h5q26 0 41 -18t15 -41q0 -22 -15 -38.5t-41 -16.5h-5v-92h18zM40 288q-20 5 -30.5 20.5t-10.5 33.5q0 20 10.5 36t30.5 21v207q0 19 9 37t23.5 31.5t32.5 21.5t36 8h94 q91 0 159.5 -31t114 -81t68.5 -114.5t23 -130.5t-22 -128t-66 -111t-109 -78.5t-152 -29.5h-110q-46 0 -73.5 26t-27.5 72v190z"/>
<glyph glyph-name="Emacron" horiz-adv-x="602" unicode="Ē" d="M136 0q-96 0 -96 98v508q0 98 96 98h330q46 0 71.5 -29t25.5 -69t-25.5 -69t-71.5 -29h-233v-67h194q42 0 65.5 -26.5t23.5 -62.5t-23.5 -62.5t-65.5 -26.5h-194v-68h233q46 0 71.5 -28.5t25.5 -68.5t-25.5 -69t-71.5 -29h-330zM164 759q-31 0 -48.5 19.5t-17.5 45.5 q0 27 17.5 48t48.5 21h273q31 0 48.5 -21t17.5 -48q0 -26 -17.5 -45.5t-48.5 -19.5h-273z"/>
<glyph glyph-name="emacron" horiz-adv-x="602" unicode="ē" d="M136 0q-96 0 -96 98v508q0 98 96 98h330q46 0 71.5 -29t25.5 -69t-25.5 -69t-71.5 -29h-233v-67h194q42 0 65.5 -26.5t23.5 -62.5t-23.5 -62.5t-65.5 -26.5h-194v-68h233q46 0 71.5 -28.5t25.5 -68.5t-25.5 -69t-71.5 -29h-330zM164 759q-31 0 -48.5 19.5t-17.5 45.5 q0 27 17.5 48t48.5 21h273q31 0 48.5 -21t17.5 -48q0 -26 -17.5 -45.5t-48.5 -19.5h-273z"/>
<glyph glyph-name="Ebreve" horiz-adv-x="602" unicode="Ĕ" d="M136 0q-96 0 -96 98v508q0 98 96 98h330q46 0 71.5 -29t25.5 -69t-25.5 -69t-71.5 -29h-233v-67h194q42 0 65.5 -26.5t23.5 -62.5t-23.5 -62.5t-65.5 -26.5h-194v-68h233q46 0 71.5 -28.5t25.5 -68.5t-25.5 -69t-71.5 -29h-330zM420 907q20 0 35 -15.5t15 -36.5 q0 -27 -17 -47.5t-42.5 -35t-55 -22t-54.5 -7.5q-26 0 -55.5 7.5t-55 22t-42.5 35t-17 47.5q0 21 15 36.5t35 15.5q23 0 34 -10t20.5 -22.5t23 -22.5t42.5 -10q28 0 41.5 10t23 22.5t20.5 22.5t34 10z"/>
<glyph glyph-name="ebreve" horiz-adv-x="602" unicode="ĕ" d="M136 0q-96 0 -96 98v508q0 98 96 98h330q46 0 71.5 -29t25.5 -69t-25.5 -69t-71.5 -29h-233v-67h194q42 0 65.5 -26.5t23.5 -62.5t-23.5 -62.5t-65.5 -26.5h-194v-68h233q46 0 71.5 -28.5t25.5 -68.5t-25.5 -69t-71.5 -29h-330zM420 907q20 0 35 -15.5t15 -36.5 q0 -27 -17 -47.5t-42.5 -35t-55 -22t-54.5 -7.5q-26 0 -55.5 7.5t-55 22t-42.5 35t-17 47.5q0 21 15 36.5t35 15.5q23 0 34 -10t20.5 -22.5t23 -22.5t42.5 -10q28 0 41.5 10t23 22.5t20.5 22.5t34 10z"/>
<glyph glyph-name="Edotaccent" horiz-adv-x="602" unicode="Ė" d="M136 0q-96 0 -96 98v508q0 98 96 98h330q46 0 71.5 -29t25.5 -69t-25.5 -69t-71.5 -29h-233v-67h194q42 0 65.5 -26.5t23.5 -62.5t-23.5 -62.5t-65.5 -26.5h-194v-68h233q46 0 71.5 -28.5t25.5 -68.5t-25.5 -69t-71.5 -29h-330zM227 825q0 32 21 53.5t52 21.5 q32 0 53 -21.5t21 -53.5q0 -31 -21 -51.5t-53 -20.5q-31 0 -52 20.5t-21 51.5z"/>
<glyph glyph-name="edotaccent" horiz-adv-x="602" unicode="ė" d="M136 0q-96 0 -96 98v508q0 98 96 98h330q46 0 71.5 -29t25.5 -69t-25.5 -69t-71.5 -29h-233v-67h194q42 0 65.5 -26.5t23.5 -62.5t-23.5 -62.5t-65.5 -26.5h-194v-68h233q46 0 71.5 -28.5t25.5 -68.5t-25.5 -69t-71.5 -29h-330zM227 825q0 32 21 53.5t52 21.5 q32 0 53 -21.5t21 -53.5q0 -31 -21 -51.5t-53 -20.5q-31 0 -52 20.5t-21 51.5z"/>
<glyph glyph-name="Eogonek" horiz-adv-x="602" unicode="Ę" d="M563 98q0 -36 -19.5 -56.5t-42.5 -34t-42.5 -22t-19.5 -20.5q0 -19 9.5 -25t32.5 -6q45 0 66.5 -25t21.5 -60q0 -33 -21.5 -58t-61.5 -25q-51 0 -81 10.5t-45.5 27t-20 36.5t-4.5 40q0 45 27 75.5t75 44.5h-301q-96 0 -96 98v508q0 98 96 98h330q46 0 71.5 -29t25.5 -69 t-25.5 -69t-71.5 -29h-233v-67h194q42 0 65.5 -26.5t23.5 -62.5t-23.5 -62.5t-65.5 -26.5h-194v-68h233q46 0 71.5 -28.5t25.5 -68.5z"/>
<glyph glyph-name="eogonek" horiz-adv-x="602" unicode="ę" d="M563 98q0 -36 -19.5 -56.5t-42.5 -34t-42.5 -22t-19.5 -20.5q0 -19 9.5 -25t32.5 -6q45 0 66.5 -25t21.5 -60q0 -33 -21.5 -58t-61.5 -25q-51 0 -81 10.5t-45.5 27t-20 36.5t-4.5 40q0 45 27 75.5t75 44.5h-301q-96 0 -96 98v508q0 98 96 98h330q46 0 71.5 -29t25.5 -69 t-25.5 -69t-71.5 -29h-233v-67h194q42 0 65.5 -26.5t23.5 -62.5t-23.5 -62.5t-65.5 -26.5h-194v-68h233q46 0 71.5 -28.5t25.5 -68.5z"/>
<glyph glyph-name="Ecaron" horiz-adv-x="602" unicode="Ě" d="M136 0q-96 0 -96 98v508q0 98 96 98h330q46 0 71.5 -29t25.5 -69t-25.5 -69t-71.5 -29h-233v-67h194q42 0 65.5 -26.5t23.5 -62.5t-23.5 -62.5t-65.5 -26.5h-194v-68h233q46 0 71.5 -28.5t25.5 -68.5t-25.5 -69t-71.5 -29h-330zM301 851l94 51q6 4 12 4.5t13 0.5 q20 0 35 -15.5t15 -36.5q0 -31 -27 -44l-117 -62q-11 -6 -27 -6q-14 0 -24 6l-117 62q-15 8 -21 19t-6 25q0 21 15 36.5t35 15.5q7 0 13 -0.5t13 -4.5z"/>
<glyph glyph-name="ecaron" horiz-adv-x="602" unicode="ě" d="M136 0q-96 0 -96 98v508q0 98 96 98h330q46 0 71.5 -29t25.5 -69t-25.5 -69t-71.5 -29h-233v-67h194q42 0 65.5 -26.5t23.5 -62.5t-23.5 -62.5t-65.5 -26.5h-194v-68h233q46 0 71.5 -28.5t25.5 -68.5t-25.5 -69t-71.5 -29h-330zM301 851l94 51q6 4 12 4.5t13 0.5 q20 0 35 -15.5t15 -36.5q0 -31 -27 -44l-117 -62q-11 -6 -27 -6q-14 0 -24 6l-117 62q-15 8 -21 19t-6 25q0 21 15 36.5t35 15.5q7 0 13 -0.5t13 -4.5z"/>
<glyph glyph-name="Gcircumflex" horiz-adv-x="584" unicode="Ĝ" d="M545 98q0 -48 -28.5 -73t-70.5 -25h-71q-87 0 -153 29.5t-109.5 78.5t-65.5 111t-22 128q0 72 22.5 137t68.5 114t114 77.5t160 28.5h56q24 0 42.5 -8.5t31 -22.5t19 -31.5t6.5 -36.5t-6.5 -37t-19 -31.5t-31 -22t-42.5 -8.5h-71q-41 0 -71 -13t-50.5 -34.5t-30.5 -49.5 t-10 -57q0 -30 8 -57.5t25.5 -49t44 -34.5t63.5 -15v116q0 45 28.5 70t66.5 25q39 0 67.5 -25t28.5 -70v-214zM351 800l-94 -51q-7 -4 -13 -5t-13 -1q-20 0 -35 15.5t-15 37.5q0 8 6.5 21.5t20.5 21.5l117 63q18 5 27 5q6 0 12.5 -1t11.5 -4l117 -63q14 -8 20.5 -21.5 t6.5 -21.5q0 -22 -15 -37.5t-35 -15.5q-15 0 -25 6z"/>
<glyph glyph-name="gcircumflex" horiz-adv-x="584" unicode="ĝ" d="M545 98q0 -48 -28.5 -73t-70.5 -25h-71q-87 0 -153 29.5t-109.5 78.5t-65.5 111t-22 128q0 72 22.5 137t68.5 114t114 77.5t160 28.5h56q24 0 42.5 -8.5t31 -22.5t19 -31.5t6.5 -36.5t-6.5 -37t-19 -31.5t-31 -22t-42.5 -8.5h-71q-41 0 -71 -13t-50.5 -34.5t-30.5 -49.5 t-10 -57q0 -30 8 -57.5t25.5 -49t44 -34.5t63.5 -15v116q0 45 28.5 70t66.5 25q39 0 67.5 -25t28.5 -70v-214zM351 800l-94 -51q-7 -4 -13 -5t-13 -1q-20 0 -35 15.5t-15 37.5q0 8 6.5 21.5t20.5 21.5l117 63q18 5 27 5q6 0 12.5 -1t11.5 -4l117 -63q14 -8 20.5 -21.5 t6.5 -21.5q0 -22 -15 -37.5t-35 -15.5q-15 0 -25 6z"/>
<glyph glyph-name="Gbreve" horiz-adv-x="584" unicode="Ğ" d="M545 98q0 -48 -28.5 -73t-70.5 -25h-71q-87 0 -153 29.5t-109.5 78.5t-65.5 111t-22 128q0 72 22.5 137t68.5 114t114 77.5t160 28.5h56q24 0 42.5 -8.5t31 -22.5t19 -31.5t6.5 -36.5t-6.5 -37t-19 -31.5t-31 -22t-42.5 -8.5h-71q-41 0 -71 -13t-50.5 -34.5t-30.5 -49.5 t-10 -57q0 -30 8 -57.5t25.5 -49t44 -34.5t63.5 -15v116q0 45 28.5 70t66.5 25q39 0 67.5 -25t28.5 -70v-214zM470 907q20 0 35 -15.5t15 -36.5q0 -27 -17 -47.5t-42.5 -35t-55 -22t-54.5 -7.5q-26 0 -55.5 7.5t-55 22t-42.5 35t-17 47.5q0 21 15 36.5t35 15.5q23 0 34 -10 t20.5 -22.5t23 -22.5t42.5 -10q28 0 41.5 10t23 22.5t20.5 22.5t34 10z"/>
<glyph glyph-name="gbreve" horiz-adv-x="584" unicode="ğ" d="M545 98q0 -48 -28.5 -73t-70.5 -25h-71q-87 0 -153 29.5t-109.5 78.5t-65.5 111t-22 128q0 72 22.5 137t68.5 114t114 77.5t160 28.5h56q24 0 42.5 -8.5t31 -22.5t19 -31.5t6.5 -36.5t-6.5 -37t-19 -31.5t-31 -22t-42.5 -8.5h-71q-41 0 -71 -13t-50.5 -34.5t-30.5 -49.5 t-10 -57q0 -30 8 -57.5t25.5 -49t44 -34.5t63.5 -15v116q0 45 28.5 70t66.5 25q39 0 67.5 -25t28.5 -70v-214zM470 907q20 0 35 -15.5t15 -36.5q0 -27 -17 -47.5t-42.5 -35t-55 -22t-54.5 -7.5q-26 0 -55.5 7.5t-55 22t-42.5 35t-17 47.5q0 21 15 36.5t35 15.5q23 0 34 -10 t20.5 -22.5t23 -22.5t42.5 -10q28 0 41.5 10t23 22.5t20.5 22.5t34 10z"/>
<glyph glyph-name="Gdotaccent" horiz-adv-x="584" unicode="Ġ" d="M545 98q0 -48 -28.5 -73t-70.5 -25h-71q-87 0 -153 29.5t-109.5 78.5t-65.5 111t-22 128q0 72 22.5 137t68.5 114t114 77.5t160 28.5h56q24 0 42.5 -8.5t31 -22.5t19 -31.5t6.5 -36.5t-6.5 -37t-19 -31.5t-31 -22t-42.5 -8.5h-71q-41 0 -71 -13t-50.5 -34.5t-30.5 -49.5 t-10 -57q0 -30 8 -57.5t25.5 -49t44 -34.5t63.5 -15v116q0 45 28.5 70t66.5 25q39 0 67.5 -25t28.5 -70v-214zM277 825q0 32 21 53.5t52 21.5q32 0 53 -21.5t21 -53.5q0 -31 -21 -51.5t-53 -20.5q-31 0 -52 20.5t-21 51.5z"/>
<glyph glyph-name="gdotaccent" horiz-adv-x="584" unicode="ġ" d="M545 98q0 -48 -28.5 -73t-70.5 -25h-71q-87 0 -153 29.5t-109.5 78.5t-65.5 111t-22 128q0 72 22.5 137t68.5 114t114 77.5t160 28.5h56q24 0 42.5 -8.5t31 -22.5t19 -31.5t6.5 -36.5t-6.5 -37t-19 -31.5t-31 -22t-42.5 -8.5h-71q-41 0 -71 -13t-50.5 -34.5t-30.5 -49.5 t-10 -57q0 -30 8 -57.5t25.5 -49t44 -34.5t63.5 -15v116q0 45 28.5 70t66.5 25q39 0 67.5 -25t28.5 -70v-214zM277 825q0 32 21 53.5t52 21.5q32 0 53 -21.5t21 -53.5q0 -31 -21 -51.5t-53 -20.5q-31 0 -52 20.5t-21 51.5z"/>
<glyph glyph-name="Gcommaaccent" horiz-adv-x="584" unicode="Ģ" d="M545 98q0 -48 -28.5 -73t-70.5 -25h-71q-87 0 -153 29.5t-109.5 78.5t-65.5 111t-22 128q0 72 22.5 137t68.5 114t114 77.5t160 28.5h56q24 0 42.5 -8.5t31 -22.5t19 -31.5t6.5 -36.5t-6.5 -37t-19 -31.5t-31 -22t-42.5 -8.5h-71q-41 0 -71 -13t-50.5 -34.5t-30.5 -49.5 t-10 -57q0 -30 8 -57.5t25.5 -49t44 -34.5t63.5 -15v116q0 45 28.5 70t66.5 25q39 0 67.5 -25t28.5 -70v-214zM401 -148q-7 -23 -24 -34t-31 -11q-25 0 -43.5 15.5t-18.5 40.5q0 5 0.5 8.5t1.5 8.5l16 56q7 23 18 34t36 11q26 0 43.5 -16t17.5 -41v-8.5t-1 -8.5z"/>
<glyph glyph-name="gcommaaccent" horiz-adv-x="584" unicode="ģ" d="M545 98q0 -48 -28.5 -73t-70.5 -25h-71q-87 0 -153 29.5t-109.5 78.5t-65.5 111t-22 128q0 72 22.5 137t68.5 114t114 77.5t160 28.5h56q24 0 42.5 -8.5t31 -22.5t19 -31.5t6.5 -36.5t-6.5 -37t-19 -31.5t-31 -22t-42.5 -8.5h-71q-41 0 -71 -13t-50.5 -34.5t-30.5 -49.5 t-10 -57q0 -30 8 -57.5t25.5 -49t44 -34.5t63.5 -15v116q0 45 28.5 70t66.5 25q39 0 67.5 -25t28.5 -70v-214zM401 -148q-7 -23 -24 -34t-31 -11q-25 0 -43.5 15.5t-18.5 40.5q0 5 0.5 8.5t1.5 8.5l16 56q7 23 18 34t36 11q26 0 43.5 -16t17.5 -41v-8.5t-1 -8.5z"/>
<glyph glyph-name="Hcircumflex" horiz-adv-x="627" unicode="Ĥ" d="M586 93q0 -48 -29 -72.5t-69 -24.5q-39 0 -67.5 24.5t-28.5 72.5v167h-158v-167q0 -48 -29 -72.5t-69 -24.5q-39 0 -67.5 24.5t-28.5 72.5v518q0 46 28.5 71t67.5 25q40 0 69 -25t29 -71v-168h158v168q0 46 28.5 71t67.5 25q40 0 69 -25t29 -71v-518zM314 800l-94 -51 q-7 -4 -13 -5t-13 -1q-20 0 -35 15.5t-15 37.5q0 8 6.5 21.5t20.5 21.5l117 63q18 5 27 5q6 0 12.5 -1t11.5 -4l117 -63q14 -8 20.5 -21.5t6.5 -21.5q0 -22 -15 -37.5t-35 -15.5q-15 0 -25 6z"/>
<glyph glyph-name="hcircumflex" horiz-adv-x="627" unicode="ĥ" d="M586 93q0 -48 -29 -72.5t-69 -24.5q-39 0 -67.5 24.5t-28.5 72.5v167h-158v-167q0 -48 -29 -72.5t-69 -24.5q-39 0 -67.5 24.5t-28.5 72.5v518q0 46 28.5 71t67.5 25q40 0 69 -25t29 -71v-168h158v168q0 46 28.5 71t67.5 25q40 0 69 -25t29 -71v-518zM314 800l-94 -51 q-7 -4 -13 -5t-13 -1q-20 0 -35 15.5t-15 37.5q0 8 6.5 21.5t20.5 21.5l117 63q18 5 27 5q6 0 12.5 -1t11.5 -4l117 -63q14 -8 20.5 -21.5t6.5 -21.5q0 -22 -15 -37.5t-35 -15.5q-15 0 -25 6z"/>
<glyph glyph-name="Hbar" horiz-adv-x="627" unicode="Ħ" d="M392 388v64h-158v-64h158zM586 93q0 -48 -29 -72.5t-69 -24.5q-39 0 -67.5 24.5t-28.5 72.5v122h-158v-122q0 -48 -29 -72.5t-69 -24.5q-39 0 -67.5 24.5t-28.5 72.5v518q0 46 28.5 71t67.5 25q40 0 69 -25t29 -71v-25h158v25q0 46 28.5 71t67.5 25q40 0 69 -25t29 -71 v-518z"/>
<glyph glyph-name="hbar" horiz-adv-x="627" unicode="ħ" d="M392 388v64h-158v-64h158zM586 93q0 -48 -29 -72.5t-69 -24.5q-39 0 -67.5 24.5t-28.5 72.5v122h-158v-122q0 -48 -29 -72.5t-69 -24.5q-39 0 -67.5 24.5t-28.5 72.5v518q0 46 28.5 71t67.5 25q40 0 69 -25t29 -71v-25h158v25q0 46 28.5 71t67.5 25q40 0 69 -25t29 -71 v-518z"/>
<glyph glyph-name="Itilde" horiz-adv-x="274" unicode="Ĩ" d="M233 93q0 -48 -29 -72.5t-68 -24.5q-40 0 -68.5 24.5t-28.5 72.5v518q0 46 28.5 71t68.5 25q39 0 68 -25t29 -71v-518zM273 886q9 11 18 14.5t15 3.5q20 0 35.5 -14t15.5 -34q0 -23 -12 -41.5t-30.5 -32t-41.5 -20.5t-45 -7q-23 0 -46 7.5t-44.5 16t-41.5 16t-38 7.5 q-15 0 -25 -7t-30 -28q-8 -9 -17 -13t-16 -4q-18 0 -34 14t-16 34q0 22 12 41t30.5 32.5t41.5 21t45 7.5q21 0 43 -7.5t43.5 -16t42 -16t39.5 -7.5q17 0 27.5 6.5t28.5 26.5z"/>
<glyph glyph-name="itilde" horiz-adv-x="274" unicode="ĩ" d="M233 93q0 -48 -29 -72.5t-68 -24.5q-40 0 -68.5 24.5t-28.5 72.5v518q0 46 28.5 71t68.5 25q39 0 68 -25t29 -71v-518zM273 886q9 11 18 14.5t15 3.5q20 0 35.5 -14t15.5 -34q0 -23 -12 -41.5t-30.5 -32t-41.5 -20.5t-45 -7q-23 0 -46 7.5t-44.5 16t-41.5 16t-38 7.5 q-15 0 -25 -7t-30 -28q-8 -9 -17 -13t-16 -4q-18 0 -34 14t-16 34q0 22 12 41t30.5 32.5t41.5 21t45 7.5q21 0 43 -7.5t43.5 -16t42 -16t39.5 -7.5q17 0 27.5 6.5t28.5 26.5z"/>
<glyph glyph-name="uni012A" horiz-adv-x="274" unicode="Ī" d="M233 93q0 -48 -29 -72.5t-68 -24.5q-40 0 -68.5 24.5t-28.5 72.5v518q0 46 28.5 71t68.5 25q39 0 68 -25t29 -71v-518zM2 759q-31 0 -48.5 19.5t-17.5 45.5q0 27 17.5 48t48.5 21h273q31 0 48.5 -21t17.5 -48q0 -26 -17.5 -45.5t-48.5 -19.5h-273z"/>
<glyph glyph-name="imacron" horiz-adv-x="274" unicode="ī" d="M233 93q0 -48 -29 -72.5t-68 -24.5q-40 0 -68.5 24.5t-28.5 72.5v518q0 46 28.5 71t68.5 25q39 0 68 -25t29 -71v-518zM2 759q-31 0 -48.5 19.5t-17.5 45.5q0 27 17.5 48t48.5 21h273q31 0 48.5 -21t17.5 -48q0 -26 -17.5 -45.5t-48.5 -19.5h-273z"/>
<glyph glyph-name="Ibreve" horiz-adv-x="274" unicode="Ĭ" d="M233 93q0 -48 -29 -72.5t-68 -24.5q-40 0 -68.5 24.5t-28.5 72.5v518q0 46 28.5 71t68.5 25q39 0 68 -25t29 -71v-518zM258 907q20 0 35 -15.5t15 -36.5q0 -27 -17 -47.5t-42.5 -35t-55 -22t-54.5 -7.5q-26 0 -55.5 7.5t-55 22t-42.5 35t-17 47.5q0 21 15 36.5t35 15.5 q23 0 34 -10t20.5 -22.5t23 -22.5t42.5 -10q28 0 41.5 10t23 22.5t20.5 22.5t34 10z"/>
<glyph glyph-name="uni012D" horiz-adv-x="274" unicode="ĭ" d="M233 93q0 -48 -29 -72.5t-68 -24.5q-40 0 -68.5 24.5t-28.5 72.5v518q0 46 28.5 71t68.5 25q39 0 68 -25t29 -71v-518zM258 907q20 0 35 -15.5t15 -36.5q0 -27 -17 -47.5t-42.5 -35t-55 -22t-54.5 -7.5q-26 0 -55.5 7.5t-55 22t-42.5 35t-17 47.5q0 21 15 36.5t35 15.5 q23 0 34 -10t20.5 -22.5t23 -22.5t42.5 -10q28 0 41.5 10t23 22.5t20.5 22.5t34 10z"/>
<glyph glyph-name="Iogonek" horiz-adv-x="274" unicode="Į" d="M233 93q0 -32 -14 -54t-37 -33q-10 -5 -20 -6.5t-18.5 -4t-13.5 -9t-5 -21.5q0 -19 13.5 -25t58.5 -6t66.5 -25t21.5 -60q0 -33 -21.5 -58t-61.5 -25q-51 0 -86 11t-56 30t-30 44.5t-9 54.5q0 32 10.5 65t29.5 56q-22 25 -22 66v518q0 46 28.5 71t68.5 25q39 0 68 -25 t29 -71v-518z"/>
<glyph glyph-name="iogonek" horiz-adv-x="274" unicode="į" d="M233 93q0 -32 -14 -54t-37 -33q-10 -5 -20 -6.5t-18.5 -4t-13.5 -9t-5 -21.5q0 -19 13.5 -25t58.5 -6t66.5 -25t21.5 -60q0 -33 -21.5 -58t-61.5 -25q-51 0 -86 11t-56 30t-30 44.5t-9 54.5q0 32 10.5 65t29.5 56q-22 25 -22 66v518q0 46 28.5 71t68.5 25q39 0 68 -25 t29 -71v-518z"/>
<glyph glyph-name="Idotaccent" horiz-adv-x="274" unicode="İ" d="M233 93q0 -48 -29 -72.5t-68 -24.5q-40 0 -68.5 24.5t-28.5 72.5v518q0 46 28.5 71t68.5 25q39 0 68 -25t29 -71v-518zM63 825q0 32 21 53.5t52 21.5q32 0 53 -21.5t21 -53.5q0 -31 -21 -51.5t-53 -20.5q-31 0 -52 20.5t-21 51.5z"/>
<glyph glyph-name="dotlessi" horiz-adv-x="274" unicode="ı" d="M233 93q0 -48 -29 -72.5t-68 -24.5q-40 0 -68.5 24.5t-28.5 72.5v518q0 46 28.5 71t68.5 25q39 0 68 -25t29 -71v-518z"/>
<glyph glyph-name="IJ" horiz-adv-x="781" unicode="Ĳ" d="M233 93q0 -48 -29 -72.5t-68 -24.5q-40 0 -68.5 24.5t-28.5 72.5v518q0 46 28.5 71t68.5 25q39 0 68 -25t29 -71v-518zM746 351q0 -80 -20 -145t-60 -111t-100 -70.5t-140 -24.5h-46q-46 0 -72 29t-26 69t26 68.5t72 28.5h29q35 0 62 7t45.5 23.5t28 44.5t9.5 69v272 q0 46 28.5 71t67.5 25t67.5 -25t28.5 -71v-260z"/>
<glyph glyph-name="ij" horiz-adv-x="781" unicode="ĳ" d="M233 93q0 -48 -29 -72.5t-68 -24.5q-40 0 -68.5 24.5t-28.5 72.5v518q0 46 28.5 71t68.5 25q39 0 68 -25t29 -71v-518zM746 351q0 -80 -20 -145t-60 -111t-100 -70.5t-140 -24.5h-46q-46 0 -72 29t-26 69t26 68.5t72 28.5h29q35 0 62 7t45.5 23.5t28 44.5t9.5 69v272 q0 46 28.5 71t67.5 25t67.5 -25t28.5 -71v-260z"/>
<glyph glyph-name="Jcircumflex" horiz-adv-x="507" unicode="Ĵ" d="M472 351q0 -80 -20 -145t-60 -111t-100 -70.5t-140 -24.5h-46q-46 0 -72 29t-26 69t26 68.5t72 28.5h29q35 0 62 7t45.5 23.5t28 44.5t9.5 69v272q0 46 28.5 71t67.5 25t67.5 -25t28.5 -71v-260zM381 800l-94 -51q-7 -4 -13 -5t-13 -1q-20 0 -35 15.5t-15 37.5 q0 8 6.5 21.5t20.5 21.5l117 63q18 5 27 5q6 0 12.5 -1t11.5 -4l117 -63q14 -8 20.5 -21.5t6.5 -21.5q0 -22 -15 -37.5t-35 -15.5q-15 0 -25 6z"/>
<glyph glyph-name="jcircumflex" horiz-adv-x="507" unicode="ĵ" d="M472 351q0 -80 -20 -145t-60 -111t-100 -70.5t-140 -24.5h-46q-46 0 -72 29t-26 69t26 68.5t72 28.5h29q35 0 62 7t45.5 23.5t28 44.5t9.5 69v272q0 46 28.5 71t67.5 25t67.5 -25t28.5 -71v-260zM381 800l-94 -51q-7 -4 -13 -5t-13 -1q-20 0 -35 15.5t-15 37.5 q0 8 6.5 21.5t20.5 21.5l117 63q18 5 27 5q6 0 12.5 -1t11.5 -4l117 -63q14 -8 20.5 -21.5t6.5 -21.5q0 -22 -15 -37.5t-35 -15.5q-15 0 -25 6z"/>
<glyph glyph-name="Kcommaaccent" horiz-adv-x="595" unicode="Ķ" d="M234 93q0 -48 -29 -72.5t-68 -24.5q-40 0 -68.5 24.5t-28.5 72.5v518q0 46 28.5 71t68.5 25q39 0 68 -25t29 -71v-166l159 225q7 10 14 17.5t15 11.5t19 6t27 2q48 0 74.5 -27.5t26.5 -69.5q0 -17 -5 -33t-17 -28l-163 -184l164 -210q23 -29 23 -61q0 -45 -28 -71.5 t-73 -26.5q-22 0 -41.5 9t-33.5 29l-161 225v-166zM348 -148q-7 -23 -24 -34t-31 -11q-25 0 -43.5 15.5t-18.5 40.5q0 5 0.5 8.5t1.5 8.5l16 56q7 23 18 34t36 11q26 0 43.5 -16t17.5 -41v-8.5t-1 -8.5z"/>
<glyph glyph-name="kcommaaccent" horiz-adv-x="595" unicode="ķ" d="M234 93q0 -48 -29 -72.5t-68 -24.5q-40 0 -68.5 24.5t-28.5 72.5v518q0 46 28.5 71t68.5 25q39 0 68 -25t29 -71v-166l159 225q7 10 14 17.5t15 11.5t19 6t27 2q48 0 74.5 -27.5t26.5 -69.5q0 -17 -5 -33t-17 -28l-163 -184l164 -210q23 -29 23 -61q0 -45 -28 -71.5 t-73 -26.5q-22 0 -41.5 9t-33.5 29l-161 225v-166zM348 -148q-7 -23 -24 -34t-31 -11q-25 0 -43.5 15.5t-18.5 40.5q0 5 0.5 8.5t1.5 8.5l16 56q7 23 18 34t36 11q26 0 43.5 -16t17.5 -41v-8.5t-1 -8.5z"/>
<glyph glyph-name="Lacute" horiz-adv-x="440" unicode="Ĺ" d="M136 0q-96 0 -96 98v513q0 46 28.5 71t67.5 25t68 -25t29 -71v-416h103q45 0 68.5 -28.5t23.5 -68.5t-23.5 -69t-68.5 -29h-200zM75 756q-5 -1 -9.5 -1.5t-6.5 -0.5q-24 0 -38 17.5t-14 37.5q0 16 9.5 31.5t32.5 20.5l218 58q5 1 9 1.5t7 0.5q24 0 38.5 -17t14.5 -39 q0 -15 -9 -30.5t-32 -21.5z"/>
<glyph glyph-name="lacute" horiz-adv-x="440" unicode="ĺ" d="M136 0q-96 0 -96 98v513q0 46 28.5 71t67.5 25t68 -25t29 -71v-416h103q45 0 68.5 -28.5t23.5 -68.5t-23.5 -69t-68.5 -29h-200zM75 756q-5 -1 -9.5 -1.5t-6.5 -0.5q-24 0 -38 17.5t-14 37.5q0 16 9.5 31.5t32.5 20.5l218 58q5 1 9 1.5t7 0.5q24 0 38.5 -17t14.5 -39 q0 -15 -9 -30.5t-32 -21.5z"/>
<glyph glyph-name="Lcommaaccent" horiz-adv-x="440" unicode="Ļ" d="M136 0q-96 0 -96 98v513q0 46 28.5 71t67.5 25t68 -25t29 -71v-416h103q45 0 68.5 -28.5t23.5 -68.5t-23.5 -69t-68.5 -29h-200zM270 -148q-7 -23 -24 -34t-31 -11q-25 0 -43.5 15.5t-18.5 40.5q0 5 0.5 8.5t1.5 8.5l16 56q7 23 18 34t36 11q26 0 43.5 -16t17.5 -41v-8.5 t-1 -8.5z"/>
<glyph glyph-name="lcommaaccent" horiz-adv-x="440" unicode="ļ" d="M136 0q-96 0 -96 98v513q0 46 28.5 71t67.5 25t68 -25t29 -71v-416h103q45 0 68.5 -28.5t23.5 -68.5t-23.5 -69t-68.5 -29h-200zM270 -148q-7 -23 -24 -34t-31 -11q-25 0 -43.5 15.5t-18.5 40.5q0 5 0.5 8.5t1.5 8.5l16 56q7 23 18 34t36 11q26 0 43.5 -16t17.5 -41v-8.5 t-1 -8.5z"/>
<glyph glyph-name="Lcaron" horiz-adv-x="440" unicode="Ľ" d="M136 0q-96 0 -96 98v513q0 46 28.5 71t67.5 25t68 -25t29 -71v-416h103q45 0 68.5 -28.5t23.5 -68.5t-23.5 -69t-68.5 -29h-200zM377 580q-7 -23 -24 -34t-31 -11q-25 0 -43.5 15.5t-18.5 40.5q0 5 0.5 8.5t1.5 8.5l16 56q7 23 18 34t36 11q26 0 43.5 -16t17.5 -41v-8.5 t-1 -8.5z"/>
<glyph glyph-name="lcaron" horiz-adv-x="440" unicode="ľ" d="M136 0q-96 0 -96 98v513q0 46 28.5 71t67.5 25t68 -25t29 -71v-416h103q45 0 68.5 -28.5t23.5 -68.5t-23.5 -69t-68.5 -29h-200zM377 580q-7 -23 -24 -34t-31 -11q-25 0 -43.5 15.5t-18.5 40.5q0 5 0.5 8.5t1.5 8.5l16 56q7 23 18 34t36 11q26 0 43.5 -16t17.5 -41v-8.5 t-1 -8.5z"/>
<glyph glyph-name="Ldot" horiz-adv-x="440" unicode="Ŀ" d="M136 0q-96 0 -96 98v513q0 46 28.5 71t67.5 25t68 -25t29 -71v-416h103q45 0 68.5 -28.5t23.5 -68.5t-23.5 -69t-68.5 -29h-200zM399.131 377.571q0 -29.6709 -19.373 -48.6455q-19.373 -18.9756 -47.0488 -18.9756t-47.7412 18.9756q-20.0654 18.9746 -20.0654 48.6455 q0 13.1094 5.53516 25.5293q5.53516 12.4209 14.876 21.7354q9.34082 9.31543 21.4492 14.835q12.1084 5.52051 25.9463 5.52051t25.9453 -5.52051q12.1084 -5.51953 21.1035 -14.835q8.99414 -9.31445 14.1836 -21.7354q5.18945 -12.4199 5.18945 -25.5293z"/>
<glyph glyph-name="ldot" horiz-adv-x="440" unicode="ŀ" d="M136 0q-96 0 -96 98v513q0 46 28.5 71t67.5 25t68 -25t29 -71v-416h103q45 0 68.5 -28.5t23.5 -68.5t-23.5 -69t-68.5 -29h-200zM399.131 377.571q0 -29.6709 -19.373 -48.6455q-19.373 -18.9756 -47.0488 -18.9756t-47.7412 18.9756q-20.0654 18.9746 -20.0654 48.6455 q0 13.1094 5.53516 25.5293q5.53516 12.4209 14.876 21.7354q9.34082 9.31543 21.4492 14.835q12.1084 5.52051 25.9463 5.52051t25.9453 -5.52051q12.1084 -5.51953 21.1035 -14.835q8.99414 -9.31445 14.1836 -21.7354q5.18945 -12.4199 5.18945 -25.5293z"/>
<glyph glyph-name="Lslash" horiz-adv-x="440" unicode="Ł" d="M305 429q22 0 36 -18t14 -41q0 -32 -32 -46l-90 -40v-89h103q45 0 68.5 -28.5t23.5 -68.5t-23.5 -69t-68.5 -29h-200q-96 0 -96 98v513q0 46 28.5 71t67.5 25t68 -25t29 -71v-209l45 20q13 7 27 7z"/>
<glyph glyph-name="lslash" horiz-adv-x="440" unicode="ł" d="M305 429q22 0 36 -18t14 -41q0 -32 -32 -46l-90 -40v-89h103q45 0 68.5 -28.5t23.5 -68.5t-23.5 -69t-68.5 -29h-200q-96 0 -96 98v513q0 46 28.5 71t67.5 25t68 -25t29 -71v-209l45 20q13 7 27 7z"/>
<glyph glyph-name="Nacute" horiz-adv-x="627" unicode="Ń" d="M400 615q0 45 27.5 68.5t66.5 23.5q37 0 64.5 -23.5t27.5 -68.5v-522q0 -23 -8 -41t-20.5 -30.5t-29 -19t-34.5 -6.5q-24 0 -47 12t-40 38l-182 271v-229q0 -45 -27.5 -68.5t-66.5 -23.5q-37 0 -64 23.5t-27 68.5v523q0 22 7.5 40t20.5 30.5t29 19t34 6.5q25 0 48 -11.5 t40 -37.5l181 -271v228zM246 756q-5 -1 -9.5 -1.5t-6.5 -0.5q-24 0 -38 17.5t-14 37.5q0 16 9.5 31.5t32.5 20.5l218 58q5 1 9 1.5t7 0.5q24 0 38.5 -17t14.5 -39q0 -15 -9 -30.5t-32 -21.5z"/>
<glyph glyph-name="nacute" horiz-adv-x="627" unicode="ń" d="M400 615q0 45 27.5 68.5t66.5 23.5q37 0 64.5 -23.5t27.5 -68.5v-522q0 -23 -8 -41t-20.5 -30.5t-29 -19t-34.5 -6.5q-24 0 -47 12t-40 38l-182 271v-229q0 -45 -27.5 -68.5t-66.5 -23.5q-37 0 -64 23.5t-27 68.5v523q0 22 7.5 40t20.5 30.5t29 19t34 6.5q25 0 48 -11.5 t40 -37.5l181 -271v228zM246 756q-5 -1 -9.5 -1.5t-6.5 -0.5q-24 0 -38 17.5t-14 37.5q0 16 9.5 31.5t32.5 20.5l218 58q5 1 9 1.5t7 0.5q24 0 38.5 -17t14.5 -39q0 -15 -9 -30.5t-32 -21.5z"/>
<glyph glyph-name="Ncommaaccent" horiz-adv-x="627" unicode="Ņ" d="M400 615q0 45 27.5 68.5t66.5 23.5q37 0 64.5 -23.5t27.5 -68.5v-522q0 -23 -8 -41t-20.5 -30.5t-29 -19t-34.5 -6.5q-24 0 -47 12t-40 38l-182 271v-229q0 -45 -27.5 -68.5t-66.5 -23.5q-37 0 -64 23.5t-27 68.5v523q0 22 7.5 40t20.5 30.5t29 19t34 6.5q25 0 48 -11.5 t40 -37.5l181 -271v228zM364 -148q-7 -23 -24 -34t-31 -11q-25 0 -43.5 15.5t-18.5 40.5q0 5 0.5 8.5t1.5 8.5l16 56q7 23 18 34t36 11q26 0 43.5 -16t17.5 -41v-8.5t-1 -8.5z"/>
<glyph glyph-name="ncommaaccent" horiz-adv-x="627" unicode="ņ" d="M400 615q0 45 27.5 68.5t66.5 23.5q37 0 64.5 -23.5t27.5 -68.5v-522q0 -23 -8 -41t-20.5 -30.5t-29 -19t-34.5 -6.5q-24 0 -47 12t-40 38l-182 271v-229q0 -45 -27.5 -68.5t-66.5 -23.5q-37 0 -64 23.5t-27 68.5v523q0 22 7.5 40t20.5 30.5t29 19t34 6.5q25 0 48 -11.5 t40 -37.5l181 -271v228zM364 -148q-7 -23 -24 -34t-31 -11q-25 0 -43.5 15.5t-18.5 40.5q0 5 0.5 8.5t1.5 8.5l16 56q7 23 18 34t36 11q26 0 43.5 -16t17.5 -41v-8.5t-1 -8.5z"/>
<glyph glyph-name="Ncaron" horiz-adv-x="627" unicode="Ň" d="M400 615q0 45 27.5 68.5t66.5 23.5q37 0 64.5 -23.5t27.5 -68.5v-522q0 -23 -8 -41t-20.5 -30.5t-29 -19t-34.5 -6.5q-24 0 -47 12t-40 38l-182 271v-229q0 -45 -27.5 -68.5t-66.5 -23.5q-37 0 -64 23.5t-27 68.5v523q0 22 7.5 40t20.5 30.5t29 19t34 6.5q25 0 48 -11.5 t40 -37.5l181 -271v228zM314 851l94 51q6 4 12 4.5t13 0.5q20 0 35 -15.5t15 -36.5q0 -31 -27 -44l-117 -62q-11 -6 -27 -6q-14 0 -24 6l-117 62q-15 8 -21 19t-6 25q0 21 15 36.5t35 15.5q7 0 13 -0.5t13 -4.5z"/>
<glyph glyph-name="ncaron" horiz-adv-x="627" unicode="ň" d="M400 615q0 45 27.5 68.5t66.5 23.5q37 0 64.5 -23.5t27.5 -68.5v-522q0 -23 -8 -41t-20.5 -30.5t-29 -19t-34.5 -6.5q-24 0 -47 12t-40 38l-182 271v-229q0 -45 -27.5 -68.5t-66.5 -23.5q-37 0 -64 23.5t-27 68.5v523q0 22 7.5 40t20.5 30.5t29 19t34 6.5q25 0 48 -11.5 t40 -37.5l181 -271v228zM314 851l94 51q6 4 12 4.5t13 0.5q20 0 35 -15.5t15 -36.5q0 -31 -27 -44l-117 -62q-11 -6 -27 -6q-14 0 -24 6l-117 62q-15 8 -21 19t-6 25q0 21 15 36.5t35 15.5q7 0 13 -0.5t13 -4.5z"/>
<glyph glyph-name="Eng" horiz-adv-x="627" unicode="Ŋ" d="M586 140q0 -63 -12 -114.5t-38.5 -88t-69 -56t-103.5 -19.5h-44q-38 0 -58.5 22.5t-20.5 54.5t20.5 55t58.5 23q12 0 25 1t23.5 4.5t17.5 12t7 23.5q0 13 -12 33l-155 235v-238q0 -45 -27.5 -68.5t-66.5 -23.5q-37 0 -64 23.5t-27 68.5v523q0 22 7.5 40t20.5 30.5t29 19 t34 6.5q25 0 48 -11.5t40 -37.5l181 -271v228q0 45 27.5 68.5t66.5 23.5q37 0 64.5 -23.5t27.5 -68.5v-475z"/>
<glyph glyph-name="eng" horiz-adv-x="627" unicode="ŋ" d="M586 140q0 -63 -12 -114.5t-38.5 -88t-69 -56t-103.5 -19.5h-44q-38 0 -58.5 22.5t-20.5 54.5t20.5 55t58.5 23q12 0 25 1t23.5 4.5t17.5 12t7 23.5q0 13 -12 33l-155 235v-238q0 -45 -27.5 -68.5t-66.5 -23.5q-37 0 -64 23.5t-27 68.5v523q0 22 7.5 40t20.5 30.5t29 19 t34 6.5q25 0 48 -11.5t40 -37.5l181 -271v228q0 45 27.5 68.5t66.5 23.5q37 0 64.5 -23.5t27.5 -68.5v-475z"/>
<glyph glyph-name="Omacron" horiz-adv-x="775" unicode="Ō" d="M225 349q0 -34 13 -63.5t35 -51.5t51.5 -34.5t63.5 -12.5t63.5 12.5t52 34.5t35.5 51.5t13 63.5t-13 64t-35.5 52t-52 35t-63.5 13t-63.5 -13t-51.5 -35t-35 -52t-13 -64zM28 352q0 75 28 140t77 114t114 77t140 28t140.5 -28t114 -77t77 -114t28.5 -140t-28.5 -140 t-77 -114t-114 -77t-140.5 -28t-140 28t-114 77t-77 114t-28 140zM251 759q-31 0 -48.5 19.5t-17.5 45.5q0 27 17.5 48t48.5 21h273q31 0 48.5 -21t17.5 -48q0 -26 -17.5 -45.5t-48.5 -19.5h-273z"/>
<glyph glyph-name="omacron" horiz-adv-x="775" unicode="ō" d="M225 349q0 -34 13 -63.5t35 -51.5t51.5 -34.5t63.5 -12.5t63.5 12.5t52 34.5t35.5 51.5t13 63.5t-13 64t-35.5 52t-52 35t-63.5 13t-63.5 -13t-51.5 -35t-35 -52t-13 -64zM28 352q0 75 28 140t77 114t114 77t140 28t140.5 -28t114 -77t77 -114t28.5 -140t-28.5 -140 t-77 -114t-114 -77t-140.5 -28t-140 28t-114 77t-77 114t-28 140zM251 759q-31 0 -48.5 19.5t-17.5 45.5q0 27 17.5 48t48.5 21h273q31 0 48.5 -21t17.5 -48q0 -26 -17.5 -45.5t-48.5 -19.5h-273z"/>
<glyph glyph-name="Obreve" horiz-adv-x="775" unicode="Ŏ" d="M225 349q0 -34 13 -63.5t35 -51.5t51.5 -34.5t63.5 -12.5t63.5 12.5t52 34.5t35.5 51.5t13 63.5t-13 64t-35.5 52t-52 35t-63.5 13t-63.5 -13t-51.5 -35t-35 -52t-13 -64zM28 352q0 75 28 140t77 114t114 77t140 28t140.5 -28t114 -77t77 -114t28.5 -140t-28.5 -140 t-77 -114t-114 -77t-140.5 -28t-140 28t-114 77t-77 114t-28 140zM507 907q20 0 35 -15.5t15 -36.5q0 -27 -17 -47.5t-42.5 -35t-55 -22t-54.5 -7.5q-26 0 -55.5 7.5t-55 22t-42.5 35t-17 47.5q0 21 15 36.5t35 15.5q23 0 34 -10t20.5 -22.5t23 -22.5t42.5 -10q28 0 41.5 10 t23 22.5t20.5 22.5t34 10z"/>
<glyph glyph-name="obreve" horiz-adv-x="775" unicode="ŏ" d="M225 349q0 -34 13 -63.5t35 -51.5t51.5 -34.5t63.5 -12.5t63.5 12.5t52 34.5t35.5 51.5t13 63.5t-13 64t-35.5 52t-52 35t-63.5 13t-63.5 -13t-51.5 -35t-35 -52t-13 -64zM28 352q0 75 28 140t77 114t114 77t140 28t140.5 -28t114 -77t77 -114t28.5 -140t-28.5 -140 t-77 -114t-114 -77t-140.5 -28t-140 28t-114 77t-77 114t-28 140zM507 907q20 0 35 -15.5t15 -36.5q0 -27 -17 -47.5t-42.5 -35t-55 -22t-54.5 -7.5q-26 0 -55.5 7.5t-55 22t-42.5 35t-17 47.5q0 21 15 36.5t35 15.5q23 0 34 -10t20.5 -22.5t23 -22.5t42.5 -10q28 0 41.5 10 t23 22.5t20.5 22.5t34 10z"/>
<glyph glyph-name="Ohungarumlaut" horiz-adv-x="775" unicode="Ő" d="M225 349q0 -34 13 -63.5t35 -51.5t51.5 -34.5t63.5 -12.5t63.5 12.5t52 34.5t35.5 51.5t13 63.5t-13 64t-35.5 52t-52 35t-63.5 13t-63.5 -13t-51.5 -35t-35 -52t-13 -64zM28 352q0 75 28 140t77 114t114 77t140 28t140.5 -28t114 -77t77 -114t28.5 -140t-28.5 -140 t-77 -114t-114 -77t-140.5 -28t-140 28t-114 77t-77 114t-28 140zM301 759q-16 -16 -35 -16q-20 0 -35 15.5t-15 35.5q0 16 14 33l103 106q13 15 32 15q20 0 35.5 -15t15.5 -35q-1 -8 -3.5 -16.5t-10.5 -16.5zM501 759q-16 -16 -35 -16q-20 0 -35 15.5t-15 35.5q0 16 14 33 l103 106q13 15 32 15q20 0 35.5 -15t15.5 -35q-1 -8 -3.5 -16.5t-10.5 -16.5z"/>
<glyph glyph-name="ohungarumlaut" horiz-adv-x="775" unicode="ő" d="M225 349q0 -34 13 -63.5t35 -51.5t51.5 -34.5t63.5 -12.5t63.5 12.5t52 34.5t35.5 51.5t13 63.5t-13 64t-35.5 52t-52 35t-63.5 13t-63.5 -13t-51.5 -35t-35 -52t-13 -64zM28 352q0 75 28 140t77 114t114 77t140 28t140.5 -28t114 -77t77 -114t28.5 -140t-28.5 -140 t-77 -114t-114 -77t-140.5 -28t-140 28t-114 77t-77 114t-28 140zM301 759q-16 -16 -35 -16q-20 0 -35 15.5t-15 35.5q0 16 14 33l103 106q13 15 32 15q20 0 35.5 -15t15.5 -35q-1 -8 -3.5 -16.5t-10.5 -16.5zM501 759q-16 -16 -35 -16q-20 0 -35 15.5t-15 35.5q0 16 14 33 l103 106q13 15 32 15q20 0 35.5 -15t15.5 -35q-1 -8 -3.5 -16.5t-10.5 -16.5z"/>
<glyph glyph-name="OE" horiz-adv-x="1063" unicode="Œ" d="M225 349q0 -34 13 -63.5t35 -51.5t51.5 -34.5t63.5 -12.5t63.5 12.5t52 34.5t35.5 51.5t13 63.5t-13 64t-35.5 52t-52 35t-63.5 13t-63.5 -13t-51.5 -35t-35 -52t-13 -64zM645 0q-62 0 -84 37q-38 -20 -82 -32t-92 -12q-75 0 -140 28t-114 77t-77 114t-28 140t28 140 t77 114t114 77t140 28q48 0 92.5 -12t83.5 -34q22 39 82 39h282q46 0 71.5 -29t25.5 -69t-25.5 -69t-71.5 -29h-186v-67h147q42 0 65.5 -26.5t23.5 -62.5t-23.5 -62.5t-65.5 -26.5h-147v-68h186q46 0 71.5 -28.5t25.5 -68.5t-25.5 -69t-71.5 -29h-282z"/>
<glyph glyph-name="oe" horiz-adv-x="1063" unicode="œ" d="M225 349q0 -34 13 -63.5t35 -51.5t51.5 -34.5t63.5 -12.5t63.5 12.5t52 34.5t35.5 51.5t13 63.5t-13 64t-35.5 52t-52 35t-63.5 13t-63.5 -13t-51.5 -35t-35 -52t-13 -64zM645 0q-62 0 -84 37q-38 -20 -82 -32t-92 -12q-75 0 -140 28t-114 77t-77 114t-28 140t28 140 t77 114t114 77t140 28q48 0 92.5 -12t83.5 -34q22 39 82 39h282q46 0 71.5 -29t25.5 -69t-25.5 -69t-71.5 -29h-186v-67h147q42 0 65.5 -26.5t23.5 -62.5t-23.5 -62.5t-65.5 -26.5h-147v-68h186q46 0 71.5 -28.5t25.5 -68.5t-25.5 -69t-71.5 -29h-282z"/>
<glyph glyph-name="Racute" horiz-adv-x="610" unicode="Ŕ" d="M272 266q-5 8 -10 22q-4 12 -4 25v6q0 45 17.5 68.5t57.5 23.5h14q25 0 40 14t15 44q0 27 -15 38t-46 11h-105v-418q0 -100 -97 -100q-98 0 -98 98v508q0 98 94 98h210q62 0 107 -18.5t74 -48.5t43 -68.5t14 -78.5q0 -72 -34.5 -122t-83.5 -70l93 -146q19 -34 19 -60 q0 -21 -9 -39t-24 -30.5t-34 -19.5t-38 -7q-23 0 -45.5 12t-36.5 38zM237 756q-5 -1 -9.5 -1.5t-6.5 -0.5q-24 0 -38 17.5t-14 37.5q0 16 9.5 31.5t32.5 20.5l218 58q5 1 9 1.5t7 0.5q24 0 38.5 -17t14.5 -39q0 -15 -9 -30.5t-32 -21.5z"/>
<glyph glyph-name="racute" horiz-adv-x="610" unicode="ŕ" d="M272 266q-5 8 -10 22q-4 12 -4 25v6q0 45 17.5 68.5t57.5 23.5h14q25 0 40 14t15 44q0 27 -15 38t-46 11h-105v-418q0 -100 -97 -100q-98 0 -98 98v508q0 98 94 98h210q62 0 107 -18.5t74 -48.5t43 -68.5t14 -78.5q0 -72 -34.5 -122t-83.5 -70l93 -146q19 -34 19 -60 q0 -21 -9 -39t-24 -30.5t-34 -19.5t-38 -7q-23 0 -45.5 12t-36.5 38zM237 756q-5 -1 -9.5 -1.5t-6.5 -0.5q-24 0 -38 17.5t-14 37.5q0 16 9.5 31.5t32.5 20.5l218 58q5 1 9 1.5t7 0.5q24 0 38.5 -17t14.5 -39q0 -15 -9 -30.5t-32 -21.5z"/>
<glyph glyph-name="Rcommaaccent" horiz-adv-x="610" unicode="Ŗ" d="M272 266q-5 8 -10 22q-4 12 -4 25v6q0 45 17.5 68.5t57.5 23.5h14q25 0 40 14t15 44q0 27 -15 38t-46 11h-105v-418q0 -100 -97 -100q-98 0 -98 98v508q0 98 94 98h210q62 0 107 -18.5t74 -48.5t43 -68.5t14 -78.5q0 -72 -34.5 -122t-83.5 -70l93 -146q19 -34 19 -60 q0 -21 -9 -39t-24 -30.5t-34 -19.5t-38 -7q-23 0 -45.5 12t-36.5 38zM355 -148q-7 -23 -24 -34t-31 -11q-25 0 -43.5 15.5t-18.5 40.5q0 5 0.5 8.5t1.5 8.5l16 56q7 23 18 34t36 11q26 0 43.5 -16t17.5 -41v-8.5t-1 -8.5z"/>
<glyph glyph-name="rcommaaccent" horiz-adv-x="610" unicode="ŗ" d="M272 266q-5 8 -10 22q-4 12 -4 25v6q0 45 17.5 68.5t57.5 23.5h14q25 0 40 14t15 44q0 27 -15 38t-46 11h-105v-418q0 -100 -97 -100q-98 0 -98 98v508q0 98 94 98h210q62 0 107 -18.5t74 -48.5t43 -68.5t14 -78.5q0 -72 -34.5 -122t-83.5 -70l93 -146q19 -34 19 -60 q0 -21 -9 -39t-24 -30.5t-34 -19.5t-38 -7q-23 0 -45.5 12t-36.5 38zM355 -148q-7 -23 -24 -34t-31 -11q-25 0 -43.5 15.5t-18.5 40.5q0 5 0.5 8.5t1.5 8.5l16 56q7 23 18 34t36 11q26 0 43.5 -16t17.5 -41v-8.5t-1 -8.5z"/>
<glyph glyph-name="Rcaron" horiz-adv-x="610" unicode="Ř" d="M272 266q-5 8 -10 22q-4 12 -4 25v6q0 45 17.5 68.5t57.5 23.5h14q25 0 40 14t15 44q0 27 -15 38t-46 11h-105v-418q0 -100 -97 -100q-98 0 -98 98v508q0 98 94 98h210q62 0 107 -18.5t74 -48.5t43 -68.5t14 -78.5q0 -72 -34.5 -122t-83.5 -70l93 -146q19 -34 19 -60 q0 -21 -9 -39t-24 -30.5t-34 -19.5t-38 -7q-23 0 -45.5 12t-36.5 38zM285 851l94 51q6 4 12 4.5t13 0.5q20 0 35 -15.5t15 -36.5q0 -31 -27 -44l-117 -62q-11 -6 -27 -6q-14 0 -24 6l-117 62q-15 8 -21 19t-6 25q0 21 15 36.5t35 15.5q7 0 13 -0.5t13 -4.5z"/>
<glyph glyph-name="rcaron" horiz-adv-x="610" unicode="ř" d="M272 266q-5 8 -10 22q-4 12 -4 25v6q0 45 17.5 68.5t57.5 23.5h14q25 0 40 14t15 44q0 27 -15 38t-46 11h-105v-418q0 -100 -97 -100q-98 0 -98 98v508q0 98 94 98h210q62 0 107 -18.5t74 -48.5t43 -68.5t14 -78.5q0 -72 -34.5 -122t-83.5 -70l93 -146q19 -34 19 -60 q0 -21 -9 -39t-24 -30.5t-34 -19.5t-38 -7q-23 0 -45.5 12t-36.5 38zM285 851l94 51q6 4 12 4.5t13 0.5q20 0 35 -15.5t15 -36.5q0 -31 -27 -44l-117 -62q-11 -6 -27 -6q-14 0 -24 6l-117 62q-15 8 -21 19t-6 25q0 21 15 36.5t35 15.5q7 0 13 -0.5t13 -4.5z"/>
<glyph glyph-name="Sacute" horiz-adv-x="581" unicode="Ś" d="M549 224q0 -224 -219 -224h-193q-24 0 -42 8.5t-30 22t-18 31t-6 36.5q0 18 6 35.5t18.5 31t31 22t42.5 8.5h202q20 0 29.5 11.5t9.5 24.5q0 14 -9.5 26t-29.5 12h-100q-103 0 -155 50t-52 159q0 226 221 226h156q25 0 44 -8.5t32 -22t19.5 -31t6.5 -35.5t-6.5 -36 t-19.5 -32t-32.5 -22.5t-44.5 -8.5h-168q-20 0 -29 -11.5t-9 -25.5q0 -13 9 -24.5t29 -11.5h100q106 0 156.5 -51t50.5 -160zM223 756q-5 -1 -9.5 -1.5t-6.5 -0.5q-24 0 -38 17.5t-14 37.5q0 16 9.5 31.5t32.5 20.5l218 58q5 1 9 1.5t7 0.5q24 0 38.5 -17t14.5 -39 q0 -15 -9 -30.5t-32 -21.5z"/>
<glyph glyph-name="sacute" horiz-adv-x="581" unicode="ś" d="M549 224q0 -224 -219 -224h-193q-24 0 -42 8.5t-30 22t-18 31t-6 36.5q0 18 6 35.5t18.5 31t31 22t42.5 8.5h202q20 0 29.5 11.5t9.5 24.5q0 14 -9.5 26t-29.5 12h-100q-103 0 -155 50t-52 159q0 226 221 226h156q25 0 44 -8.5t32 -22t19.5 -31t6.5 -35.5t-6.5 -36 t-19.5 -32t-32.5 -22.5t-44.5 -8.5h-168q-20 0 -29 -11.5t-9 -25.5q0 -13 9 -24.5t29 -11.5h100q106 0 156.5 -51t50.5 -160zM223 756q-5 -1 -9.5 -1.5t-6.5 -0.5q-24 0 -38 17.5t-14 37.5q0 16 9.5 31.5t32.5 20.5l218 58q5 1 9 1.5t7 0.5q24 0 38.5 -17t14.5 -39 q0 -15 -9 -30.5t-32 -21.5z"/>
<glyph glyph-name="Scircumflex" horiz-adv-x="581" unicode="Ŝ" d="M549 224q0 -224 -219 -224h-193q-24 0 -42 8.5t-30 22t-18 31t-6 36.5q0 18 6 35.5t18.5 31t31 22t42.5 8.5h202q20 0 29.5 11.5t9.5 24.5q0 14 -9.5 26t-29.5 12h-100q-103 0 -155 50t-52 159q0 226 221 226h156q25 0 44 -8.5t32 -22t19.5 -31t6.5 -35.5t-6.5 -36 t-19.5 -32t-32.5 -22.5t-44.5 -8.5h-168q-20 0 -29 -11.5t-9 -25.5q0 -13 9 -24.5t29 -11.5h100q106 0 156.5 -51t50.5 -160zM291 800l-94 -51q-7 -4 -13 -5t-13 -1q-20 0 -35 15.5t-15 37.5q0 8 6.5 21.5t20.5 21.5l117 63q18 5 27 5q6 0 12.5 -1t11.5 -4l117 -63 q14 -8 20.5 -21.5t6.5 -21.5q0 -22 -15 -37.5t-35 -15.5q-15 0 -25 6z"/>
<glyph glyph-name="scircumflex" horiz-adv-x="581" unicode="ŝ" d="M549 224q0 -224 -219 -224h-193q-24 0 -42 8.5t-30 22t-18 31t-6 36.5q0 18 6 35.5t18.5 31t31 22t42.5 8.5h202q20 0 29.5 11.5t9.5 24.5q0 14 -9.5 26t-29.5 12h-100q-103 0 -155 50t-52 159q0 226 221 226h156q25 0 44 -8.5t32 -22t19.5 -31t6.5 -35.5t-6.5 -36 t-19.5 -32t-32.5 -22.5t-44.5 -8.5h-168q-20 0 -29 -11.5t-9 -25.5q0 -13 9 -24.5t29 -11.5h100q106 0 156.5 -51t50.5 -160zM291 800l-94 -51q-7 -4 -13 -5t-13 -1q-20 0 -35 15.5t-15 37.5q0 8 6.5 21.5t20.5 21.5l117 63q18 5 27 5q6 0 12.5 -1t11.5 -4l117 -63 q14 -8 20.5 -21.5t6.5 -21.5q0 -22 -15 -37.5t-35 -15.5q-15 0 -25 6z"/>
<glyph glyph-name="Scedilla" horiz-adv-x="581" unicode="Ş" d="M549 224q0 -221 -211 -224q4 -15 10.5 -26.5t12.5 -22.5t10.5 -23.5t4.5 -30.5q0 -51 -29.5 -81t-89.5 -30q-26 0 -37 15t-11 32t10 33.5t33 16.5q25 0 25 28q0 12 -4.5 22.5t-10.5 21t-12 21.5t-10 24h-103q-24 0 -42 8.5t-30 22t-18 31t-6 36.5q0 18 6 35.5t18.5 31 t31 22t42.5 8.5h202q20 0 29.5 11.5t9.5 24.5q0 14 -9.5 26t-29.5 12h-100q-103 0 -155 50t-52 159q0 226 221 226h156q25 0 44 -8.5t32 -22t19.5 -31t6.5 -35.5t-6.5 -36t-19.5 -32t-32.5 -22.5t-44.5 -8.5h-168q-20 0 -29 -11.5t-9 -25.5q0 -13 9 -24.5t29 -11.5h100 q106 0 156.5 -51t50.5 -160z"/>
<glyph glyph-name="scedilla" horiz-adv-x="581" unicode="ş" d="M549 224q0 -221 -211 -224q4 -15 10.5 -26.5t12.5 -22.5t10.5 -23.5t4.5 -30.5q0 -51 -29.5 -81t-89.5 -30q-26 0 -37 15t-11 32t10 33.5t33 16.5q25 0 25 28q0 12 -4.5 22.5t-10.5 21t-12 21.5t-10 24h-103q-24 0 -42 8.5t-30 22t-18 31t-6 36.5q0 18 6 35.5t18.5 31 t31 22t42.5 8.5h202q20 0 29.5 11.5t9.5 24.5q0 14 -9.5 26t-29.5 12h-100q-103 0 -155 50t-52 159q0 226 221 226h156q25 0 44 -8.5t32 -22t19.5 -31t6.5 -35.5t-6.5 -36t-19.5 -32t-32.5 -22.5t-44.5 -8.5h-168q-20 0 -29 -11.5t-9 -25.5q0 -13 9 -24.5t29 -11.5h100 q106 0 156.5 -51t50.5 -160z"/>
<glyph glyph-name="Scaron" horiz-adv-x="581" unicode="Š" d="M549 224q0 -224 -219 -224h-193q-24 0 -42 8.5t-30 22t-18 31t-6 36.5q0 18 6 35.5t18.5 31t31 22t42.5 8.5h202q20 0 29.5 11.5t9.5 24.5q0 14 -9.5 26t-29.5 12h-100q-103 0 -155 50t-52 159q0 226 221 226h156q25 0 44 -8.5t32 -22t19.5 -31t6.5 -35.5t-6.5 -36 t-19.5 -32t-32.5 -22.5t-44.5 -8.5h-168q-20 0 -29 -11.5t-9 -25.5q0 -13 9 -24.5t29 -11.5h100q106 0 156.5 -51t50.5 -160zM291 851l94 51q6 4 12 4.5t13 0.5q20 0 35 -15.5t15 -36.5q0 -31 -27 -44l-117 -62q-11 -6 -27 -6q-14 0 -24 6l-117 62q-15 8 -21 19t-6 25 q0 21 15 36.5t35 15.5q7 0 13 -0.5t13 -4.5z"/>
<glyph glyph-name="scaron" horiz-adv-x="581" unicode="š" d="M549 224q0 -224 -219 -224h-193q-24 0 -42 8.5t-30 22t-18 31t-6 36.5q0 18 6 35.5t18.5 31t31 22t42.5 8.5h202q20 0 29.5 11.5t9.5 24.5q0 14 -9.5 26t-29.5 12h-100q-103 0 -155 50t-52 159q0 226 221 226h156q25 0 44 -8.5t32 -22t19.5 -31t6.5 -35.5t-6.5 -36 t-19.5 -32t-32.5 -22.5t-44.5 -8.5h-168q-20 0 -29 -11.5t-9 -25.5q0 -13 9 -24.5t29 -11.5h100q106 0 156.5 -51t50.5 -160zM291 851l94 51q6 4 12 4.5t13 0.5q20 0 35 -15.5t15 -36.5q0 -31 -27 -44l-117 -62q-11 -6 -27 -6q-14 0 -24 6l-117 62q-15 8 -21 19t-6 25 q0 21 15 36.5t35 15.5q7 0 13 -0.5t13 -4.5z"/>
<glyph glyph-name="Tcommaaccent" horiz-adv-x="558" unicode="Ţ" d="M375 93q0 -48 -29 -72.5t-69 -24.5q-39 0 -67.5 24.5t-28.5 72.5v415h-68q-46 0 -71.5 29t-25.5 69t25.5 69t71.5 29h328q46 0 72 -29t26 -69t-26 -69t-72 -29h-66v-415zM329 -148q-7 -23 -24 -34t-31 -11q-25 0 -43.5 15.5t-18.5 40.5q0 5 0.5 8.5t1.5 8.5l16 56 q7 23 18 34t36 11q26 0 43.5 -16t17.5 -41v-8.5t-1 -8.5z"/>
<glyph glyph-name="tcommaaccent" horiz-adv-x="558" unicode="ţ" d="M375 93q0 -48 -29 -72.5t-69 -24.5q-39 0 -67.5 24.5t-28.5 72.5v415h-68q-46 0 -71.5 29t-25.5 69t25.5 69t71.5 29h328q46 0 72 -29t26 -69t-26 -69t-72 -29h-66v-415zM329 -148q-7 -23 -24 -34t-31 -11q-25 0 -43.5 15.5t-18.5 40.5q0 5 0.5 8.5t1.5 8.5l16 56 q7 23 18 34t36 11q26 0 43.5 -16t17.5 -41v-8.5t-1 -8.5z"/>
<glyph glyph-name="Tcaron" horiz-adv-x="558" unicode="Ť" d="M375 93q0 -48 -29 -72.5t-69 -24.5q-39 0 -67.5 24.5t-28.5 72.5v415h-68q-46 0 -71.5 29t-25.5 69t25.5 69t71.5 29h328q46 0 72 -29t26 -69t-26 -69t-72 -29h-66v-415zM279 851l94 51q6 4 12 4.5t13 0.5q20 0 35 -15.5t15 -36.5q0 -31 -27 -44l-117 -62q-11 -6 -27 -6 q-14 0 -24 6l-117 62q-15 8 -21 19t-6 25q0 21 15 36.5t35 15.5q7 0 13 -0.5t13 -4.5z"/>
<glyph glyph-name="tcaron" horiz-adv-x="558" unicode="ť" d="M375 93q0 -48 -29 -72.5t-69 -24.5q-39 0 -67.5 24.5t-28.5 72.5v415h-68q-46 0 -71.5 29t-25.5 69t25.5 69t71.5 29h328q46 0 72 -29t26 -69t-26 -69t-72 -29h-66v-415zM279 851l94 51q6 4 12 4.5t13 0.5q20 0 35 -15.5t15 -36.5q0 -31 -27 -44l-117 -62q-11 -6 -27 -6 q-14 0 -24 6l-117 62q-15 8 -21 19t-6 25q0 21 15 36.5t35 15.5q7 0 13 -0.5t13 -4.5z"/>
<glyph glyph-name="Tbar" horiz-adv-x="558" unicode="Ŧ" d="M375 297v-204q0 -48 -29 -72.5t-69 -24.5q-39 0 -67.5 24.5t-28.5 72.5v204h-39q-31 0 -48.5 19.5t-17.5 46.5t17.5 47.5t48.5 20.5h39v77h-68q-46 0 -71.5 29t-25.5 69t25.5 69t71.5 29h328q46 0 72 -29t26 -69t-26 -69t-72 -29h-66v-77h40q31 0 48.5 -20.5t17.5 -47.5 t-17.5 -46.5t-48.5 -19.5h-40z"/>
<glyph glyph-name="tbar" horiz-adv-x="558" unicode="ŧ" d="M375 297v-204q0 -48 -29 -72.5t-69 -24.5q-39 0 -67.5 24.5t-28.5 72.5v204h-39q-31 0 -48.5 19.5t-17.5 46.5t17.5 47.5t48.5 20.5h39v77h-68q-46 0 -71.5 29t-25.5 69t25.5 69t71.5 29h328q46 0 72 -29t26 -69t-26 -69t-72 -29h-66v-77h40q31 0 48.5 -20.5t17.5 -47.5 t-17.5 -46.5t-48.5 -19.5h-40z"/>
<glyph glyph-name="Utilde" horiz-adv-x="642" unicode="Ũ" d="M606 302q0 -309 -283 -309q-287 0 -287 309v309q0 46 29 71t68 25q40 0 68.5 -25t28.5 -71v-339q0 -86 91 -86t91 86v339q0 23 8 41t21 30t30.5 18.5t36.5 6.5q40 0 69 -25t29 -71v-309zM455 886q9 11 18 14.5t15 3.5q20 0 35.5 -14t15.5 -34q0 -23 -12 -41.5t-30.5 -32 t-41.5 -20.5t-45 -7q-23 0 -46 7.5t-44.5 16t-41.5 16t-38 7.5q-15 0 -25 -7t-30 -28q-8 -9 -17 -13t-16 -4q-18 0 -34 14t-16 34q0 22 12 41t30.5 32.5t41.5 21t45 7.5q21 0 43 -7.5t43.5 -16t42 -16t39.5 -7.5q17 0 27.5 6.5t28.5 26.5z"/>
<glyph glyph-name="utilde" horiz-adv-x="642" unicode="ũ" d="M606 302q0 -309 -283 -309q-287 0 -287 309v309q0 46 29 71t68 25q40 0 68.5 -25t28.5 -71v-339q0 -86 91 -86t91 86v339q0 23 8 41t21 30t30.5 18.5t36.5 6.5q40 0 69 -25t29 -71v-309zM455 886q9 11 18 14.5t15 3.5q20 0 35.5 -14t15.5 -34q0 -23 -12 -41.5t-30.5 -32 t-41.5 -20.5t-45 -7q-23 0 -46 7.5t-44.5 16t-41.5 16t-38 7.5q-15 0 -25 -7t-30 -28q-8 -9 -17 -13t-16 -4q-18 0 -34 14t-16 34q0 22 12 41t30.5 32.5t41.5 21t45 7.5q21 0 43 -7.5t43.5 -16t42 -16t39.5 -7.5q17 0 27.5 6.5t28.5 26.5z"/>
<glyph glyph-name="Umacron" horiz-adv-x="642" unicode="Ū" d="M606 302q0 -309 -283 -309q-287 0 -287 309v309q0 46 29 71t68 25q40 0 68.5 -25t28.5 -71v-339q0 -86 91 -86t91 86v339q0 23 8 41t21 30t30.5 18.5t36.5 6.5q40 0 69 -25t29 -71v-309zM184 759q-31 0 -48.5 19.5t-17.5 45.5q0 27 17.5 48t48.5 21h273q31 0 48.5 -21 t17.5 -48q0 -26 -17.5 -45.5t-48.5 -19.5h-273z"/>
<glyph glyph-name="umacron" horiz-adv-x="642" unicode="ū" d="M606 302q0 -309 -283 -309q-287 0 -287 309v309q0 46 29 71t68 25q40 0 68.5 -25t28.5 -71v-339q0 -86 91 -86t91 86v339q0 23 8 41t21 30t30.5 18.5t36.5 6.5q40 0 69 -25t29 -71v-309zM184 759q-31 0 -48.5 19.5t-17.5 45.5q0 27 17.5 48t48.5 21h273q31 0 48.5 -21 t17.5 -48q0 -26 -17.5 -45.5t-48.5 -19.5h-273z"/>
<glyph glyph-name="Ubreve" horiz-adv-x="642" unicode="Ŭ" d="M606 302q0 -309 -283 -309q-287 0 -287 309v309q0 46 29 71t68 25q40 0 68.5 -25t28.5 -71v-339q0 -86 91 -86t91 86v339q0 23 8 41t21 30t30.5 18.5t36.5 6.5q40 0 69 -25t29 -71v-309zM440 907q20 0 35 -15.5t15 -36.5q0 -27 -17 -47.5t-42.5 -35t-55 -22t-54.5 -7.5 q-26 0 -55.5 7.5t-55 22t-42.5 35t-17 47.5q0 21 15 36.5t35 15.5q23 0 34 -10t20.5 -22.5t23 -22.5t42.5 -10q28 0 41.5 10t23 22.5t20.5 22.5t34 10z"/>
<glyph glyph-name="ubreve" horiz-adv-x="642" unicode="ŭ" d="M606 302q0 -309 -283 -309q-287 0 -287 309v309q0 46 29 71t68 25q40 0 68.5 -25t28.5 -71v-339q0 -86 91 -86t91 86v339q0 23 8 41t21 30t30.5 18.5t36.5 6.5q40 0 69 -25t29 -71v-309zM440 907q20 0 35 -15.5t15 -36.5q0 -27 -17 -47.5t-42.5 -35t-55 -22t-54.5 -7.5 q-26 0 -55.5 7.5t-55 22t-42.5 35t-17 47.5q0 21 15 36.5t35 15.5q23 0 34 -10t20.5 -22.5t23 -22.5t42.5 -10q28 0 41.5 10t23 22.5t20.5 22.5t34 10z"/>
<glyph glyph-name="Uring" horiz-adv-x="642" unicode="Ů" d="M606 302q0 -309 -283 -309q-287 0 -287 309v309q0 46 29 71t68 25q40 0 68.5 -25t28.5 -71v-339q0 -86 91 -86t91 86v339q0 23 8 41t21 30t30.5 18.5t36.5 6.5q40 0 69 -25t29 -71v-309zM278 817q0 -18 13 -31.5t30 -13.5q18 0 30.5 13.5t12.5 31.5q0 19 -12.5 32 t-30.5 13q-17 0 -30 -13t-13 -32zM210 818q0 22 8.5 41.5t23.5 34t35.5 22.5t43.5 8t43 -8t35 -22.5t23.5 -34t8.5 -41.5t-8.5 -41.5t-23.5 -33.5t-35 -22.5t-43 -8.5t-43.5 8.5t-35.5 22.5t-23.5 33.5t-8.5 41.5z"/>
<glyph glyph-name="uring" horiz-adv-x="642" unicode="ů" d="M606 302q0 -309 -283 -309q-287 0 -287 309v309q0 46 29 71t68 25q40 0 68.5 -25t28.5 -71v-339q0 -86 91 -86t91 86v339q0 23 8 41t21 30t30.5 18.5t36.5 6.5q40 0 69 -25t29 -71v-309zM278 817q0 -18 13 -31.5t30 -13.5q18 0 30.5 13.5t12.5 31.5q0 19 -12.5 32 t-30.5 13q-17 0 -30 -13t-13 -32zM210 818q0 22 8.5 41.5t23.5 34t35.5 22.5t43.5 8t43 -8t35 -22.5t23.5 -34t8.5 -41.5t-8.5 -41.5t-23.5 -33.5t-35 -22.5t-43 -8.5t-43.5 8.5t-35.5 22.5t-23.5 33.5t-8.5 41.5z"/>
<glyph glyph-name="Uhungarumlaut" horiz-adv-x="642" unicode="Ű" d="M606 302q0 -309 -283 -309q-287 0 -287 309v309q0 46 29 71t68 25q40 0 68.5 -25t28.5 -71v-339q0 -86 91 -86t91 86v339q0 23 8 41t21 30t30.5 18.5t36.5 6.5q40 0 69 -25t29 -71v-309zM235 759q-16 -16 -35 -16q-20 0 -35 15.5t-15 35.5q0 16 14 33l103 106 q13 15 32 15q20 0 35.5 -15t15.5 -35q-1 -8 -3.5 -16.5t-10.5 -16.5zM435 759q-16 -16 -35 -16q-20 0 -35 15.5t-15 35.5q0 16 14 33l103 106q13 15 32 15q20 0 35.5 -15t15.5 -35q-1 -8 -3.5 -16.5t-10.5 -16.5z"/>
<glyph glyph-name="uhungarumlaut" horiz-adv-x="642" unicode="ű" d="M606 302q0 -309 -283 -309q-287 0 -287 309v309q0 46 29 71t68 25q40 0 68.5 -25t28.5 -71v-339q0 -86 91 -86t91 86v339q0 23 8 41t21 30t30.5 18.5t36.5 6.5q40 0 69 -25t29 -71v-309zM235 759q-16 -16 -35 -16q-20 0 -35 15.5t-15 35.5q0 16 14 33l103 106 q13 15 32 15q20 0 35.5 -15t15.5 -35q-1 -8 -3.5 -16.5t-10.5 -16.5zM435 759q-16 -16 -35 -16q-20 0 -35 15.5t-15 35.5q0 16 14 33l103 106q13 15 32 15q20 0 35.5 -15t15.5 -35q-1 -8 -3.5 -16.5t-10.5 -16.5z"/>
<glyph glyph-name="Uogonek" horiz-adv-x="642" unicode="Ų" d="M606 302q0 -46 -5 -82.5t-15.5 -65.5t-26 -52.5t-36.5 -43.5q-10 -10 -21 -19.5t-20 -20t-14.5 -23.5t-5.5 -30q0 -19 13 -25t58 -6t66.5 -25t21.5 -60q0 -33 -21.5 -58t-61.5 -25q-51 0 -86 11t-56 30t-30 44.5t-9 54.5q0 23 5.5 46.5t14.5 43.5q-24 -3 -54 -3 q-287 0 -287 309v309q0 46 29 71t68 25q40 0 68.5 -25t28.5 -71v-339q0 -86 91 -86t91 86v339q0 23 8 41t21 30t30.5 18.5t36.5 6.5q40 0 69 -25t29 -71v-309z"/>
<glyph glyph-name="uogonek" horiz-adv-x="642" unicode="ų" d="M606 302q0 -46 -5 -82.5t-15.5 -65.5t-26 -52.5t-36.5 -43.5q-10 -10 -21 -19.5t-20 -20t-14.5 -23.5t-5.5 -30q0 -19 13 -25t58 -6t66.5 -25t21.5 -60q0 -33 -21.5 -58t-61.5 -25q-51 0 -86 11t-56 30t-30 44.5t-9 54.5q0 23 5.5 46.5t14.5 43.5q-24 -3 -54 -3 q-287 0 -287 309v309q0 46 29 71t68 25q40 0 68.5 -25t28.5 -71v-339q0 -86 91 -86t91 86v339q0 23 8 41t21 30t30.5 18.5t36.5 6.5q40 0 69 -25t29 -71v-309z"/>
<glyph glyph-name="Wcircumflex" horiz-adv-x="982" unicode="Ŵ" d="M763 640q9 35 31.5 51t52.5 16q18 0 35 -6.5t30.5 -18.5t21.5 -30t8 -40q0 -8 -1 -17t-4 -18l-162 -513q-12 -35 -39.5 -51.5t-53.5 -16.5q-32 0 -57.5 17.5t-37.5 50.5l-93 258l-89 -258q-12 -35 -39.5 -51.5t-53.5 -16.5q-32 0 -58.5 17.5t-36.5 50.5l-172 517 q-3 8 -5.5 15t-2.5 15q0 22 8 40t21.5 30.5t31 19t36.5 6.5q29 0 53 -15.5t34 -50.5l96 -345l91 340q18 71 90 71q28 0 54.5 -18t35.5 -53l89 -340zM491 800l-94 -51q-7 -4 -13 -5t-13 -1q-20 0 -35 15.5t-15 37.5q0 8 6.5 21.5t20.5 21.5l117 63q18 5 27 5q6 0 12.5 -1 t11.5 -4l117 -63q14 -8 20.5 -21.5t6.5 -21.5q0 -22 -15 -37.5t-35 -15.5q-15 0 -25 6z"/>
<glyph glyph-name="wcircumflex" horiz-adv-x="982" unicode="ŵ" d="M763 640q9 35 31.5 51t52.5 16q18 0 35 -6.5t30.5 -18.5t21.5 -30t8 -40q0 -8 -1 -17t-4 -18l-162 -513q-12 -35 -39.5 -51.5t-53.5 -16.5q-32 0 -57.5 17.5t-37.5 50.5l-93 258l-89 -258q-12 -35 -39.5 -51.5t-53.5 -16.5q-32 0 -58.5 17.5t-36.5 50.5l-172 517 q-3 8 -5.5 15t-2.5 15q0 22 8 40t21.5 30.5t31 19t36.5 6.5q29 0 53 -15.5t34 -50.5l96 -345l91 340q18 71 90 71q28 0 54.5 -18t35.5 -53l89 -340zM491 800l-94 -51q-7 -4 -13 -5t-13 -1q-20 0 -35 15.5t-15 37.5q0 8 6.5 21.5t20.5 21.5l117 63q18 5 27 5q6 0 12.5 -1 t11.5 -4l117 -63q14 -8 20.5 -21.5t6.5 -21.5q0 -22 -15 -37.5t-35 -15.5q-15 0 -25 6z"/>
<glyph glyph-name="Ycircumflex" horiz-adv-x="576" unicode="Ŷ" d="M375 657q15 26 37.5 38t45.5 12q19 0 37 -7.5t32 -20t22.5 -30t8.5 -37.5q0 -26 -16 -53l-156 -254v-212q0 -48 -29 -72.5t-68 -24.5q-40 0 -68.5 24.5t-28.5 72.5v212l-158 255q-16 25 -16 49q0 20 8.5 38t22.5 31.5t32 21t38 7.5q21 0 44 -11.5t38 -37.5l87 -152z M288 800l-94 -51q-7 -4 -13 -5t-13 -1q-20 0 -35 15.5t-15 37.5q0 8 6.5 21.5t20.5 21.5l117 63q18 5 27 5q6 0 12.5 -1t11.5 -4l117 -63q14 -8 20.5 -21.5t6.5 -21.5q0 -22 -15 -37.5t-35 -15.5q-15 0 -25 6z"/>
<glyph glyph-name="ycircumflex" horiz-adv-x="576" unicode="ŷ" d="M375 657q15 26 37.5 38t45.5 12q19 0 37 -7.5t32 -20t22.5 -30t8.5 -37.5q0 -26 -16 -53l-156 -254v-212q0 -48 -29 -72.5t-68 -24.5q-40 0 -68.5 24.5t-28.5 72.5v212l-158 255q-16 25 -16 49q0 20 8.5 38t22.5 31.5t32 21t38 7.5q21 0 44 -11.5t38 -37.5l87 -152z M288 800l-94 -51q-7 -4 -13 -5t-13 -1q-20 0 -35 15.5t-15 37.5q0 8 6.5 21.5t20.5 21.5l117 63q18 5 27 5q6 0 12.5 -1t11.5 -4l117 -63q14 -8 20.5 -21.5t6.5 -21.5q0 -22 -15 -37.5t-35 -15.5q-15 0 -25 6z"/>
<glyph glyph-name="Ydieresis" horiz-adv-x="576" unicode="Ÿ" d="M375 657q15 26 37.5 38t45.5 12q19 0 37 -7.5t32 -20t22.5 -30t8.5 -37.5q0 -26 -16 -53l-156 -254v-212q0 -48 -29 -72.5t-68 -24.5q-40 0 -68.5 24.5t-28.5 72.5v212l-158 255q-16 25 -16 49q0 20 8.5 38t22.5 31.5t32 21t38 7.5q21 0 44 -11.5t38 -37.5l87 -152z M336 825q0 32 22 53.5t53 21.5t51.5 -21.5t20.5 -53.5q0 -31 -20.5 -51.5t-51.5 -20.5t-53 20.5t-22 51.5zM92 825q0 32 21 53.5t52 21.5q32 0 53 -21.5t21 -53.5q0 -31 -21 -51.5t-53 -20.5q-31 0 -52 20.5t-21 51.5z"/>
<glyph glyph-name="Zacute" horiz-adv-x="649" unicode="Ź" d="M502 195q46 0 72 -28.5t26 -68.5t-26 -69t-72 -29h-357q-57 0 -82.5 25.5t-25.5 58.5q0 42 28 79l262 345h-190q-46 0 -71.5 29t-25.5 69t25.5 69t71.5 29h365q45 0 69 -27t24 -64q0 -23 -6 -35t-17 -27l-256 -356h186zM257 756q-5 -1 -9.5 -1.5t-6.5 -0.5 q-24 0 -38 17.5t-14 37.5q0 16 9.5 31.5t32.5 20.5l218 58q5 1 9 1.5t7 0.5q24 0 38.5 -17t14.5 -39q0 -15 -9 -30.5t-32 -21.5z"/>
<glyph glyph-name="zacute" horiz-adv-x="649" unicode="ź" d="M502 195q46 0 72 -28.5t26 -68.5t-26 -69t-72 -29h-357q-57 0 -82.5 25.5t-25.5 58.5q0 42 28 79l262 345h-190q-46 0 -71.5 29t-25.5 69t25.5 69t71.5 29h365q45 0 69 -27t24 -64q0 -23 -6 -35t-17 -27l-256 -356h186zM257 756q-5 -1 -9.5 -1.5t-6.5 -0.5 q-24 0 -38 17.5t-14 37.5q0 16 9.5 31.5t32.5 20.5l218 58q5 1 9 1.5t7 0.5q24 0 38.5 -17t14.5 -39q0 -15 -9 -30.5t-32 -21.5z"/>
<glyph glyph-name="Zdotaccent" horiz-adv-x="649" unicode="Ż" d="M502 195q46 0 72 -28.5t26 -68.5t-26 -69t-72 -29h-357q-57 0 -82.5 25.5t-25.5 58.5q0 42 28 79l262 345h-190q-46 0 -71.5 29t-25.5 69t25.5 69t71.5 29h365q45 0 69 -27t24 -64q0 -23 -6 -35t-17 -27l-256 -356h186zM250 825q0 32 21 53.5t52 21.5q32 0 53 -21.5 t21 -53.5q0 -31 -21 -51.5t-53 -20.5q-31 0 -52 20.5t-21 51.5z"/>
<glyph glyph-name="zdotaccent" horiz-adv-x="649" unicode="ż" d="M502 195q46 0 72 -28.5t26 -68.5t-26 -69t-72 -29h-357q-57 0 -82.5 25.5t-25.5 58.5q0 42 28 79l262 345h-190q-46 0 -71.5 29t-25.5 69t25.5 69t71.5 29h365q45 0 69 -27t24 -64q0 -23 -6 -35t-17 -27l-256 -356h186zM250 825q0 32 21 53.5t52 21.5q32 0 53 -21.5 t21 -53.5q0 -31 -21 -51.5t-53 -20.5q-31 0 -52 20.5t-21 51.5z"/>
<glyph glyph-name="Zcaron" horiz-adv-x="649" unicode="Ž" d="M502 195q46 0 72 -28.5t26 -68.5t-26 -69t-72 -29h-357q-57 0 -82.5 25.5t-25.5 58.5q0 42 28 79l262 345h-190q-46 0 -71.5 29t-25.5 69t25.5 69t71.5 29h365q45 0 69 -27t24 -64q0 -23 -6 -35t-17 -27l-256 -356h186zM324 851l94 51q6 4 12 4.5t13 0.5q20 0 35 -15.5 t15 -36.5q0 -31 -27 -44l-117 -62q-11 -6 -27 -6q-14 0 -24 6l-117 62q-15 8 -21 19t-6 25q0 21 15 36.5t35 15.5q7 0 13 -0.5t13 -4.5z"/>
<glyph glyph-name="zcaron" horiz-adv-x="649" unicode="ž" d="M502 195q46 0 72 -28.5t26 -68.5t-26 -69t-72 -29h-357q-57 0 -82.5 25.5t-25.5 58.5q0 42 28 79l262 345h-190q-46 0 -71.5 29t-25.5 69t25.5 69t71.5 29h365q45 0 69 -27t24 -64q0 -23 -6 -35t-17 -27l-256 -356h186zM324 851l94 51q6 4 12 4.5t13 0.5q20 0 35 -15.5 t15 -36.5q0 -31 -27 -44l-117 -62q-11 -6 -27 -6q-14 0 -24 6l-117 62q-15 8 -21 19t-6 25q0 21 15 36.5t35 15.5q7 0 13 -0.5t13 -4.5z"/>
<glyph glyph-name="florin" horiz-adv-x="652" unicode="ƒ" d="M396 344l-32 -244q-9 -66 -31 -108.5t-54.5 -67.5t-73.5 -35t-86 -10q-19 0 -38.5 1t-36 6.5t-27 16t-10.5 30.5q0 23 14 44t38 21q12 0 20 -2t16.5 -5t18.5 -5t27 -2q16 0 30 4.5t25 19t19 40.5t14 69l30 227h-83q-29 0 -45 18t-16 43q0 26 16 45t45 19h99q10 74 33 121 t55.5 74t73 37t86.5 10q19 0 39 -1.5t36.5 -6.5t27 -16t10.5 -30q0 -24 -15 -44.5t-38 -20.5q-12 0 -20 2t-16.5 5t-19 5t-27.5 2t-30.5 -4.5t-24.5 -19t-19 -41.5t-14 -72h94q29 0 45.5 -19t16.5 -45q0 -25 -16.5 -43t-45.5 -18h-110z"/>
<glyph glyph-name="Ohorn" horiz-adv-x="850" unicode="Ơ" d="M225 349q0 -34 13 -63.5t35 -51.5t51.5 -34.5t63.5 -12.5t63.5 12.5t52 34.5t35.5 51.5t13 63.5t-13 64t-35.5 52t-52 35t-63.5 13t-63.5 -13t-51.5 -35t-35 -52t-13 -64zM28 352q0 75 28 140t77 114t114 77t140 28q140 0 238 -90q9 -8 19.5 -13t30.5 -5q19 0 25 13.5 t6 58.5t25 66.5t60 21.5q33 0 58 -21.5t25 -61.5q0 -51 -11 -86t-30 -56.5t-44.5 -30.5t-54.5 -9h-9.5t-9.5 1q15 -34 23.5 -71t8.5 -76q0 -75 -28.5 -140t-77 -114t-114 -77t-140.5 -28t-140 28t-114 77t-77 114t-28 140z"/>
<glyph glyph-name="ohorn" horiz-adv-x="850" unicode="ơ" d="M225 349q0 -34 13 -63.5t35 -51.5t51.5 -34.5t63.5 -12.5t63.5 12.5t52 34.5t35.5 51.5t13 63.5t-13 64t-35.5 52t-52 35t-63.5 13t-63.5 -13t-51.5 -35t-35 -52t-13 -64zM28 352q0 75 28 140t77 114t114 77t140 28q140 0 238 -90q9 -8 19.5 -13t30.5 -5q19 0 25 13.5 t6 58.5t25 66.5t60 21.5q33 0 58 -21.5t25 -61.5q0 -51 -11 -86t-30 -56.5t-44.5 -30.5t-54.5 -9h-9.5t-9.5 1q15 -34 23.5 -71t8.5 -76q0 -75 -28.5 -140t-77 -114t-114 -77t-140.5 -28t-140 28t-114 77t-77 114t-28 140z"/>
<glyph glyph-name="Uhorn" horiz-adv-x="835" unicode="Ư" d="M508 707q27 0 49.5 -12.5t36.5 -34.5t30 -39.5t39 -17.5q19 0 25 13.5t6 58.5t25 66.5t60 21.5q33 0 58 -21.5t25 -61.5q0 -51 -11 -86t-30 -56.5t-44.5 -30.5t-54.5 -9q-30 0 -61.5 9.5t-54.5 26.5v-232q0 -309 -283 -309q-287 0 -287 309v309q0 46 29 71t68 25 q40 0 68.5 -25t28.5 -71v-339q0 -86 91 -86t91 86v339q0 23 8 41t21 30t30.5 18.5t36.5 6.5z"/>
<glyph glyph-name="uhorn" horiz-adv-x="835" unicode="ư" d="M508 707q27 0 49.5 -12.5t36.5 -34.5t30 -39.5t39 -17.5q19 0 25 13.5t6 58.5t25 66.5t60 21.5q33 0 58 -21.5t25 -61.5q0 -51 -11 -86t-30 -56.5t-44.5 -30.5t-54.5 -9q-30 0 -61.5 9.5t-54.5 26.5v-232q0 -309 -283 -309q-287 0 -287 309v309q0 46 29 71t68 25 q40 0 68.5 -25t28.5 -71v-339q0 -86 91 -86t91 86v339q0 23 8 41t21 30t30.5 18.5t36.5 6.5z"/>
<glyph glyph-name="Aringacute" d="M447 136h-208l-31 -77q-14 -32 -37 -47.5t-48 -15.5q-20 0 -38.5 6.5t-33.5 18.5t-24 29t-9 38q0 26 7 39l238 522q12 26 31 42t59 16q38 0 57.5 -16t30.5 -43l217 -521q7 -13 7 -39q0 -20 -9 -37t-23.5 -29t-33.5 -19t-38 -7q-64 0 -86 63zM300 289h94l-43 127zM310 817 q0 -18 13 -31.5t30 -13.5q18 0 30.5 13.5t12.5 31.5q0 19 -12.5 32t-30.5 13q-17 0 -30 -13t-13 -32zM242 818q0 22 8.5 41.5t23.5 34t35.5 22.5t43.5 8t43 -8t35 -22.5t23.5 -34t8.5 -41.5t-8.5 -41.5t-23.5 -33.5t-35 -22.5t-43 -8.5t-43.5 8.5t-35.5 22.5t-23.5 33.5 t-8.5 41.5zM554.199 782.688q-3.44824 -0.689453 -6.55078 -1.03418q-3.10352 -0.345703 -4.48242 -0.345703q-16.5498 0 -26.2041 12.0762q-9.65332 12.0762 -9.65332 25.8779q0 11.041 6.55078 21.7363q6.55078 10.6963 22.4111 14.1465l150.327 40.0234 q3.44824 0.69043 6.20605 1.03516q2.75879 0.345703 4.82715 0.345703q16.5498 0 26.5488 -11.7314t9.99902 -26.9121q0 -10.3516 -6.20605 -21.0469q-6.20703 -10.6963 -22.0664 -14.8369z" unicode="Ǻ"/>
<glyph glyph-name="aringacute" d="M447 136h-208l-31 -77q-14 -32 -37 -47.5t-48 -15.5q-20 0 -38.5 6.5t-33.5 18.5t-24 29t-9 38q0 26 7 39l238 522q12 26 31 42t59 16q38 0 57.5 -16t30.5 -43l217 -521q7 -13 7 -39q0 -20 -9 -37t-23.5 -29t-33.5 -19t-38 -7q-64 0 -86 63zM300 289h94l-43 127zM310 817 q0 -18 13 -31.5t30 -13.5q18 0 30.5 13.5t12.5 31.5q0 19 -12.5 32t-30.5 13q-17 0 -30 -13t-13 -32zM242 818q0 22 8.5 41.5t23.5 34t35.5 22.5t43.5 8t43 -8t35 -22.5t23.5 -34t8.5 -41.5t-8.5 -41.5t-23.5 -33.5t-35 -22.5t-43 -8.5t-43.5 8.5t-35.5 22.5t-23.5 33.5 t-8.5 41.5zM554.199 782.688q-3.44824 -0.689453 -6.55078 -1.03418q-3.10352 -0.345703 -4.48242 -0.345703q-16.5498 0 -26.2041 12.0762q-9.65332 12.0762 -9.65332 25.8779q0 11.041 6.55078 21.7363q6.55078 10.6963 22.4111 14.1465l150.327 40.0234 q3.44824 0.69043 6.20605 1.03516q2.75879 0.345703 4.82715 0.345703q16.5498 0 26.5488 -11.7314t9.99902 -26.9121q0 -10.3516 -6.20605 -21.0469q-6.20703 -10.6963 -22.0664 -14.8369z" unicode="ǻ"/>
<glyph glyph-name="AEacute" horiz-adv-x="995" unicode="Ǽ" d="M470 289v146l-111 -146h111zM563 0q-52 0 -72.5 28.5t-20.5 69.5v38h-213l-61 -91q-17 -26 -39.5 -37.5t-44.5 -11.5q-18 0 -35 6.5t-30 18t-21 27t-8 33.5q0 11 4.5 27.5t14.5 30.5l363 502q22 30 49.5 46.5t62.5 16.5h346q46 0 72 -29t26 -69t-26 -69t-72 -29h-197v-67 h158q42 0 66 -26.5t24 -62.5t-24 -62.5t-66 -26.5h-158v-68h197q46 0 72 -28.5t26 -68.5t-26 -69t-72 -29h-295zM528 756q-5 -1 -9.5 -1.5t-6.5 -0.5q-24 0 -38 17.5t-14 37.5q0 16 9.5 31.5t32.5 20.5l218 58q5 1 9 1.5t7 0.5q24 0 38.5 -17t14.5 -39q0 -15 -9 -30.5 t-32 -21.5z"/>
<glyph glyph-name="aeacute" horiz-adv-x="995" unicode="ǽ" d="M470 289v146l-111 -146h111zM563 0q-52 0 -72.5 28.5t-20.5 69.5v38h-213l-61 -91q-17 -26 -39.5 -37.5t-44.5 -11.5q-18 0 -35 6.5t-30 18t-21 27t-8 33.5q0 11 4.5 27.5t14.5 30.5l363 502q22 30 49.5 46.5t62.5 16.5h346q46 0 72 -29t26 -69t-26 -69t-72 -29h-197v-67 h158q42 0 66 -26.5t24 -62.5t-24 -62.5t-66 -26.5h-158v-68h197q46 0 72 -28.5t26 -68.5t-26 -69t-72 -29h-295zM528 756q-5 -1 -9.5 -1.5t-6.5 -0.5q-24 0 -38 17.5t-14 37.5q0 16 9.5 31.5t32.5 20.5l218 58q5 1 9 1.5t7 0.5q24 0 38.5 -17t14.5 -39q0 -15 -9 -30.5 t-32 -21.5z"/>
<glyph glyph-name="Oslashacute" horiz-adv-x="775" unicode="Ǿ" d="M225 349q0 -23 5.5 -42.5t15.5 -36.5l185 237q-21 6 -43 6q-34 0 -63.5 -13t-51.5 -35t-35 -52t-13 -64zM552 349q0 24 -7 46t-18 40l-187 -241q14 -7 48 -7t63.5 12.5t52 34.5t35.5 51.5t13 63.5zM643 754q13 0 26 -5.5t23.5 -15t17 -22t6.5 -25.5q0 -22 -15 -41 l-43 -57q42 -48 65.5 -107.5t23.5 -128.5q0 -75 -28.5 -140t-77 -114t-114 -77t-140.5 -28q-92 0 -165 40l-44 -56q-22 -28 -51 -28q-15 0 -28 6t-22.5 15.5t-15.5 22t-6 25.5q0 9 3.5 19.5t12.5 21.5l45 58q-42 46 -65 106t-23 129q0 75 28 140t77 114t114 77t140 28 q45 0 86 -10.5t79 -29.5l41 53q12 15 23.5 22.5t26.5 7.5zM320 756q-5 -1 -9.5 -1.5t-6.5 -0.5q-24 0 -38 17.5t-14 37.5q0 16 9.5 31.5t32.5 20.5l218 58q5 1 9 1.5t7 0.5q24 0 38.5 -17t14.5 -39q0 -15 -9 -30.5t-32 -21.5z"/>
<glyph glyph-name="oslashacute" horiz-adv-x="775" unicode="ǿ" d="M225 349q0 -23 5.5 -42.5t15.5 -36.5l185 237q-21 6 -43 6q-34 0 -63.5 -13t-51.5 -35t-35 -52t-13 -64zM552 349q0 24 -7 46t-18 40l-187 -241q14 -7 48 -7t63.5 12.5t52 34.5t35.5 51.5t13 63.5zM643 754q13 0 26 -5.5t23.5 -15t17 -22t6.5 -25.5q0 -22 -15 -41 l-43 -57q42 -48 65.5 -107.5t23.5 -128.5q0 -75 -28.5 -140t-77 -114t-114 -77t-140.5 -28q-92 0 -165 40l-44 -56q-22 -28 -51 -28q-15 0 -28 6t-22.5 15.5t-15.5 22t-6 25.5q0 9 3.5 19.5t12.5 21.5l45 58q-42 46 -65 106t-23 129q0 75 28 140t77 114t114 77t140 28 q45 0 86 -10.5t79 -29.5l41 53q12 15 23.5 22.5t26.5 7.5zM320 756q-5 -1 -9.5 -1.5t-6.5 -0.5q-24 0 -38 17.5t-14 37.5q0 16 9.5 31.5t32.5 20.5l218 58q5 1 9 1.5t7 0.5q24 0 38.5 -17t14.5 -39q0 -15 -9 -30.5t-32 -21.5z"/>
<glyph glyph-name="Scommaaccent" horiz-adv-x="581" unicode="Ș" d="M549 224q0 -224 -219 -224h-193q-24 0 -42 8.5t-30 22t-18 31t-6 36.5q0 18 6 35.5t18.5 31t31 22t42.5 8.5h202q20 0 29.5 11.5t9.5 24.5q0 14 -9.5 26t-29.5 12h-100q-103 0 -155 50t-52 159q0 226 221 226h156q25 0 44 -8.5t32 -22t19.5 -31t6.5 -35.5t-6.5 -36 t-19.5 -32t-32.5 -22.5t-44.5 -8.5h-168q-20 0 -29 -11.5t-9 -25.5q0 -13 9 -24.5t29 -11.5h100q106 0 156.5 -51t50.5 -160zM341 -148q-7 -23 -24 -34t-31 -11q-25 0 -43.5 15.5t-18.5 40.5q0 5 0.5 8.5t1.5 8.5l16 56q7 23 18 34t36 11q26 0 43.5 -16t17.5 -41v-8.5 t-1 -8.5z"/>
<glyph glyph-name="scommaaccent" horiz-adv-x="581" unicode="ș" d="M549 224q0 -224 -219 -224h-193q-24 0 -42 8.5t-30 22t-18 31t-6 36.5q0 18 6 35.5t18.5 31t31 22t42.5 8.5h202q20 0 29.5 11.5t9.5 24.5q0 14 -9.5 26t-29.5 12h-100q-103 0 -155 50t-52 159q0 226 221 226h156q25 0 44 -8.5t32 -22t19.5 -31t6.5 -35.5t-6.5 -36 t-19.5 -32t-32.5 -22.5t-44.5 -8.5h-168q-20 0 -29 -11.5t-9 -25.5q0 -13 9 -24.5t29 -11.5h100q106 0 156.5 -51t50.5 -160zM341 -148q-7 -23 -24 -34t-31 -11q-25 0 -43.5 15.5t-18.5 40.5q0 5 0.5 8.5t1.5 8.5l16 56q7 23 18 34t36 11q26 0 43.5 -16t17.5 -41v-8.5 t-1 -8.5z"/>
<glyph glyph-name="uni021A" horiz-adv-x="558" unicode="Ț" d="M375 93q0 -48 -29 -72.5t-69 -24.5q-39 0 -67.5 24.5t-28.5 72.5v415h-68q-46 0 -71.5 29t-25.5 69t25.5 69t71.5 29h328q46 0 72 -29t26 -69t-26 -69t-72 -29h-66v-415zM329 -148q-7 -23 -24 -34t-31 -11q-25 0 -43.5 15.5t-18.5 40.5q0 5 0.5 8.5t1.5 8.5l16 56 q7 23 18 34t36 11q26 0 43.5 -16t17.5 -41v-8.5t-1 -8.5z"/>
<glyph glyph-name="uni021B" horiz-adv-x="558" unicode="ț" d="M375 93q0 -48 -29 -72.5t-69 -24.5q-39 0 -67.5 24.5t-28.5 72.5v415h-68q-46 0 -71.5 29t-25.5 69t25.5 69t71.5 29h328q46 0 72 -29t26 -69t-26 -69t-72 -29h-66v-415zM329 -148q-7 -23 -24 -34t-31 -11q-25 0 -43.5 15.5t-18.5 40.5q0 5 0.5 8.5t1.5 8.5l16 56 q7 23 18 34t36 11q26 0 43.5 -16t17.5 -41v-8.5t-1 -8.5z"/>
<glyph glyph-name="circumflex" horiz-adv-x="395" unicode="ˆ" d="M198 800l-94 -51q-7 -4 -13 -5t-13 -1q-20 0 -35 15.5t-15 37.5q0 8 6.5 21.5t20.5 21.5l117 63q18 5 27 5q6 0 12.5 -1t11.5 -4l117 -63q14 -8 20.5 -21.5t6.5 -21.5q0 -22 -15 -37.5t-35 -15.5q-15 0 -25 6z"/>
<glyph glyph-name="caron" horiz-adv-x="395" unicode="ˇ" d="M198 851l94 51q6 4 12 4.5t13 0.5q20 0 35 -15.5t15 -36.5q0 -31 -27 -44l-117 -62q-11 -6 -27 -6q-14 0 -24 6l-117 62q-15 8 -21 19t-6 25q0 21 15 36.5t35 15.5q7 0 13 -0.5t13 -4.5z"/>
<glyph glyph-name="uni02C9" horiz-adv-x="461" unicode="ˉ" d="M94 759q-31 0 -48.5 19.5t-17.5 45.5q0 27 17.5 48t48.5 21h273q31 0 48.5 -21t17.5 -48q0 -26 -17.5 -45.5t-48.5 -19.5h-273z"/>
<glyph glyph-name="breve" horiz-adv-x="395" unicode="˘" d="M317 907q20 0 35 -15.5t15 -36.5q0 -27 -17 -47.5t-42.5 -35t-55 -22t-54.5 -7.5q-26 0 -55.5 7.5t-55 22t-42.5 35t-17 47.5q0 21 15 36.5t35 15.5q23 0 34 -10t20.5 -22.5t23 -22.5t42.5 -10q28 0 41.5 10t23 22.5t20.5 22.5t34 10z"/>
<glyph glyph-name="dotaccent" horiz-adv-x="204" unicode="˙" d="M28 825q0 32 21 53.5t52 21.5q32 0 53 -21.5t21 -53.5q0 -31 -21 -51.5t-53 -20.5q-31 0 -52 20.5t-21 51.5z"/>
<glyph glyph-name="ring" horiz-adv-x="277" unicode="˚" d="M96 817q0 -18 13 -31.5t30 -13.5q18 0 30.5 13.5t12.5 31.5q0 19 -12.5 32t-30.5 13q-17 0 -30 -13t-13 -32zM28 818q0 22 8.5 41.5t23.5 34t35.5 22.5t43.5 8t43 -8t35 -22.5t23.5 -34t8.5 -41.5t-8.5 -41.5t-23.5 -33.5t-35 -22.5t-43 -8.5t-43.5 8.5t-35.5 22.5 t-23.5 33.5t-8.5 41.5z"/>
<glyph glyph-name="ogonek" horiz-adv-x="321" unicode="˛" d="M125 61q30 0 30 -27q0 -11 -3.5 -18.5t-7.5 -14.5t-7.5 -15t-3.5 -21q0 -19 13.5 -25t58.5 -6t66.5 -25t21.5 -60q0 -33 -21.5 -58t-61.5 -25q-51 0 -86 11t-56.5 30t-30.5 44.5t-9 54.5q0 26 7.5 53.5t21 50t31 37t37.5 14.5z"/>
<glyph glyph-name="tilde" horiz-adv-x="493" unicode="˜" d="M381 886q9 11 18 14.5t15 3.5q20 0 35.5 -14t15.5 -34q0 -23 -12 -41.5t-30.5 -32t-41.5 -20.5t-45 -7q-23 0 -46 7.5t-44.5 16t-41.5 16t-38 7.5q-15 0 -25 -7t-30 -28q-8 -9 -17 -13t-16 -4q-18 0 -34 14t-16 34q0 22 12 41t30.5 32.5t41.5 21t45 7.5q21 0 43 -7.5 t43.5 -16t42 -16t39.5 -7.5q17 0 27.5 6.5t28.5 26.5z"/>
<glyph glyph-name="hungarumlaut" horiz-adv-x="457" unicode="˝" d="M113 759q-16 -16 -35 -16q-20 0 -35 15.5t-15 35.5q0 16 14 33l103 106q13 15 32 15q20 0 35.5 -15t15.5 -35q-1 -8 -3.5 -16.5t-10.5 -16.5zM313 759q-16 -16 -35 -16q-20 0 -35 15.5t-15 35.5q0 16 14 33l103 106q13 15 32 15q20 0 35.5 -15t15.5 -35q-1 -8 -3.5 -16.5 t-10.5 -16.5z"/>
<glyph glyph-name="tildecomb" horiz-adv-x="311" unicode="̃" d="M239 937q6 7 11.5 9t9.5 2q13 0 22 -8.5t9 -21.5q0 -14 -7.5 -26t-19 -20t-26 -12.5t-27.5 -4.5q-18 0 -32.5 4.5t-27 10t-23.5 10t-22 4.5q-9 0 -15.5 -4t-19.5 -17q-10 -11 -21 -11t-20.5 8.5t-9.5 21.5t7.5 25t19 20.5t25.5 13.5t28 5q16 0 30 -4.5t26.5 -10t24 -10 t23.5 -4.5q11 0 17.5 3.5t17.5 16.5zM151 770l-71 -39q-10 -5 -20 -5q-15 0 -26.5 12t-11.5 29q0 5 5 15.5t16 16.5l89 48q9 4 20 4t18 -4l89 -48q11 -6 16 -16.5t5 -15.5q0 -17 -11.5 -29t-26.5 -12q-11 0 -19 5z"/>
<glyph glyph-name="hookabovecomb" horiz-adv-x="176" unicode="̉" d="M43 766q0 15 5 25t11 19t11 18t5 20q0 22 -19 22t-27.5 13t-8.5 27t9.5 26t29.5 12q48 0 72.5 -24t24.5 -64q0 -18 -5.5 -28.5t-11.5 -20t-11.5 -21t-5.5 -31.5t-12 -29t-26 -9q-17 0 -29 9.5t-12 35.5z"/>
<glyph glyph-name="dotbelowcomb" horiz-adv-x="187" unicode="̣" d="M20 -143q0 32 21 53.5t52 21.5q32 0 53 -21.5t21 -53.5q0 -31 -21 -51.5t-53 -20.5q-31 0 -52 20.5t-21 51.5z"/>
<glyph glyph-name="commaaccent" horiz-adv-x="189" unicode="̦" d="M145 -148q-7 -23 -24 -34t-31 -11q-25 0 -43.5 15.5t-18.5 40.5q0 5 0.5 8.5t1.5 8.5l16 56q7 23 18 34t36 11q26 0 43.5 -16t17.5 -41v-8.5t-1 -8.5z"/>
<glyph glyph-name="uni037E" horiz-adv-x="270" unicode=";" d="M189 -108q-9 -33 -30.5 -48.5t-47.5 -15.5q-38 0 -64.5 22t-26.5 57q0 19 4 26l35 133q17 65 80 65q37 0 62.5 -24t25.5 -59q0 -6 -0.5 -12.5t-2.5 -11.5zM236 470q0 -42 -28 -70t-68 -28q-20 0 -37.5 7.5t-31 20.5t-21.5 31t-8 39q0 19 8 37t21.5 31.5t31 21.5t37.5 8 t37.5 -8t30.5 -21.5t20.5 -31.5t7.5 -37z"/>
<glyph glyph-name="Delta" horiz-adv-x="671" unicode="Δ" d="M260 195h159l-74 215zM658 88q0 -20 -9 -36t-24 -27.5t-34 -18t-38 -6.5h-434q-20 0 -38.5 6t-33.5 17t-24 27.5t-9 37.5q0 14 2 22t7 17l233 522q12 27 32.5 42.5t59.5 15.5t58 -16t30 -43l213 -521q4 -9 6.5 -18.5t2.5 -20.5z"/>
<glyph glyph-name="Omega" horiz-adv-x="645" unicode="Ω" d="M102 0q-57 0 -57 57q0 53 57 53h35q-16 20 -32.5 45.5t-29.5 57t-21 70.5t-8 86q0 168 64.5 255.5t212.5 87.5t213 -87.5t65 -255.5q0 -47 -8 -86t-21 -70.5t-29 -57t-32 -45.5h33q58 0 58 -51q0 -59 -58 -59h-152q-51 0 -51 50q0 24 6 38t15.5 26t20.5 27.5t20.5 43 t15.5 71t6 113.5q0 43 -1.5 80t-10.5 64t-30 42.5t-60 15.5q-37 0 -57.5 -14t-30 -39t-11.5 -59.5t-2 -76.5q0 -73 6 -119t15.5 -75t20 -45t20 -29t15.5 -26.5t6 -37.5q0 -50 -47 -50h-156z"/>
<glyph glyph-name="pi" horiz-adv-x="575" unicode="π" d="M462 60q0 -60 -55 -60q-62 0 -62 60v395h-116v-395q0 -60 -57 -60q-60 0 -60 60v395h-48q-46 0 -46 47q0 44 46 44h447q46 0 46 -44q0 -47 -46 -47h-49v-395z"/>
<glyph glyph-name="uni0400" horiz-adv-x="602" unicode="Ѐ" d="M136 0q-96 0 -96 98v508q0 98 96 98h330q46 0 71.5 -29t25.5 -69t-25.5 -69t-71.5 -29h-233v-67h194q42 0 65.5 -26.5t23.5 -62.5t-23.5 -62.5t-65.5 -26.5h-194v-68h233q46 0 71.5 -28.5t25.5 -68.5t-25.5 -69t-71.5 -29h-330zM148 813q-23 6 -32.5 21.5t-9.5 30.5 q0 22 14 39t39 17q2 0 6 -0.5t9 -1.5l220 -58q23 -6 32 -20.5t9 -31.5q0 -20 -14.5 -37.5t-37.5 -17.5q-2 0 -7 0.5t-10 1.5z"/>
<glyph glyph-name="afii10023" horiz-adv-x="602" unicode="Ё" d="M136 0q-96 0 -96 98v508q0 98 96 98h330q46 0 71.5 -29t25.5 -69t-25.5 -69t-71.5 -29h-233v-67h194q42 0 65.5 -26.5t23.5 -62.5t-23.5 -62.5t-65.5 -26.5h-194v-68h233q46 0 71.5 -28.5t25.5 -68.5t-25.5 -69t-71.5 -29h-330zM348 825q0 32 22 53.5t53 21.5t51.5 -21.5 t20.5 -53.5q0 -31 -20.5 -51.5t-51.5 -20.5t-53 20.5t-22 51.5zM104 825q0 32 21 53.5t52 21.5q32 0 53 -21.5t21 -53.5q0 -31 -21 -51.5t-53 -20.5q-31 0 -52 20.5t-21 51.5z"/>
<glyph glyph-name="afii10051" horiz-adv-x="725" unicode="Ђ" d="M513 210q0 88 -93 88q-90 0 -90 -86v-120q0 -47 -29 -71.5t-67 -24.5q-42 0 -70 24t-28 72v416h-29q-46 0 -71.5 29t-25.5 69t25.5 69t71.5 29h261q45 0 71.5 -29t26.5 -69t-26.5 -69t-71.5 -29h-38v-78q69 28 146 28q45 0 86 -13t73 -40.5t51 -71.5t19 -107 q0 -48 -13.5 -89.5t-39 -72t-61.5 -47.5t-81 -17h-35q-46 0 -66 22.5t-20 60.5q0 27 9 41t23 20.5t30 9.5t30 8.5t23 15.5t9 32z"/>
<glyph glyph-name="afii10052" horiz-adv-x="440" unicode="Ѓ" d="M336 704q45 0 68.5 -29t23.5 -69t-23.5 -68.5t-68.5 -28.5h-103v-416q0 -48 -29 -72t-68 -24t-67.5 24t-28.5 72v513q0 98 96 98h200zM153 756q-5 -1 -9.5 -1.5t-6.5 -0.5q-24 0 -38 17.5t-14 37.5q0 16 9.5 31.5t32.5 20.5l218 58q5 1 9 1.5t7 0.5q24 0 38.5 -17 t14.5 -39q0 -15 -9 -30.5t-32 -21.5z"/>
<glyph glyph-name="afii10053" horiz-adv-x="571" unicode="Є" d="M234 269q20 -33 54.5 -53.5t85.5 -20.5h72q25 0 43 -8.5t30 -22t18 -31t6 -35.5q0 -39 -24 -68.5t-73 -29.5h-71q-87 0 -153 29.5t-109.5 78.5t-65.5 111t-22 128t22.5 130.5t68.5 114.5t114 81t160 31h56q24 0 42.5 -8.5t31 -22.5t19 -31.5t6.5 -36.5t-6.5 -37 t-19 -31.5t-31 -22t-42.5 -8.5h-71q-52 0 -86.5 -20.5t-54.5 -52.5h222q38 0 59.5 -25t21.5 -59q0 -32 -21.5 -56t-59.5 -24h-222z"/>
<glyph glyph-name="afii10054" horiz-adv-x="581" unicode="Ѕ" d="M549 224q0 -224 -219 -224h-193q-24 0 -42 8.5t-30 22t-18 31t-6 36.5q0 18 6 35.5t18.5 31t31 22t42.5 8.5h202q20 0 29.5 11.5t9.5 24.5q0 14 -9.5 26t-29.5 12h-100q-103 0 -155 50t-52 159q0 226 221 226h156q25 0 44 -8.5t32 -22t19.5 -31t6.5 -35.5t-6.5 -36 t-19.5 -32t-32.5 -22.5t-44.5 -8.5h-168q-20 0 -29 -11.5t-9 -25.5q0 -13 9 -24.5t29 -11.5h100q106 0 156.5 -51t50.5 -160z"/>
<glyph glyph-name="afii10055" horiz-adv-x="274" unicode="І" d="M233 93q0 -48 -29 -72.5t-68 -24.5q-40 0 -68.5 24.5t-28.5 72.5v518q0 46 28.5 71t68.5 25q39 0 68 -25t29 -71v-518z"/>
<glyph glyph-name="afii10056" horiz-adv-x="274" unicode="Ї" d="M233 93q0 -48 -29 -72.5t-68 -24.5q-40 0 -68.5 24.5t-28.5 72.5v518q0 46 28.5 71t68.5 25q39 0 68 -25t29 -71v-518zM187 825q0 32 22 53.5t53 21.5t51.5 -21.5t20.5 -53.5q0 -31 -20.5 -51.5t-51.5 -20.5t-53 20.5t-22 51.5zM-57 825q0 32 21 53.5t52 21.5 q32 0 53 -21.5t21 -53.5q0 -31 -21 -51.5t-53 -20.5q-31 0 -52 20.5t-21 51.5z"/>
<glyph glyph-name="afii10057" horiz-adv-x="507" unicode="Ј" d="M472 351q0 -80 -20 -145t-60 -111t-100 -70.5t-140 -24.5h-46q-46 0 -72 29t-26 69t26 68.5t72 28.5h29q35 0 62 7t45.5 23.5t28 44.5t9.5 69v272q0 46 28.5 71t67.5 25t67.5 -25t28.5 -71v-260z"/>
<glyph glyph-name="afii10058" horiz-adv-x="1011" unicode="Љ" d="M647 185h105q64 0 64 58q0 53 -53 53h-15q-32 0 -53.5 17.5t-21.5 55.5t19.5 61t67.5 23h34q45 0 81.5 -17.5t61.5 -48t38.5 -72t13.5 -89.5q0 -104 -59.5 -165t-185.5 -61h-194q-39 0 -68 24t-29 72v413h-74q-3 -69 -14.5 -126.5t-30 -108.5t-43 -96.5t-54.5 -90.5 q-26 -38 -56.5 -64t-74.5 -26q-26 0 -44.5 9t-30.5 23t-17.5 31.5t-5.5 35.5q0 19 9.5 36.5t35.5 40.5q19 17 42 59t43 100.5t34 129t14 144.5q0 98 96 98h268q97 0 97 -100v-419z"/>
<glyph glyph-name="afii10059" horiz-adv-x="954" unicode="Њ" d="M488 707q48 0 73.5 -25t25.5 -74v-423h105q31 0 48 14t17 44q0 26 -14 39.5t-39 13.5h-16q-32 0 -53.5 17.5t-21.5 55.5t19.5 61t67.5 23h34q46 0 82 -17.5t61 -48t38.5 -72t13.5 -89.5q0 -52 -14.5 -93.5t-44.5 -71t-76.5 -45.5t-109.5 -16h-196q-39 0 -67.5 24.5 t-28.5 72.5v163h-158v-167q0 -48 -29 -72.5t-69 -24.5q-39 0 -67.5 24.5t-28.5 72.5v518q0 46 28.5 71t67.5 25q40 0 69 -25t29 -71v-168h158v168q0 46 28.5 71t67.5 25z"/>
<glyph glyph-name="afii10060" horiz-adv-x="733" unicode="Ћ" d="M136 508h-29q-46 0 -71.5 29t-25.5 69t25.5 69t71.5 29h261q45 0 71.5 -29t26.5 -69t-26.5 -69t-71.5 -29h-38v-78q69 28 146 28q48 0 90 -15t73 -48t49 -85.5t18 -127.5v-90q0 -48 -29 -72t-68 -24q-42 0 -69.5 24t-27.5 72v120q0 86 -92 86q-90 0 -90 -86v-120 q0 -47 -29 -71.5t-67 -24.5q-42 0 -70 24t-28 72v416z"/>
<glyph glyph-name="afii10061" horiz-adv-x="595" unicode="Ќ" d="M234 93q0 -48 -29 -72.5t-68 -24.5q-40 0 -68.5 24.5t-28.5 72.5v518q0 46 28.5 71t68.5 25q39 0 68 -25t29 -71v-166l159 225q7 10 14 17.5t15 11.5t19 6t27 2q48 0 74.5 -27.5t26.5 -69.5q0 -17 -5 -33t-17 -28l-163 -184l164 -210q23 -29 23 -61q0 -45 -28 -71.5 t-73 -26.5q-22 0 -41.5 9t-33.5 29l-161 225v-166zM230 756q-5 -1 -9.5 -1.5t-6.5 -0.5q-24 0 -38 17.5t-14 37.5q0 16 9.5 31.5t32.5 20.5l218 58q5 1 9 1.5t7 0.5q24 0 38.5 -17t14.5 -39q0 -15 -9 -30.5t-32 -21.5z"/>
<glyph glyph-name="uni040D" horiz-adv-x="627" unicode="Ѝ" d="M226 387l182 271q17 25 39.5 37t47.5 12q18 0 34 -6.5t29 -19t20.5 -30.5t7.5 -40v-523q0 -45 -27 -68.5t-64 -23.5q-39 0 -66.5 23.5t-27.5 68.5v229l-181 -271q-17 -26 -40.5 -38t-47.5 -12q-18 0 -34.5 6.5t-29 19t-20.5 30.5t-8 41v522q0 45 27.5 68.5t64.5 23.5 q39 0 66.5 -23.5t27.5 -68.5v-228zM161 813q-23 6 -32.5 21.5t-9.5 30.5q0 22 14 39t39 17q2 0 6 -0.5t9 -1.5l220 -58q23 -6 32 -20.5t9 -31.5q0 -20 -14.5 -37.5t-37.5 -17.5q-2 0 -7 0.5t-10 1.5z"/>
<glyph glyph-name="afii10062" horiz-adv-x="592" unicode="Ў" d="M371 657q29 50 81 50q19 0 38 -8t33 -21.5t23 -31t9 -36.5q0 -20 -4 -29t-12 -22l-319 -513q-14 -26 -34.5 -38t-42.5 -12q-18 0 -37 7.5t-34.5 21t-25.5 31t-10 37.5q0 9 4.5 23t12.5 27l140 208l-140 208q-7 10 -12 20t-5 21q0 20 8 39.5t21.5 34.5t32.5 24t42 9 t44 -12.5t36 -37.5l75 -135zM415 907q20 0 35 -15.5t15 -36.5q0 -27 -17 -47.5t-42.5 -35t-55 -22t-54.5 -7.5q-26 0 -55.5 7.5t-55 22t-42.5 35t-17 47.5q0 21 15 36.5t35 15.5q23 0 34 -10t20.5 -22.5t23 -22.5t42.5 -10q28 0 41.5 10t23 22.5t20.5 22.5t34 10z"/>
<glyph glyph-name="afii10145" horiz-adv-x="619" unicode="Џ" d="M136 0q-96 0 -96 98v513q0 46 28.5 71t67.5 25t68 -25t29 -71v-416h152v416q0 46 29 71t68 25t67.5 -25t28.5 -71v-513q0 -98 -96 -98h-76v-42q0 -48 -28.5 -72t-67.5 -24t-68 24t-29 72v42h-77z"/>
<glyph glyph-name="afii10017" d="M447 136h-208l-31 -77q-14 -32 -37 -47.5t-48 -15.5q-20 0 -38.5 6.5t-33.5 18.5t-24 29t-9 38q0 26 7 39l238 522q12 26 31 42t59 16q38 0 57.5 -16t30.5 -43l217 -521q7 -13 7 -39q0 -20 -9 -37t-23.5 -29t-33.5 -19t-38 -7q-64 0 -86 63zM300 289h94l-43 127z" unicode="А"/>
<glyph glyph-name="afii10018" horiz-adv-x="590" unicode="Б" d="M135 0q-94 0 -94 98v508q0 98 96 98h202q45 0 68.5 -29t23.5 -69t-23.5 -68.5t-68.5 -28.5h-103v-324h105q31 0 48 14t17 44q0 26 -14 39.5t-39 13.5h-16q-32 0 -53 17.5t-21 55.5t19 61t67 23h34q46 0 82 -17.5t61 -48t38.5 -72t13.5 -89.5q0 -52 -14.5 -93.5t-44.5 -71 t-76.5 -45.5t-109.5 -16h-198z"/>
<glyph glyph-name="afii10019" horiz-adv-x="636" unicode="В" d="M41 606q0 98 88 98h307q37 0 65 -15.5t47 -41t28.5 -58.5t9.5 -67q0 -60 -25.5 -105.5t-79.5 -57.5q27 -3 48.5 -18t36.5 -39t23.5 -55t8.5 -65q0 -37 -10 -70t-31 -58t-54.5 -39.5t-79.5 -14.5h-289q-93 0 -93 99v507zM227 275v-80h145q21 0 30.5 13t9.5 27 q0 15 -9.5 27.5t-30.5 12.5h-145zM227 508v-91h145q20 0 30 15t10 34q0 16 -9.5 29t-30.5 13h-145z"/>
<glyph glyph-name="afii10020" horiz-adv-x="440" unicode="Г" d="M336 704q45 0 68.5 -29t23.5 -69t-23.5 -68.5t-68.5 -28.5h-103v-416q0 -48 -29 -72t-68 -24t-67.5 24t-28.5 72v513q0 98 96 98h200z"/>
<glyph glyph-name="afii10021" horiz-adv-x="749" unicode="Д" d="M460 509h-74q-5 -97 -25 -172.5t-53 -141.5h152v314zM200 0v-42q0 -48 -29 -72t-68 -24t-67.5 24t-28.5 72v139q0 82 69 96q19 25 39.5 67.5t37.5 97.5t28.5 118.5t11.5 129.5q0 98 96 98h268q96 0 96 -98v-411q96 0 96 -98v-139q0 -48 -28.5 -72t-67.5 -24t-68 24 t-29 72v42h-356z"/>
<glyph glyph-name="afii10022" horiz-adv-x="602" unicode="Е" d="M136 0q-96 0 -96 98v508q0 98 96 98h330q46 0 71.5 -29t25.5 -69t-25.5 -69t-71.5 -29h-233v-67h194q42 0 65.5 -26.5t23.5 -62.5t-23.5 -62.5t-65.5 -26.5h-194v-68h233q46 0 71.5 -28.5t25.5 -68.5t-25.5 -69t-71.5 -29h-330z"/>
<glyph glyph-name="afii10024" horiz-adv-x="912" unicode="Ж" d="M358 445v166q0 46 28.5 71t68.5 25q39 0 68 -25t29 -71v-166l159 225q7 10 13 17.5t14 11.5t19.5 6t28.5 2q48 0 74.5 -27.5t26.5 -69.5q0 -35 -23 -61l-162 -184l163 -210q11 -15 17.5 -29.5t6.5 -31.5q0 -45 -28 -71.5t-73 -26.5q-22 0 -42 9t-34 29l-160 225v-166 q0 -48 -29 -72.5t-68 -24.5q-40 0 -68.5 24.5t-28.5 72.5v166l-161 -225q-14 -20 -33.5 -29t-41.5 -9q-45 0 -73 26.5t-28 71.5q0 11 6 28.5t17 32.5l164 210l-163 184q-22 22 -22 53q0 45 24.5 75t75.5 30q25 0 43 -8t33 -29z"/>
<glyph glyph-name="afii10025" horiz-adv-x="628" unicode="З" d="M39 98q0 97 94 97h239q21 0 30.5 13t9.5 27q0 15 -9.5 27.5t-30.5 12.5h-215q-68 0 -68 72q0 70 66 70h217q20 0 30 15t10 34q0 16 -9.5 29t-30.5 13h-244q-89 0 -89 98t88 98h309q37 0 65 -15.5t47 -41t28.5 -58.5t9.5 -67q0 -60 -25.5 -105.5t-79.5 -57.5 q27 -3 48.5 -18t36.5 -39t23.5 -55t8.5 -65q0 -37 -10 -70t-31 -58t-54.5 -39.5t-79.5 -14.5h-292q-92 0 -92 98z"/>
<glyph glyph-name="afii10026" horiz-adv-x="627" unicode="И" d="M226 387l182 271q17 25 39.5 37t47.5 12q18 0 34 -6.5t29 -19t20.5 -30.5t7.5 -40v-523q0 -45 -27 -68.5t-64 -23.5q-39 0 -66.5 23.5t-27.5 68.5v229l-181 -271q-17 -26 -40.5 -38t-47.5 -12q-18 0 -34.5 6.5t-29 19t-20.5 30.5t-8 41v522q0 45 27.5 68.5t64.5 23.5 q39 0 66.5 -23.5t27.5 -68.5v-228z"/>
<glyph glyph-name="afii10027" horiz-adv-x="627" unicode="Й" d="M226 387l182 271q17 25 39.5 37t47.5 12q18 0 34 -6.5t29 -19t20.5 -30.5t7.5 -40v-523q0 -45 -27 -68.5t-64 -23.5q-39 0 -66.5 23.5t-27.5 68.5v229l-181 -271q-17 -26 -40.5 -38t-47.5 -12q-18 0 -34.5 6.5t-29 19t-20.5 30.5t-8 41v522q0 45 27.5 68.5t64.5 23.5 q39 0 66.5 -23.5t27.5 -68.5v-228zM433 907q20 0 35 -15.5t15 -36.5q0 -27 -17 -47.5t-42.5 -35t-55 -22t-54.5 -7.5q-26 0 -55.5 7.5t-55 22t-42.5 35t-17 47.5q0 21 15 36.5t35 15.5q23 0 34 -10t20.5 -22.5t23 -22.5t42.5 -10q28 0 41.5 10t23 22.5t20.5 22.5t34 10z"/>
<glyph glyph-name="afii10028" horiz-adv-x="595" unicode="К" d="M234 93q0 -48 -29 -72.5t-68 -24.5q-40 0 -68.5 24.5t-28.5 72.5v518q0 46 28.5 71t68.5 25q39 0 68 -25t29 -71v-166l159 225q7 10 14 17.5t15 11.5t19 6t27 2q48 0 74.5 -27.5t26.5 -69.5q0 -17 -5 -33t-17 -28l-163 -184l164 -210q23 -29 23 -61q0 -45 -28 -71.5 t-73 -26.5q-22 0 -41.5 9t-33.5 29l-161 225v-166z"/>
<glyph glyph-name="afii10029" horiz-adv-x="688" unicode="Л" d="M550 704q96 0 96 -98v-513q0 -48 -28.5 -72t-67.5 -24t-68 24t-29 72v416h-74q-3 -69 -14.5 -126.5t-30 -108.5t-43 -96.5t-54.5 -90.5q-26 -38 -56.5 -64t-74.5 -26q-26 0 -44.5 9t-30.5 23t-17.5 31.5t-5.5 35.5q0 19 9.5 36.5t35.5 40.5q19 17 42 59t43 100.5t34 129 t14 144.5q0 98 96 98h268z"/>
<glyph glyph-name="afii10030" horiz-adv-x="758" unicode="М" d="M378 259q-39 0 -71 41l-72 94v-301q0 -47 -29 -72t-67 -25q-40 0 -69 24.5t-29 72.5v511q0 24 8.5 43.5t22.5 32.5t32.5 20t38.5 7q26 0 52 -12.5t45 -36.5l138 -177l139 177q19 24 44.5 36.5t51.5 12.5q20 0 38.5 -7t33 -20t23 -32.5t8.5 -43.5v-511q0 -48 -29 -72.5 t-69 -24.5q-39 0 -67.5 24.5t-28.5 72.5v301l-71 -94q-17 -23 -35 -32t-38 -9z"/>
<glyph glyph-name="afii10031" horiz-adv-x="627" unicode="Н" d="M586 93q0 -48 -29 -72.5t-69 -24.5q-39 0 -67.5 24.5t-28.5 72.5v167h-158v-167q0 -48 -29 -72.5t-69 -24.5q-39 0 -67.5 24.5t-28.5 72.5v518q0 46 28.5 71t67.5 25q40 0 69 -25t29 -71v-168h158v168q0 46 28.5 71t67.5 25q40 0 69 -25t29 -71v-518z"/>
<glyph glyph-name="afii10032" horiz-adv-x="775" unicode="О" d="M225 349q0 -34 13 -63.5t35 -51.5t51.5 -34.5t63.5 -12.5t63.5 12.5t52 34.5t35.5 51.5t13 63.5t-13 64t-35.5 52t-52 35t-63.5 13t-63.5 -13t-51.5 -35t-35 -52t-13 -64zM28 352q0 75 28 140t77 114t114 77t140 28t140.5 -28t114 -77t77 -114t28.5 -140t-28.5 -140 t-77 -114t-114 -77t-140.5 -28t-140 28t-114 77t-77 114t-28 140z"/>
<glyph glyph-name="afii10033" horiz-adv-x="620" unicode="П" d="M482 704q96 0 96 -98v-513q0 -48 -28.5 -72t-67.5 -24t-68 24t-29 72v416h-152v-416q0 -48 -29 -72t-68 -24t-67.5 24t-28.5 72v513q0 98 96 98h346z"/>
<glyph glyph-name="afii10034" horiz-adv-x="590" unicode="Р" d="M236 96q0 -100 -97 -100q-98 0 -98 98v512q0 98 94 98h198q63 0 109.5 -16t76.5 -45.5t44.5 -71.5t14.5 -94q0 -48 -13.5 -89.5t-38.5 -71.5t-61 -47.5t-82 -17.5h-34q-48 0 -67 22.5t-19 60.5t21 56t53 18h16q25 0 39 13t14 40q0 30 -17 43.5t-48 13.5h-105v-422z"/>
<glyph glyph-name="afii10035" horiz-adv-x="571" unicode="С" d="M375 506q-41 0 -71 -13t-50.5 -34.5t-30.5 -49.5t-10 -57q0 -30 10 -58.5t30.5 -50t50.5 -35t70 -13.5h72q25 0 43 -8.5t30 -22t18 -31t6 -35.5q0 -39 -24 -68.5t-73 -29.5h-71q-87 0 -153 29.5t-109.5 78.5t-65.5 111t-22 128t22.5 130.5t68.5 114.5t114 81t160 31h56 q24 0 42.5 -8.5t31 -22.5t19 -31.5t6.5 -36.5t-6.5 -37t-19 -31.5t-31 -22t-42.5 -8.5h-71z"/>
<glyph glyph-name="afii10036" horiz-adv-x="558" unicode="Т" d="M375 93q0 -48 -29 -72.5t-69 -24.5q-39 0 -67.5 24.5t-28.5 72.5v415h-68q-46 0 -71.5 29t-25.5 69t25.5 69t71.5 29h328q46 0 72 -29t26 -69t-26 -69t-72 -29h-66v-415z"/>
<glyph glyph-name="afii10037" horiz-adv-x="592" unicode="У" d="M371 657q29 50 81 50q19 0 38 -8t33 -21.5t23 -31t9 -36.5q0 -20 -4 -29t-12 -22l-319 -513q-14 -26 -34.5 -38t-42.5 -12q-18 0 -37 7.5t-34.5 21t-25.5 31t-10 37.5q0 9 4.5 23t12.5 27l140 208l-140 208q-7 10 -12 20t-5 21q0 20 8 39.5t21.5 34.5t32.5 24t42 9 t44 -12.5t36 -37.5l75 -135z"/>
<glyph glyph-name="afii10038" horiz-adv-x="775" unicode="Ф" d="M225 349q0 -49 24.5 -87t66.5 -58v291q-42 -20 -66.5 -58.5t-24.5 -87.5zM552 349q0 49 -25.5 88t-65.5 59v-292q40 19 65.5 57.5t25.5 87.5zM28 352q0 64 21 121.5t58 103.5t88 78.5t111 46.5v25q0 40 24 61t58 21q33 0 57.5 -21t24.5 -61v-25q60 -14 110.5 -46.5 t87.5 -79t58 -104t21 -120.5q0 -64 -21 -121.5t-58 -103.5t-87.5 -78t-110.5 -46v-26q0 -40 -24.5 -61t-57.5 -21q-34 0 -58 21t-24 61v25q-60 14 -111 46t-88 78t-58 103.5t-21 122.5z"/>
<glyph glyph-name="afii10039" horiz-adv-x="592" unicode="Х" d="M371 657q29 50 81 50q19 0 38 -8t33 -21.5t23 -31t9 -36.5q0 -28 -16 -51l-141 -208l141 -208q7 -12 11.5 -24t4.5 -26q0 -20 -9.5 -37.5t-25 -31t-34.5 -21t-38 -7.5q-48 0 -77 50l-76 134l-75 -134q-15 -26 -35 -38t-42 -12q-18 0 -37 7.5t-34.5 21t-25.5 31t-10 37.5 q0 9 4.5 23t12.5 27l140 208l-140 208q-7 10 -12 20t-5 21q0 20 8 39.5t21.5 34.5t32.5 24t42 9t44 -12.5t36 -37.5l75 -135z"/>
<glyph glyph-name="afii10040" horiz-adv-x="675" unicode="Ц" d="M136 0q-96 0 -96 98v513q0 46 28.5 71t67.5 25t68 -25t29 -71v-416h152v416q0 46 29 71t68 25t67.5 -25t28.5 -71l1 -416q96 0 96 -98v-139q0 -48 -28.5 -72t-67.5 -24t-68 24t-29 72v42h-346z"/>
<glyph glyph-name="afii10041" horiz-adv-x="635" unicode="Ч" d="M599 93q0 -48 -29 -72.5t-68 -24.5q-42 0 -69.5 24.5t-27.5 72.5v137q-38 -13 -74.5 -20t-71.5 -7q-48 0 -90 15t-73 48t-49 85t-18 127v133q0 48 29 72t68 24q42 0 69.5 -24t27.5 -72v-162q0 -86 92 -86q90 0 90 86v162q0 23 8 41t21 30t30.5 18.5t36.5 6.5q42 0 70 -24 t28 -72v-518z"/>
<glyph glyph-name="afii10042" horiz-adv-x="881" unicode="Ш" d="M443 707q19 0 36.5 -6.5t30.5 -19t21 -30.5t8 -40v-416h113v416q0 46 29 71t68 25t67.5 -25t28.5 -71v-513q0 -98 -96 -98h-613q-96 0 -96 98v513q0 46 28.5 71t67.5 25t68 -25t29 -71v-416h113v416q0 46 29 71t68 25z"/>
<glyph glyph-name="afii10043" horiz-adv-x="942" unicode="Щ" d="M136 0q-96 0 -96 98v513q0 46 28.5 71t67.5 25t68 -25t29 -71v-416h113v416q0 46 29 71t68 25q19 0 36.5 -6.5t30.5 -19t21 -30.5t8 -40v-416h113v416q0 46 29 71t68 25t67.5 -25t28.5 -71l1 -416q96 0 96 -98v-139q0 -48 -28.5 -72t-67.5 -24t-68 24t-29 72v42h-613z "/>
<glyph glyph-name="afii10044" horiz-adv-x="682" unicode="Ъ" d="M328 185h105q31 0 48 14t17 44q0 26 -14 39.5t-39 13.5h-16q-32 0 -53 17.5t-21 55.5t19 61t67 23h34q46 0 82 -17.5t61 -48t38.5 -72t13.5 -89.5q0 -52 -14.5 -93.5t-44.5 -71t-76.5 -45.5t-109.5 -16h-198q-94 0 -94 98v410h-29q-46 0 -71.5 29t-25.5 69t25.5 69 t71.5 29h113q24 0 44 -4t35 -15t23.5 -29.5t8.5 -47.5v-423z"/>
<glyph glyph-name="afii10045" horiz-adv-x="864" unicode="Ы" d="M823 93q0 -48 -29 -72.5t-68 -24.5q-40 0 -68.5 24.5t-28.5 72.5v518q0 46 28.5 71t68.5 25q39 0 68 -25t29 -71v-518zM236 185h105q31 0 48 14t17 44q0 26 -14 39.5t-39 13.5h-16q-32 0 -53 17.5t-21 55.5t19 61t67 23h34q46 0 82 -17.5t61 -48t38.5 -72t13.5 -89.5 q0 -52 -14.5 -93.5t-44.5 -71t-76.5 -45.5t-109.5 -16h-198q-94 0 -94 98v512q0 48 23.5 73t74.5 25q97 0 97 -100v-423z"/>
<glyph glyph-name="afii10046" horiz-adv-x="590" unicode="Ь" d="M236 185h105q31 0 48 14t17 44q0 26 -14 39.5t-39 13.5h-16q-32 0 -53 17.5t-21 55.5t19 61t67 23h34q46 0 82 -17.5t61 -48t38.5 -72t13.5 -89.5q0 -52 -14.5 -93.5t-44.5 -71t-76.5 -45.5t-109.5 -16h-198q-94 0 -94 98v512q0 48 23.5 73t74.5 25q97 0 97 -100v-423z "/>
<glyph glyph-name="afii10047" horiz-adv-x="571" unicode="Э" d="M114 269q-38 0 -60 24t-22 56q0 34 22 59t60 25h221q-19 32 -53 52.5t-88 20.5h-71q-24 0 -42.5 8.5t-30.5 22t-18.5 31.5t-6.5 37t6.5 36.5t18.5 31.5t30.5 22.5t42.5 8.5h56q91 0 160 -31t114.5 -81t68.5 -114.5t23 -130.5t-22 -128t-66 -111t-110 -78.5t-153 -29.5 h-71q-48 0 -72.5 29.5t-24.5 68.5q0 18 6 35.5t18 31t30.5 22t42.5 8.5h72q52 0 86.5 20.5t53.5 53.5h-221z"/>
<glyph glyph-name="afii10048" horiz-adv-x="1050" unicode="Ю" d="M500 349q0 -34 12.5 -63.5t34.5 -51.5t51.5 -34.5t63.5 -12.5t64 12.5t52 34.5t35 51.5t13 63.5t-13 64t-35 52t-52 35t-64 13t-63.5 -13t-51.5 -35t-34.5 -52t-12.5 -64zM233 433h79q14 60 46 111t78 88t103.5 58t122.5 21q74 0 139.5 -28t114 -77t77 -114t28.5 -140 t-28.5 -140t-77 -114t-114 -77t-139.5 -28q-64 0 -121.5 21t-103.5 57.5t-78 87t-46 110.5h-80v-176q0 -48 -29 -72.5t-68 -24.5q-40 0 -68.5 24.5t-28.5 72.5v518q0 46 28.5 71t68.5 25q39 0 68 -25t29 -71v-178z"/>
<glyph glyph-name="afii10049" horiz-adv-x="610" unicode="Я" d="M220 46q-15 -26 -37 -38t-46 -12q-20 0 -38.5 7t-33.5 19.5t-24 30.5t-9 39q0 13 4.5 28.5t15.5 31.5l93 146q-51 20 -85 70t-34 122q0 40 14 78.5t43.5 68.5t74.5 48.5t107 18.5h209q94 0 94 -98v-508q0 -48 -23.5 -73t-74.5 -25q-97 0 -97 100v418h-104 q-32 0 -46.5 -11t-14.5 -38q0 -58 55 -58h13q35 0 55.5 -22.5t20.5 -60.5q0 -27 -5 -40t-10 -22z"/>
<glyph glyph-name="afii10065" d="M447 136h-208l-31 -77q-14 -32 -37 -47.5t-48 -15.5q-20 0 -38.5 6.5t-33.5 18.5t-24 29t-9 38q0 26 7 39l238 522q12 26 31 42t59 16q38 0 57.5 -16t30.5 -43l217 -521q7 -13 7 -39q0 -20 -9 -37t-23.5 -29t-33.5 -19t-38 -7q-64 0 -86 63zM300 289h94l-43 127z" unicode="а"/>
<glyph glyph-name="afii10066" horiz-adv-x="590" unicode="б" d="M135 0q-94 0 -94 98v508q0 98 96 98h202q45 0 68.5 -29t23.5 -69t-23.5 -68.5t-68.5 -28.5h-103v-324h105q31 0 48 14t17 44q0 26 -14 39.5t-39 13.5h-16q-32 0 -53 17.5t-21 55.5t19 61t67 23h34q46 0 82 -17.5t61 -48t38.5 -72t13.5 -89.5q0 -52 -14.5 -93.5t-44.5 -71 t-76.5 -45.5t-109.5 -16h-198z"/>
<glyph glyph-name="afii10067" horiz-adv-x="636" unicode="в" d="M41 606q0 98 88 98h307q37 0 65 -15.5t47 -41t28.5 -58.5t9.5 -67q0 -60 -25.5 -105.5t-79.5 -57.5q27 -3 48.5 -18t36.5 -39t23.5 -55t8.5 -65q0 -37 -10 -70t-31 -58t-54.5 -39.5t-79.5 -14.5h-289q-93 0 -93 99v507zM227 275v-80h145q21 0 30.5 13t9.5 27 q0 15 -9.5 27.5t-30.5 12.5h-145zM227 508v-91h145q20 0 30 15t10 34q0 16 -9.5 29t-30.5 13h-145z"/>
<glyph glyph-name="afii10068" horiz-adv-x="440" unicode="г" d="M336 704q45 0 68.5 -29t23.5 -69t-23.5 -68.5t-68.5 -28.5h-103v-416q0 -48 -29 -72t-68 -24t-67.5 24t-28.5 72v513q0 98 96 98h200z"/>
<glyph glyph-name="afii10069" horiz-adv-x="749" unicode="д" d="M460 509h-74q-5 -97 -25 -172.5t-53 -141.5h152v314zM200 0v-42q0 -48 -29 -72t-68 -24t-67.5 24t-28.5 72v139q0 82 69 96q19 25 39.5 67.5t37.5 97.5t28.5 118.5t11.5 129.5q0 98 96 98h268q96 0 96 -98v-411q96 0 96 -98v-139q0 -48 -28.5 -72t-67.5 -24t-68 24 t-29 72v42h-356z"/>
<glyph glyph-name="afii10070" horiz-adv-x="602" unicode="е" d="M136 0q-96 0 -96 98v508q0 98 96 98h330q46 0 71.5 -29t25.5 -69t-25.5 -69t-71.5 -29h-233v-67h194q42 0 65.5 -26.5t23.5 -62.5t-23.5 -62.5t-65.5 -26.5h-194v-68h233q46 0 71.5 -28.5t25.5 -68.5t-25.5 -69t-71.5 -29h-330z"/>
<glyph glyph-name="afii10072" horiz-adv-x="912" unicode="ж" d="M358 445v166q0 46 28.5 71t68.5 25q39 0 68 -25t29 -71v-166l159 225q7 10 13 17.5t14 11.5t19.5 6t28.5 2q48 0 74.5 -27.5t26.5 -69.5q0 -35 -23 -61l-162 -184l163 -210q11 -15 17.5 -29.5t6.5 -31.5q0 -45 -28 -71.5t-73 -26.5q-22 0 -42 9t-34 29l-160 225v-166 q0 -48 -29 -72.5t-68 -24.5q-40 0 -68.5 24.5t-28.5 72.5v166l-161 -225q-14 -20 -33.5 -29t-41.5 -9q-45 0 -73 26.5t-28 71.5q0 11 6 28.5t17 32.5l164 210l-163 184q-22 22 -22 53q0 45 24.5 75t75.5 30q25 0 43 -8t33 -29z"/>
<glyph glyph-name="afii10073" horiz-adv-x="628" unicode="з" d="M39 98q0 97 94 97h239q21 0 30.5 13t9.5 27q0 15 -9.5 27.5t-30.5 12.5h-215q-68 0 -68 72q0 70 66 70h217q20 0 30 15t10 34q0 16 -9.5 29t-30.5 13h-244q-89 0 -89 98t88 98h309q37 0 65 -15.5t47 -41t28.5 -58.5t9.5 -67q0 -60 -25.5 -105.5t-79.5 -57.5 q27 -3 48.5 -18t36.5 -39t23.5 -55t8.5 -65q0 -37 -10 -70t-31 -58t-54.5 -39.5t-79.5 -14.5h-292q-92 0 -92 98z"/>
<glyph glyph-name="afii10074" horiz-adv-x="627" unicode="и" d="M226 387l182 271q17 25 39.5 37t47.5 12q18 0 34 -6.5t29 -19t20.5 -30.5t7.5 -40v-523q0 -45 -27 -68.5t-64 -23.5q-39 0 -66.5 23.5t-27.5 68.5v229l-181 -271q-17 -26 -40.5 -38t-47.5 -12q-18 0 -34.5 6.5t-29 19t-20.5 30.5t-8 41v522q0 45 27.5 68.5t64.5 23.5 q39 0 66.5 -23.5t27.5 -68.5v-228z"/>
<glyph glyph-name="afii10075" horiz-adv-x="627" unicode="й" d="M226 387l182 271q17 25 39.5 37t47.5 12q18 0 34 -6.5t29 -19t20.5 -30.5t7.5 -40v-523q0 -45 -27 -68.5t-64 -23.5q-39 0 -66.5 23.5t-27.5 68.5v229l-181 -271q-17 -26 -40.5 -38t-47.5 -12q-18 0 -34.5 6.5t-29 19t-20.5 30.5t-8 41v522q0 45 27.5 68.5t64.5 23.5 q39 0 66.5 -23.5t27.5 -68.5v-228zM433 907q20 0 35 -15.5t15 -36.5q0 -27 -17 -47.5t-42.5 -35t-55 -22t-54.5 -7.5q-26 0 -55.5 7.5t-55 22t-42.5 35t-17 47.5q0 21 15 36.5t35 15.5q23 0 34 -10t20.5 -22.5t23 -22.5t42.5 -10q28 0 41.5 10t23 22.5t20.5 22.5t34 10z"/>
<glyph glyph-name="afii10076" horiz-adv-x="595" unicode="к" d="M234 93q0 -48 -29 -72.5t-68 -24.5q-40 0 -68.5 24.5t-28.5 72.5v518q0 46 28.5 71t68.5 25q39 0 68 -25t29 -71v-166l159 225q7 10 14 17.5t15 11.5t19 6t27 2q48 0 74.5 -27.5t26.5 -69.5q0 -17 -5 -33t-17 -28l-163 -184l164 -210q23 -29 23 -61q0 -45 -28 -71.5 t-73 -26.5q-22 0 -41.5 9t-33.5 29l-161 225v-166z"/>
<glyph glyph-name="afii10077" horiz-adv-x="688" unicode="л" d="M550 704q96 0 96 -98v-513q0 -48 -28.5 -72t-67.5 -24t-68 24t-29 72v416h-74q-3 -69 -14.5 -126.5t-30 -108.5t-43 -96.5t-54.5 -90.5q-26 -38 -56.5 -64t-74.5 -26q-26 0 -44.5 9t-30.5 23t-17.5 31.5t-5.5 35.5q0 19 9.5 36.5t35.5 40.5q19 17 42 59t43 100.5t34 129 t14 144.5q0 98 96 98h268z"/>
<glyph glyph-name="afii10078" horiz-adv-x="758" unicode="м" d="M378 259q-39 0 -71 41l-72 94v-301q0 -47 -29 -72t-67 -25q-40 0 -69 24.5t-29 72.5v511q0 24 8.5 43.5t22.5 32.5t32.5 20t38.5 7q26 0 52 -12.5t45 -36.5l138 -177l139 177q19 24 44.5 36.5t51.5 12.5q20 0 38.5 -7t33 -20t23 -32.5t8.5 -43.5v-511q0 -48 -29 -72.5 t-69 -24.5q-39 0 -67.5 24.5t-28.5 72.5v301l-71 -94q-17 -23 -35 -32t-38 -9z"/>
<glyph glyph-name="afii10079" horiz-adv-x="627" unicode="н" d="M586 93q0 -48 -29 -72.5t-69 -24.5q-39 0 -67.5 24.5t-28.5 72.5v167h-158v-167q0 -48 -29 -72.5t-69 -24.5q-39 0 -67.5 24.5t-28.5 72.5v518q0 46 28.5 71t67.5 25q40 0 69 -25t29 -71v-168h158v168q0 46 28.5 71t67.5 25q40 0 69 -25t29 -71v-518z"/>
<glyph glyph-name="afii10080" horiz-adv-x="775" unicode="о" d="M225 349q0 -34 13 -63.5t35 -51.5t51.5 -34.5t63.5 -12.5t63.5 12.5t52 34.5t35.5 51.5t13 63.5t-13 64t-35.5 52t-52 35t-63.5 13t-63.5 -13t-51.5 -35t-35 -52t-13 -64zM28 352q0 75 28 140t77 114t114 77t140 28t140.5 -28t114 -77t77 -114t28.5 -140t-28.5 -140 t-77 -114t-114 -77t-140.5 -28t-140 28t-114 77t-77 114t-28 140z"/>
<glyph glyph-name="afii10081" horiz-adv-x="620" unicode="п" d="M482 704q96 0 96 -98v-513q0 -48 -28.5 -72t-67.5 -24t-68 24t-29 72v416h-152v-416q0 -48 -29 -72t-68 -24t-67.5 24t-28.5 72v513q0 98 96 98h346z"/>
<glyph glyph-name="afii10082" horiz-adv-x="590" unicode="р" d="M236 96q0 -100 -97 -100q-98 0 -98 98v512q0 98 94 98h198q63 0 109.5 -16t76.5 -45.5t44.5 -71.5t14.5 -94q0 -48 -13.5 -89.5t-38.5 -71.5t-61 -47.5t-82 -17.5h-34q-48 0 -67 22.5t-19 60.5t21 56t53 18h16q25 0 39 13t14 40q0 30 -17 43.5t-48 13.5h-105v-422z"/>
<glyph glyph-name="afii10083" horiz-adv-x="571" unicode="с" d="M375 506q-41 0 -71 -13t-50.5 -34.5t-30.5 -49.5t-10 -57q0 -30 10 -58.5t30.5 -50t50.5 -35t70 -13.5h72q25 0 43 -8.5t30 -22t18 -31t6 -35.5q0 -39 -24 -68.5t-73 -29.5h-71q-87 0 -153 29.5t-109.5 78.5t-65.5 111t-22 128t22.5 130.5t68.5 114.5t114 81t160 31h56 q24 0 42.5 -8.5t31 -22.5t19 -31.5t6.5 -36.5t-6.5 -37t-19 -31.5t-31 -22t-42.5 -8.5h-71z"/>
<glyph glyph-name="afii10084" horiz-adv-x="558" unicode="т" d="M375 93q0 -48 -29 -72.5t-69 -24.5q-39 0 -67.5 24.5t-28.5 72.5v415h-68q-46 0 -71.5 29t-25.5 69t25.5 69t71.5 29h328q46 0 72 -29t26 -69t-26 -69t-72 -29h-66v-415z"/>
<glyph glyph-name="afii10085" horiz-adv-x="592" unicode="у" d="M371 657q29 50 81 50q19 0 38 -8t33 -21.5t23 -31t9 -36.5q0 -20 -4 -29t-12 -22l-319 -513q-14 -26 -34.5 -38t-42.5 -12q-18 0 -37 7.5t-34.5 21t-25.5 31t-10 37.5q0 9 4.5 23t12.5 27l140 208l-140 208q-7 10 -12 20t-5 21q0 20 8 39.5t21.5 34.5t32.5 24t42 9 t44 -12.5t36 -37.5l75 -135z"/>
<glyph glyph-name="afii10086" horiz-adv-x="775" unicode="ф" d="M225 349q0 -49 24.5 -87t66.5 -58v291q-42 -20 -66.5 -58.5t-24.5 -87.5zM552 349q0 49 -25.5 88t-65.5 59v-292q40 19 65.5 57.5t25.5 87.5zM28 352q0 64 21 121.5t58 103.5t88 78.5t111 46.5v25q0 40 24 61t58 21q33 0 57.5 -21t24.5 -61v-25q60 -14 110.5 -46.5 t87.5 -79t58 -104t21 -120.5q0 -64 -21 -121.5t-58 -103.5t-87.5 -78t-110.5 -46v-26q0 -40 -24.5 -61t-57.5 -21q-34 0 -58 21t-24 61v25q-60 14 -111 46t-88 78t-58 103.5t-21 122.5z"/>
<glyph glyph-name="afii10087" horiz-adv-x="592" unicode="х" d="M371 657q29 50 81 50q19 0 38 -8t33 -21.5t23 -31t9 -36.5q0 -28 -16 -51l-141 -208l141 -208q7 -12 11.5 -24t4.5 -26q0 -20 -9.5 -37.5t-25 -31t-34.5 -21t-38 -7.5q-48 0 -77 50l-76 134l-75 -134q-15 -26 -35 -38t-42 -12q-18 0 -37 7.5t-34.5 21t-25.5 31t-10 37.5 q0 9 4.5 23t12.5 27l140 208l-140 208q-7 10 -12 20t-5 21q0 20 8 39.5t21.5 34.5t32.5 24t42 9t44 -12.5t36 -37.5l75 -135z"/>
<glyph glyph-name="afii10088" horiz-adv-x="675" unicode="ц" d="M136 0q-96 0 -96 98v513q0 46 28.5 71t67.5 25t68 -25t29 -71v-416h152v416q0 46 29 71t68 25t67.5 -25t28.5 -71l1 -416q96 0 96 -98v-139q0 -48 -28.5 -72t-67.5 -24t-68 24t-29 72v42h-346z"/>
<glyph glyph-name="afii10089" horiz-adv-x="635" unicode="ч" d="M599 93q0 -48 -29 -72.5t-68 -24.5q-42 0 -69.5 24.5t-27.5 72.5v137q-38 -13 -74.5 -20t-71.5 -7q-48 0 -90 15t-73 48t-49 85t-18 127v133q0 48 29 72t68 24q42 0 69.5 -24t27.5 -72v-162q0 -86 92 -86q90 0 90 86v162q0 23 8 41t21 30t30.5 18.5t36.5 6.5q42 0 70 -24 t28 -72v-518z"/>
<glyph glyph-name="afii10090" horiz-adv-x="881" unicode="ш" d="M443 707q19 0 36.5 -6.5t30.5 -19t21 -30.5t8 -40v-416h113v416q0 46 29 71t68 25t67.5 -25t28.5 -71v-513q0 -98 -96 -98h-613q-96 0 -96 98v513q0 46 28.5 71t67.5 25t68 -25t29 -71v-416h113v416q0 46 29 71t68 25z"/>
<glyph glyph-name="afii10091" horiz-adv-x="942" unicode="щ" d="M136 0q-96 0 -96 98v513q0 46 28.5 71t67.5 25t68 -25t29 -71v-416h113v416q0 46 29 71t68 25q19 0 36.5 -6.5t30.5 -19t21 -30.5t8 -40v-416h113v416q0 46 29 71t68 25t67.5 -25t28.5 -71l1 -416q96 0 96 -98v-139q0 -48 -28.5 -72t-67.5 -24t-68 24t-29 72v42h-613z "/>
<glyph glyph-name="afii10092" horiz-adv-x="682" unicode="ъ" d="M328 185h105q31 0 48 14t17 44q0 26 -14 39.5t-39 13.5h-16q-32 0 -53 17.5t-21 55.5t19 61t67 23h34q46 0 82 -17.5t61 -48t38.5 -72t13.5 -89.5q0 -52 -14.5 -93.5t-44.5 -71t-76.5 -45.5t-109.5 -16h-198q-94 0 -94 98v410h-29q-46 0 -71.5 29t-25.5 69t25.5 69 t71.5 29h113q24 0 44 -4t35 -15t23.5 -29.5t8.5 -47.5v-423z"/>
<glyph glyph-name="afii10093" horiz-adv-x="864" unicode="ы" d="M823 93q0 -48 -29 -72.5t-68 -24.5q-40 0 -68.5 24.5t-28.5 72.5v518q0 46 28.5 71t68.5 25q39 0 68 -25t29 -71v-518zM236 185h105q31 0 48 14t17 44q0 26 -14 39.5t-39 13.5h-16q-32 0 -53 17.5t-21 55.5t19 61t67 23h34q46 0 82 -17.5t61 -48t38.5 -72t13.5 -89.5 q0 -52 -14.5 -93.5t-44.5 -71t-76.5 -45.5t-109.5 -16h-198q-94 0 -94 98v512q0 48 23.5 73t74.5 25q97 0 97 -100v-423z"/>
<glyph glyph-name="afii10094" horiz-adv-x="590" unicode="ь" d="M236 185h105q31 0 48 14t17 44q0 26 -14 39.5t-39 13.5h-16q-32 0 -53 17.5t-21 55.5t19 61t67 23h34q46 0 82 -17.5t61 -48t38.5 -72t13.5 -89.5q0 -52 -14.5 -93.5t-44.5 -71t-76.5 -45.5t-109.5 -16h-198q-94 0 -94 98v512q0 48 23.5 73t74.5 25q97 0 97 -100v-423z "/>
<glyph glyph-name="afii10095" horiz-adv-x="571" unicode="э" d="M114 269q-38 0 -60 24t-22 56q0 34 22 59t60 25h221q-19 32 -53 52.5t-88 20.5h-71q-24 0 -42.5 8.5t-30.5 22t-18.5 31.5t-6.5 37t6.5 36.5t18.5 31.5t30.5 22.5t42.5 8.5h56q91 0 160 -31t114.5 -81t68.5 -114.5t23 -130.5t-22 -128t-66 -111t-110 -78.5t-153 -29.5 h-71q-48 0 -72.5 29.5t-24.5 68.5q0 18 6 35.5t18 31t30.5 22t42.5 8.5h72q52 0 86.5 20.5t53.5 53.5h-221z"/>
<glyph glyph-name="afii10096" horiz-adv-x="1050" unicode="ю" d="M500 349q0 -34 12.5 -63.5t34.5 -51.5t51.5 -34.5t63.5 -12.5t64 12.5t52 34.5t35 51.5t13 63.5t-13 64t-35 52t-52 35t-64 13t-63.5 -13t-51.5 -35t-34.5 -52t-12.5 -64zM233 433h79q14 60 46 111t78 88t103.5 58t122.5 21q74 0 139.5 -28t114 -77t77 -114t28.5 -140 t-28.5 -140t-77 -114t-114 -77t-139.5 -28q-64 0 -121.5 21t-103.5 57.5t-78 87t-46 110.5h-80v-176q0 -48 -29 -72.5t-68 -24.5q-40 0 -68.5 24.5t-28.5 72.5v518q0 46 28.5 71t68.5 25q39 0 68 -25t29 -71v-178z"/>
<glyph glyph-name="afii10097" horiz-adv-x="610" unicode="я" d="M220 46q-15 -26 -37 -38t-46 -12q-20 0 -38.5 7t-33.5 19.5t-24 30.5t-9 39q0 13 4.5 28.5t15.5 31.5l93 146q-51 20 -85 70t-34 122q0 40 14 78.5t43.5 68.5t74.5 48.5t107 18.5h209q94 0 94 -98v-508q0 -48 -23.5 -73t-74.5 -25q-97 0 -97 100v418h-104 q-32 0 -46.5 -11t-14.5 -38q0 -58 55 -58h13q35 0 55.5 -22.5t20.5 -60.5q0 -27 -5 -40t-10 -22z"/>
<glyph glyph-name="uni0450" horiz-adv-x="602" unicode="ѐ" d="M136 0q-96 0 -96 98v508q0 98 96 98h330q46 0 71.5 -29t25.5 -69t-25.5 -69t-71.5 -29h-233v-67h194q42 0 65.5 -26.5t23.5 -62.5t-23.5 -62.5t-65.5 -26.5h-194v-68h233q46 0 71.5 -28.5t25.5 -68.5t-25.5 -69t-71.5 -29h-330zM148 813q-23 6 -32.5 21.5t-9.5 30.5 q0 22 14 39t39 17q2 0 6 -0.5t9 -1.5l220 -58q23 -6 32 -20.5t9 -31.5q0 -20 -14.5 -37.5t-37.5 -17.5q-2 0 -7 0.5t-10 1.5z"/>
<glyph glyph-name="afii10071" horiz-adv-x="602" unicode="ё" d="M136 0q-96 0 -96 98v508q0 98 96 98h330q46 0 71.5 -29t25.5 -69t-25.5 -69t-71.5 -29h-233v-67h194q42 0 65.5 -26.5t23.5 -62.5t-23.5 -62.5t-65.5 -26.5h-194v-68h233q46 0 71.5 -28.5t25.5 -68.5t-25.5 -69t-71.5 -29h-330zM348 825q0 32 22 53.5t53 21.5t51.5 -21.5 t20.5 -53.5q0 -31 -20.5 -51.5t-51.5 -20.5t-53 20.5t-22 51.5zM104 825q0 32 21 53.5t52 21.5q32 0 53 -21.5t21 -53.5q0 -31 -21 -51.5t-53 -20.5q-31 0 -52 20.5t-21 51.5z"/>
<glyph glyph-name="afii10099" horiz-adv-x="725" unicode="ђ" d="M513 210q0 88 -93 88q-90 0 -90 -86v-120q0 -47 -29 -71.5t-67 -24.5q-42 0 -70 24t-28 72v416h-29q-46 0 -71.5 29t-25.5 69t25.5 69t71.5 29h261q45 0 71.5 -29t26.5 -69t-26.5 -69t-71.5 -29h-38v-78q69 28 146 28q45 0 86 -13t73 -40.5t51 -71.5t19 -107 q0 -48 -13.5 -89.5t-39 -72t-61.5 -47.5t-81 -17h-35q-46 0 -66 22.5t-20 60.5q0 27 9 41t23 20.5t30 9.5t30 8.5t23 15.5t9 32z"/>
<glyph glyph-name="afii10100" horiz-adv-x="440" unicode="ѓ" d="M336 704q45 0 68.5 -29t23.5 -69t-23.5 -68.5t-68.5 -28.5h-103v-416q0 -48 -29 -72t-68 -24t-67.5 24t-28.5 72v513q0 98 96 98h200zM153 756q-5 -1 -9.5 -1.5t-6.5 -0.5q-24 0 -38 17.5t-14 37.5q0 16 9.5 31.5t32.5 20.5l218 58q5 1 9 1.5t7 0.5q24 0 38.5 -17 t14.5 -39q0 -15 -9 -30.5t-32 -21.5z"/>
<glyph glyph-name="afii10101" horiz-adv-x="571" unicode="є" d="M234 269q20 -33 54.5 -53.5t85.5 -20.5h72q25 0 43 -8.5t30 -22t18 -31t6 -35.5q0 -39 -24 -68.5t-73 -29.5h-71q-87 0 -153 29.5t-109.5 78.5t-65.5 111t-22 128t22.5 130.5t68.5 114.5t114 81t160 31h56q24 0 42.5 -8.5t31 -22.5t19 -31.5t6.5 -36.5t-6.5 -37 t-19 -31.5t-31 -22t-42.5 -8.5h-71q-52 0 -86.5 -20.5t-54.5 -52.5h222q38 0 59.5 -25t21.5 -59q0 -32 -21.5 -56t-59.5 -24h-222z"/>
<glyph glyph-name="afii10102" horiz-adv-x="581" unicode="ѕ" d="M549 224q0 -224 -219 -224h-193q-24 0 -42 8.5t-30 22t-18 31t-6 36.5q0 18 6 35.5t18.5 31t31 22t42.5 8.5h202q20 0 29.5 11.5t9.5 24.5q0 14 -9.5 26t-29.5 12h-100q-103 0 -155 50t-52 159q0 226 221 226h156q25 0 44 -8.5t32 -22t19.5 -31t6.5 -35.5t-6.5 -36 t-19.5 -32t-32.5 -22.5t-44.5 -8.5h-168q-20 0 -29 -11.5t-9 -25.5q0 -13 9 -24.5t29 -11.5h100q106 0 156.5 -51t50.5 -160z"/>
<glyph glyph-name="afii10103" horiz-adv-x="274" unicode="і" d="M233 93q0 -48 -29 -72.5t-68 -24.5q-40 0 -68.5 24.5t-28.5 72.5v518q0 46 28.5 71t68.5 25q39 0 68 -25t29 -71v-518z"/>
<glyph glyph-name="afii10104" horiz-adv-x="274" unicode="ї" d="M233 93q0 -48 -29 -72.5t-68 -24.5q-40 0 -68.5 24.5t-28.5 72.5v518q0 46 28.5 71t68.5 25q39 0 68 -25t29 -71v-518zM187 825q0 32 22 53.5t53 21.5t51.5 -21.5t20.5 -53.5q0 -31 -20.5 -51.5t-51.5 -20.5t-53 20.5t-22 51.5zM-57 825q0 32 21 53.5t52 21.5 q32 0 53 -21.5t21 -53.5q0 -31 -21 -51.5t-53 -20.5q-31 0 -52 20.5t-21 51.5z"/>
<glyph glyph-name="afii10105" horiz-adv-x="507" unicode="ј" d="M472 351q0 -80 -20 -145t-60 -111t-100 -70.5t-140 -24.5h-46q-46 0 -72 29t-26 69t26 68.5t72 28.5h29q35 0 62 7t45.5 23.5t28 44.5t9.5 69v272q0 46 28.5 71t67.5 25t67.5 -25t28.5 -71v-260z"/>
<glyph glyph-name="afii10106" horiz-adv-x="1011" unicode="љ" d="M647 185h105q64 0 64 58q0 53 -53 53h-15q-32 0 -53.5 17.5t-21.5 55.5t19.5 61t67.5 23h34q45 0 81.5 -17.5t61.5 -48t38.5 -72t13.5 -89.5q0 -104 -59.5 -165t-185.5 -61h-194q-39 0 -68 24t-29 72v413h-74q-3 -69 -14.5 -126.5t-30 -108.5t-43 -96.5t-54.5 -90.5 q-26 -38 -56.5 -64t-74.5 -26q-26 0 -44.5 9t-30.5 23t-17.5 31.5t-5.5 35.5q0 19 9.5 36.5t35.5 40.5q19 17 42 59t43 100.5t34 129t14 144.5q0 98 96 98h268q97 0 97 -100v-419z"/>
<glyph glyph-name="afii10107" horiz-adv-x="954" unicode="њ" d="M488 707q48 0 73.5 -25t25.5 -74v-423h105q31 0 48 14t17 44q0 26 -14 39.5t-39 13.5h-16q-32 0 -53.5 17.5t-21.5 55.5t19.5 61t67.5 23h34q46 0 82 -17.5t61 -48t38.5 -72t13.5 -89.5q0 -52 -14.5 -93.5t-44.5 -71t-76.5 -45.5t-109.5 -16h-196q-39 0 -67.5 24.5 t-28.5 72.5v163h-158v-167q0 -48 -29 -72.5t-69 -24.5q-39 0 -67.5 24.5t-28.5 72.5v518q0 46 28.5 71t67.5 25q40 0 69 -25t29 -71v-168h158v168q0 46 28.5 71t67.5 25z"/>
<glyph glyph-name="afii10108" horiz-adv-x="733" unicode="ћ" d="M136 508h-29q-46 0 -71.5 29t-25.5 69t25.5 69t71.5 29h261q45 0 71.5 -29t26.5 -69t-26.5 -69t-71.5 -29h-38v-78q69 28 146 28q48 0 90 -15t73 -48t49 -85.5t18 -127.5v-90q0 -48 -29 -72t-68 -24q-42 0 -69.5 24t-27.5 72v120q0 86 -92 86q-90 0 -90 -86v-120 q0 -47 -29 -71.5t-67 -24.5q-42 0 -70 24t-28 72v416z"/>
<glyph glyph-name="afii10109" horiz-adv-x="595" unicode="ќ" d="M234 93q0 -48 -29 -72.5t-68 -24.5q-40 0 -68.5 24.5t-28.5 72.5v518q0 46 28.5 71t68.5 25q39 0 68 -25t29 -71v-166l159 225q7 10 14 17.5t15 11.5t19 6t27 2q48 0 74.5 -27.5t26.5 -69.5q0 -17 -5 -33t-17 -28l-163 -184l164 -210q23 -29 23 -61q0 -45 -28 -71.5 t-73 -26.5q-22 0 -41.5 9t-33.5 29l-161 225v-166zM230 756q-5 -1 -9.5 -1.5t-6.5 -0.5q-24 0 -38 17.5t-14 37.5q0 16 9.5 31.5t32.5 20.5l218 58q5 1 9 1.5t7 0.5q24 0 38.5 -17t14.5 -39q0 -15 -9 -30.5t-32 -21.5z"/>
<glyph glyph-name="uni045D" horiz-adv-x="627" unicode="ѝ" d="M226 387l182 271q17 25 39.5 37t47.5 12q18 0 34 -6.5t29 -19t20.5 -30.5t7.5 -40v-523q0 -45 -27 -68.5t-64 -23.5q-39 0 -66.5 23.5t-27.5 68.5v229l-181 -271q-17 -26 -40.5 -38t-47.5 -12q-18 0 -34.5 6.5t-29 19t-20.5 30.5t-8 41v522q0 45 27.5 68.5t64.5 23.5 q39 0 66.5 -23.5t27.5 -68.5v-228zM161 813q-23 6 -32.5 21.5t-9.5 30.5q0 22 14 39t39 17q2 0 6 -0.5t9 -1.5l220 -58q23 -6 32 -20.5t9 -31.5q0 -20 -14.5 -37.5t-37.5 -17.5q-2 0 -7 0.5t-10 1.5z"/>
<glyph glyph-name="afii10110" horiz-adv-x="592" unicode="ў" d="M371 657q29 50 81 50q19 0 38 -8t33 -21.5t23 -31t9 -36.5q0 -20 -4 -29t-12 -22l-319 -513q-14 -26 -34.5 -38t-42.5 -12q-18 0 -37 7.5t-34.5 21t-25.5 31t-10 37.5q0 9 4.5 23t12.5 27l140 208l-140 208q-7 10 -12 20t-5 21q0 20 8 39.5t21.5 34.5t32.5 24t42 9 t44 -12.5t36 -37.5l75 -135zM415 907q20 0 35 -15.5t15 -36.5q0 -27 -17 -47.5t-42.5 -35t-55 -22t-54.5 -7.5q-26 0 -55.5 7.5t-55 22t-42.5 35t-17 47.5q0 21 15 36.5t35 15.5q23 0 34 -10t20.5 -22.5t23 -22.5t42.5 -10q28 0 41.5 10t23 22.5t20.5 22.5t34 10z"/>
<glyph glyph-name="afii10193" horiz-adv-x="619" unicode="џ" d="M136 0q-96 0 -96 98v513q0 46 28.5 71t67.5 25t68 -25t29 -71v-416h152v416q0 46 29 71t68 25t67.5 -25t28.5 -71v-513q0 -98 -96 -98h-76v-42q0 -48 -28.5 -72t-67.5 -24t-68 24t-29 72v42h-77z"/>
<glyph glyph-name="Wgrave" horiz-adv-x="982" unicode="Ẁ" d="M763 640q9 35 31.5 51t52.5 16q18 0 35 -6.5t30.5 -18.5t21.5 -30t8 -40q0 -8 -1 -17t-4 -18l-162 -513q-12 -35 -39.5 -51.5t-53.5 -16.5q-32 0 -57.5 17.5t-37.5 50.5l-93 258l-89 -258q-12 -35 -39.5 -51.5t-53.5 -16.5q-32 0 -58.5 17.5t-36.5 50.5l-172 517 q-3 8 -5.5 15t-2.5 15q0 22 8 40t21.5 30.5t31 19t36.5 6.5q29 0 53 -15.5t34 -50.5l96 -345l91 340q18 71 90 71q28 0 54.5 -18t35.5 -53l89 -340zM339 813q-23 6 -32.5 21.5t-9.5 30.5q0 22 14 39t39 17q2 0 6 -0.5t9 -1.5l220 -58q23 -6 32 -20.5t9 -31.5 q0 -20 -14.5 -37.5t-37.5 -17.5q-2 0 -7 0.5t-10 1.5z"/>
<glyph glyph-name="wgrave" horiz-adv-x="982" unicode="ẁ" d="M763 640q9 35 31.5 51t52.5 16q18 0 35 -6.5t30.5 -18.5t21.5 -30t8 -40q0 -8 -1 -17t-4 -18l-162 -513q-12 -35 -39.5 -51.5t-53.5 -16.5q-32 0 -57.5 17.5t-37.5 50.5l-93 258l-89 -258q-12 -35 -39.5 -51.5t-53.5 -16.5q-32 0 -58.5 17.5t-36.5 50.5l-172 517 q-3 8 -5.5 15t-2.5 15q0 22 8 40t21.5 30.5t31 19t36.5 6.5q29 0 53 -15.5t34 -50.5l96 -345l91 340q18 71 90 71q28 0 54.5 -18t35.5 -53l89 -340zM339 813q-23 6 -32.5 21.5t-9.5 30.5q0 22 14 39t39 17q2 0 6 -0.5t9 -1.5l220 -58q23 -6 32 -20.5t9 -31.5 q0 -20 -14.5 -37.5t-37.5 -17.5q-2 0 -7 0.5t-10 1.5z"/>
<glyph glyph-name="Wacute" horiz-adv-x="982" unicode="Ẃ" d="M763 640q9 35 31.5 51t52.5 16q18 0 35 -6.5t30.5 -18.5t21.5 -30t8 -40q0 -8 -1 -17t-4 -18l-162 -513q-12 -35 -39.5 -51.5t-53.5 -16.5q-32 0 -57.5 17.5t-37.5 50.5l-93 258l-89 -258q-12 -35 -39.5 -51.5t-53.5 -16.5q-32 0 -58.5 17.5t-36.5 50.5l-172 517 q-3 8 -5.5 15t-2.5 15q0 22 8 40t21.5 30.5t31 19t36.5 6.5q29 0 53 -15.5t34 -50.5l96 -345l91 340q18 71 90 71q28 0 54.5 -18t35.5 -53l89 -340zM423 756q-5 -1 -9.5 -1.5t-6.5 -0.5q-24 0 -38 17.5t-14 37.5q0 16 9.5 31.5t32.5 20.5l218 58q5 1 9 1.5t7 0.5 q24 0 38.5 -17t14.5 -39q0 -15 -9 -30.5t-32 -21.5z"/>
<glyph glyph-name="wacute" horiz-adv-x="982" unicode="ẃ" d="M763 640q9 35 31.5 51t52.5 16q18 0 35 -6.5t30.5 -18.5t21.5 -30t8 -40q0 -8 -1 -17t-4 -18l-162 -513q-12 -35 -39.5 -51.5t-53.5 -16.5q-32 0 -57.5 17.5t-37.5 50.5l-93 258l-89 -258q-12 -35 -39.5 -51.5t-53.5 -16.5q-32 0 -58.5 17.5t-36.5 50.5l-172 517 q-3 8 -5.5 15t-2.5 15q0 22 8 40t21.5 30.5t31 19t36.5 6.5q29 0 53 -15.5t34 -50.5l96 -345l91 340q18 71 90 71q28 0 54.5 -18t35.5 -53l89 -340zM423 756q-5 -1 -9.5 -1.5t-6.5 -0.5q-24 0 -38 17.5t-14 37.5q0 16 9.5 31.5t32.5 20.5l218 58q5 1 9 1.5t7 0.5 q24 0 38.5 -17t14.5 -39q0 -15 -9 -30.5t-32 -21.5z"/>
<glyph glyph-name="Wdieresis" horiz-adv-x="982" unicode="Ẅ" d="M763 640q9 35 31.5 51t52.5 16q18 0 35 -6.5t30.5 -18.5t21.5 -30t8 -40q0 -8 -1 -17t-4 -18l-162 -513q-12 -35 -39.5 -51.5t-53.5 -16.5q-32 0 -57.5 17.5t-37.5 50.5l-93 258l-89 -258q-12 -35 -39.5 -51.5t-53.5 -16.5q-32 0 -58.5 17.5t-36.5 50.5l-172 517 q-3 8 -5.5 15t-2.5 15q0 22 8 40t21.5 30.5t31 19t36.5 6.5q29 0 53 -15.5t34 -50.5l96 -345l91 340q18 71 90 71q28 0 54.5 -18t35.5 -53l89 -340zM539 825q0 32 22 53.5t53 21.5t51.5 -21.5t20.5 -53.5q0 -31 -20.5 -51.5t-51.5 -20.5t-53 20.5t-22 51.5zM295 825 q0 32 21 53.5t52 21.5q32 0 53 -21.5t21 -53.5q0 -31 -21 -51.5t-53 -20.5q-31 0 -52 20.5t-21 51.5z"/>
<glyph glyph-name="wdieresis" horiz-adv-x="982" unicode="ẅ" d="M763 640q9 35 31.5 51t52.5 16q18 0 35 -6.5t30.5 -18.5t21.5 -30t8 -40q0 -8 -1 -17t-4 -18l-162 -513q-12 -35 -39.5 -51.5t-53.5 -16.5q-32 0 -57.5 17.5t-37.5 50.5l-93 258l-89 -258q-12 -35 -39.5 -51.5t-53.5 -16.5q-32 0 -58.5 17.5t-36.5 50.5l-172 517 q-3 8 -5.5 15t-2.5 15q0 22 8 40t21.5 30.5t31 19t36.5 6.5q29 0 53 -15.5t34 -50.5l96 -345l91 340q18 71 90 71q28 0 54.5 -18t35.5 -53l89 -340zM539 825q0 32 22 53.5t53 21.5t51.5 -21.5t20.5 -53.5q0 -31 -20.5 -51.5t-51.5 -20.5t-53 20.5t-22 51.5zM295 825 q0 32 21 53.5t52 21.5q32 0 53 -21.5t21 -53.5q0 -31 -21 -51.5t-53 -20.5q-31 0 -52 20.5t-21 51.5z"/>
<glyph glyph-name="uni1EA0" d="M447 136h-208l-31 -77q-14 -32 -37 -47.5t-48 -15.5q-20 0 -38.5 6.5t-33.5 18.5t-24 29t-9 38q0 26 7 39l238 522q12 26 31 42t59 16q38 0 57.5 -16t30.5 -43l217 -521q7 -13 7 -39q0 -20 -9 -37t-23.5 -29t-33.5 -19t-38 -7q-64 0 -86 63zM300 289h94l-43 127z M269 -143q0 32 21 53.5t52 21.5q32 0 53 -21.5t21 -53.5q0 -31 -21 -51.5t-53 -20.5q-31 0 -52 20.5t-21 51.5z" unicode="Ạ"/>
<glyph glyph-name="uni1EA1" d="M447 136h-208l-31 -77q-14 -32 -37 -47.5t-48 -15.5q-20 0 -38.5 6.5t-33.5 18.5t-24 29t-9 38q0 26 7 39l238 522q12 26 31 42t59 16q38 0 57.5 -16t30.5 -43l217 -521q7 -13 7 -39q0 -20 -9 -37t-23.5 -29t-33.5 -19t-38 -7q-64 0 -86 63zM300 289h94l-43 127z M269 -143q0 32 21 53.5t52 21.5q32 0 53 -21.5t21 -53.5q0 -31 -21 -51.5t-53 -20.5q-31 0 -52 20.5t-21 51.5z" unicode="ạ"/>
<glyph glyph-name="uni1EA2" d="M447 136h-208l-31 -77q-14 -32 -37 -47.5t-48 -15.5q-20 0 -38.5 6.5t-33.5 18.5t-24 29t-9 38q0 26 7 39l238 522q12 26 31 42t59 16q38 0 57.5 -16t30.5 -43l217 -521q7 -13 7 -39q0 -20 -9 -37t-23.5 -29t-33.5 -19t-38 -7q-64 0 -86 63zM300 289h94l-43 127zM318 766 q0 15 5 25t11 19t11 18t5 20q0 22 -19 22t-27.5 13t-8.5 27t9.5 26t29.5 12q48 0 72.5 -24t24.5 -64q0 -18 -5.5 -28.5t-11.5 -20t-11.5 -21t-5.5 -31.5t-12 -29t-26 -9q-17 0 -29 9.5t-12 35.5z" unicode="Ả"/>
<glyph glyph-name="uni1EA3" d="M447 136h-208l-31 -77q-14 -32 -37 -47.5t-48 -15.5q-20 0 -38.5 6.5t-33.5 18.5t-24 29t-9 38q0 26 7 39l238 522q12 26 31 42t59 16q38 0 57.5 -16t30.5 -43l217 -521q7 -13 7 -39q0 -20 -9 -37t-23.5 -29t-33.5 -19t-38 -7q-64 0 -86 63zM300 289h94l-43 127zM318 766 q0 15 5 25t11 19t11 18t5 20q0 22 -19 22t-27.5 13t-8.5 27t9.5 26t29.5 12q48 0 72.5 -24t24.5 -64q0 -18 -5.5 -28.5t-11.5 -20t-11.5 -21t-5.5 -31.5t-12 -29t-26 -9q-17 0 -29 9.5t-12 35.5z" unicode="ả"/>
<glyph glyph-name="uni1EA4" d="M447 136h-208l-31 -77q-14 -32 -37 -47.5t-48 -15.5q-20 0 -38.5 6.5t-33.5 18.5t-24 29t-9 38q0 26 7 39l238 522q12 26 31 42t59 16q38 0 57.5 -16t30.5 -43l217 -521q7 -13 7 -39q0 -20 -9 -37t-23.5 -29t-33.5 -19t-38 -7q-64 0 -86 63zM300 289h94l-43 127zM281 765 q-8 -5 -20 -5q-16 0 -27.5 12.5t-11.5 29.5q0 5 5 16.5t16 17.5l92 49q7 4 19 4q5 0 10.5 -0.5t11.5 -3.5l92 -49q12 -7 16.5 -18t4.5 -16q0 -17 -11.5 -29.5t-27.5 -12.5q-11 0 -21 5l-74 40zM564 759q-5 -1 -8 -1h-6q-17 0 -27 12.5t-10 28.5q0 12 6.5 22t23.5 15l162 43 q3 1 11 1q18 0 28.5 -12t10.5 -29q0 -11 -7 -22t-24 -16z" unicode="Ấ"/>
<glyph glyph-name="uni1EA5" d="M447 136h-208l-31 -77q-14 -32 -37 -47.5t-48 -15.5q-20 0 -38.5 6.5t-33.5 18.5t-24 29t-9 38q0 26 7 39l238 522q12 26 31 42t59 16q38 0 57.5 -16t30.5 -43l217 -521q7 -13 7 -39q0 -20 -9 -37t-23.5 -29t-33.5 -19t-38 -7q-64 0 -86 63zM300 289h94l-43 127zM281 765 q-8 -5 -20 -5q-16 0 -27.5 12.5t-11.5 29.5q0 5 5 16.5t16 17.5l92 49q7 4 19 4q5 0 10.5 -0.5t11.5 -3.5l92 -49q12 -7 16.5 -18t4.5 -16q0 -17 -11.5 -29.5t-27.5 -12.5q-11 0 -21 5l-74 40zM564 759q-5 -1 -8 -1h-6q-17 0 -27 12.5t-10 28.5q0 12 6.5 22t23.5 15l162 43 q3 1 11 1q18 0 28.5 -12t10.5 -29q0 -11 -7 -22t-24 -16z" unicode="ấ"/>
<glyph glyph-name="uni1EA6" d="M447 136h-208l-31 -77q-14 -32 -37 -47.5t-48 -15.5q-20 0 -38.5 6.5t-33.5 18.5t-24 29t-9 38q0 26 7 39l238 522q12 26 31 42t59 16q38 0 57.5 -16t30.5 -43l217 -521q7 -13 7 -39q0 -20 -9 -37t-23.5 -29t-33.5 -19t-38 -7q-64 0 -86 63zM300 289h94l-43 127zM350 805 l-74 -40q-10 -5 -21 -5q-16 0 -27.5 12.5t-11.5 29.5q0 5 4.5 16t16.5 18l92 49q6 3 11.5 3.5t10.5 0.5q12 0 19 -4l92 -49q11 -6 16 -17.5t5 -16.5q0 -17 -11.5 -29.5t-27.5 -12.5q-12 0 -20 5zM-19 801q-17 5 -24 16t-7 22q0 17 10.5 29t28.5 12q8 0 11 -1l162 -43 q17 -5 23.5 -15t6.5 -22q0 -16 -10 -28.5t-27 -12.5h-6t-8 1z" unicode="Ầ"/>
<glyph glyph-name="uni1EA7" d="M447 136h-208l-31 -77q-14 -32 -37 -47.5t-48 -15.5q-20 0 -38.5 6.5t-33.5 18.5t-24 29t-9 38q0 26 7 39l238 522q12 26 31 42t59 16q38 0 57.5 -16t30.5 -43l217 -521q7 -13 7 -39q0 -20 -9 -37t-23.5 -29t-33.5 -19t-38 -7q-64 0 -86 63zM300 289h94l-43 127zM350 805 l-74 -40q-10 -5 -21 -5q-16 0 -27.5 12.5t-11.5 29.5q0 5 4.5 16t16.5 18l92 49q6 3 11.5 3.5t10.5 0.5q12 0 19 -4l92 -49q11 -6 16 -17.5t5 -16.5q0 -17 -11.5 -29.5t-27.5 -12.5q-12 0 -20 5zM-19 801q-17 5 -24 16t-7 22q0 17 10.5 29t28.5 12q8 0 11 -1l162 -43 q17 -5 23.5 -15t6.5 -22q0 -16 -10 -28.5t-27 -12.5h-6t-8 1z" unicode="ầ"/>
<glyph glyph-name="uni1EA8" d="M447 136h-208l-31 -77q-14 -32 -37 -47.5t-48 -15.5q-20 0 -38.5 6.5t-33.5 18.5t-24 29t-9 38q0 26 7 39l238 522q12 26 31 42t59 16q38 0 57.5 -16t30.5 -43l217 -521q7 -13 7 -39q0 -20 -9 -37t-23.5 -29t-33.5 -19t-38 -7q-64 0 -86 63zM300 289h94l-43 127zM277 765 q-8 -5 -20 -5q-16 0 -27.5 12.5t-11.5 29.5q0 5 5 16.5t16 17.5l92 49q7 4 19 4q5 0 10.5 -0.5t11.5 -3.5l92 -49q12 -7 16.5 -18t4.5 -16q0 -17 -11.5 -29.5t-27.5 -12.5q-11 0 -21 5l-74 40zM502 766q0 15 5 25t11 19t11 18t5 20q0 22 -19 22t-27.5 13t-8.5 27t9.5 26 t29.5 12q48 0 72.5 -24t24.5 -64q0 -18 -5.5 -28.5t-11.5 -20t-11.5 -21t-5.5 -31.5t-12 -29t-26 -9q-17 0 -29 9.5t-12 35.5z" unicode="Ẩ"/>
<glyph glyph-name="uni1EA9" d="M447 136h-208l-31 -77q-14 -32 -37 -47.5t-48 -15.5q-20 0 -38.5 6.5t-33.5 18.5t-24 29t-9 38q0 26 7 39l238 522q12 26 31 42t59 16q38 0 57.5 -16t30.5 -43l217 -521q7 -13 7 -39q0 -20 -9 -37t-23.5 -29t-33.5 -19t-38 -7q-64 0 -86 63zM300 289h94l-43 127zM277 765 q-8 -5 -20 -5q-16 0 -27.5 12.5t-11.5 29.5q0 5 5 16.5t16 17.5l92 49q7 4 19 4q5 0 10.5 -0.5t11.5 -3.5l92 -49q12 -7 16.5 -18t4.5 -16q0 -17 -11.5 -29.5t-27.5 -12.5q-11 0 -21 5l-74 40zM502 766q0 15 5 25t11 19t11 18t5 20q0 22 -19 22t-27.5 13t-8.5 27t9.5 26 t29.5 12q48 0 72.5 -24t24.5 -64q0 -18 -5.5 -28.5t-11.5 -20t-11.5 -21t-5.5 -31.5t-12 -29t-26 -9q-17 0 -29 9.5t-12 35.5z" unicode="ẩ"/>
<glyph glyph-name="uni1EAA" d="M447 136h-208l-31 -77q-14 -32 -37 -47.5t-48 -15.5q-20 0 -38.5 6.5t-33.5 18.5t-24 29t-9 38q0 26 7 39l238 522q12 26 31 42t59 16q38 0 57.5 -16t30.5 -43l217 -521q7 -13 7 -39q0 -20 -9 -37t-23.5 -29t-33.5 -19t-38 -7q-64 0 -86 63zM300 289h94l-43 127zM435 937 q6 7 11.5 9t9.5 2q13 0 22 -8.5t9 -21.5q0 -14 -7.5 -26t-19 -20t-26 -12.5t-27.5 -4.5q-18 0 -32.5 4.5t-27 10t-23.5 10t-22 4.5q-9 0 -15.5 -4t-19.5 -17q-10 -11 -21 -11t-20.5 8.5t-9.5 21.5t7.5 25t19 20.5t25.5 13.5t28 5q16 0 30 -4.5t26.5 -10t24 -10t23.5 -4.5 q11 0 17.5 3.5t17.5 16.5zM347 770l-71 -39q-10 -5 -20 -5q-15 0 -26.5 12t-11.5 29q0 5 5 15.5t16 16.5l89 48q9 4 20 4t18 -4l89 -48q11 -6 16 -16.5t5 -15.5q0 -17 -11.5 -29t-26.5 -12q-11 0 -19 5z" unicode="Ẫ"/>
<glyph glyph-name="uni1EAB" d="M447 136h-208l-31 -77q-14 -32 -37 -47.5t-48 -15.5q-20 0 -38.5 6.5t-33.5 18.5t-24 29t-9 38q0 26 7 39l238 522q12 26 31 42t59 16q38 0 57.5 -16t30.5 -43l217 -521q7 -13 7 -39q0 -20 -9 -37t-23.5 -29t-33.5 -19t-38 -7q-64 0 -86 63zM300 289h94l-43 127zM435 937 q6 7 11.5 9t9.5 2q13 0 22 -8.5t9 -21.5q0 -14 -7.5 -26t-19 -20t-26 -12.5t-27.5 -4.5q-18 0 -32.5 4.5t-27 10t-23.5 10t-22 4.5q-9 0 -15.5 -4t-19.5 -17q-10 -11 -21 -11t-20.5 8.5t-9.5 21.5t7.5 25t19 20.5t25.5 13.5t28 5q16 0 30 -4.5t26.5 -10t24 -10t23.5 -4.5 q11 0 17.5 3.5t17.5 16.5zM347 770l-71 -39q-10 -5 -20 -5q-15 0 -26.5 12t-11.5 29q0 5 5 15.5t16 16.5l89 48q9 4 20 4t18 -4l89 -48q11 -6 16 -16.5t5 -15.5q0 -17 -11.5 -29t-26.5 -12q-11 0 -19 5z" unicode="ẫ"/>
<glyph glyph-name="uni1EAC" d="M447 136h-208l-31 -77q-14 -32 -37 -47.5t-48 -15.5q-20 0 -38.5 6.5t-33.5 18.5t-24 29t-9 38q0 26 7 39l238 522q12 26 31 42t59 16q38 0 57.5 -16t30.5 -43l217 -521q7 -13 7 -39q0 -20 -9 -37t-23.5 -29t-33.5 -19t-38 -7q-64 0 -86 63zM300 289h94l-43 127zM344 800 l-94 -51q-7 -4 -13 -5t-13 -1q-20 0 -35 15.5t-15 37.5q0 8 6.5 21.5t20.5 21.5l117 63q18 5 27 5q6 0 12.5 -1t11.5 -4l117 -63q14 -8 20.5 -21.5t6.5 -21.5q0 -22 -15 -37.5t-35 -15.5q-15 0 -25 6zM269 -143q0 32 21 53.5t52 21.5q32 0 53 -21.5t21 -53.5 q0 -31 -21 -51.5t-53 -20.5q-31 0 -52 20.5t-21 51.5z" unicode="Ậ"/>
<glyph glyph-name="uni1EAD" d="M447 136h-208l-31 -77q-14 -32 -37 -47.5t-48 -15.5q-20 0 -38.5 6.5t-33.5 18.5t-24 29t-9 38q0 26 7 39l238 522q12 26 31 42t59 16q38 0 57.5 -16t30.5 -43l217 -521q7 -13 7 -39q0 -20 -9 -37t-23.5 -29t-33.5 -19t-38 -7q-64 0 -86 63zM300 289h94l-43 127zM344 800 l-94 -51q-7 -4 -13 -5t-13 -1q-20 0 -35 15.5t-15 37.5q0 8 6.5 21.5t20.5 21.5l117 63q18 5 27 5q6 0 12.5 -1t11.5 -4l117 -63q14 -8 20.5 -21.5t6.5 -21.5q0 -22 -15 -37.5t-35 -15.5q-15 0 -25 6zM269 -143q0 32 21 53.5t52 21.5q32 0 53 -21.5t21 -53.5 q0 -31 -21 -51.5t-53 -20.5q-31 0 -52 20.5t-21 51.5z" unicode="ậ"/>
<glyph glyph-name="uni1EAE" d="M447 136h-208l-31 -77q-14 -32 -37 -47.5t-48 -15.5q-20 0 -38.5 6.5t-33.5 18.5t-24 29t-9 38q0 26 7 39l238 522q12 26 31 42t59 16q38 0 57.5 -16t30.5 -43l217 -521q7 -13 7 -39q0 -20 -9 -37t-23.5 -29t-33.5 -19t-38 -7q-64 0 -86 63zM300 289h94l-43 127zM339 847 q-3 -1 -10 -1q-14 0 -22.5 10.5t-8.5 22.5q0 9 5.5 18t20.5 14l133 36q3 1 10 1q14 0 23 -10.5t9 -23.5q0 -9 -5.5 -18.5t-19.5 -13.5zM452 857q16 0 28 -12.5t12 -29.5q0 -21 -13.5 -37.5t-34 -28t-44 -17.5t-43.5 -6q-21 0 -44.5 6t-44 17.5t-34 28t-13.5 37.5 q0 17 11.5 29.5t28.5 12.5q18 0 27 -8t16.5 -18t18.5 -18t34 -8q22 0 33 8t18.5 18t16.5 18t27 8z" unicode="Ắ"/>
</font>
</defs>
</svg>
