<?xml version="1.0" standalone="no"?>
<!DOCTYPE svg PUBLIC "-//W3C//DTD SVG 1.1//EN" "http://www.w3.org/Graphics/SVG/1.1/DTD/svg11.dtd" >
<svg xmlns="http://www.w3.org/2000/svg">
<metadata></metadata>
<defs>
<font id="antroposfreefont" horiz-adv-x="733" >
<font-face units-per-em="2048" ascent="1638" descent="-410" />
<missing-glyph horiz-adv-x="643" />
<glyph horiz-adv-x="0" />
<glyph unicode="&#xd;" horiz-adv-x="643" />
<glyph unicode=" "  horiz-adv-x="643" />
<glyph unicode="&#x09;" horiz-adv-x="643" />
<glyph unicode="&#xa0;" horiz-adv-x="643" />
<glyph unicode="!" horiz-adv-x="794" d="M236 252l239 33l41 -84l-27 -197l-251 -22zM252 1468l377 41l-156 -1005l-176 -60q-10 240 -39 666q-10 117 -6 358z" />
<glyph unicode="&#x22;" horiz-adv-x="1136" d="M186 1485l303 53q-26 -227 -118 -471l-127 -102zM549 1511l305 50q-52 -201 -113 -439l-147 -104z" />
<glyph unicode="#" horiz-adv-x="2291" d="M190 582q0 51 36 85.5t85 34.5q51 0 87 -34.5t36 -85.5q0 -49 -36 -85t-87 -36q-49 0 -85 35.5t-36 85.5zM193 1368l92 244h37l88 -244h-37l-25 74h-96l-27 -74h-32zM209 582q0 -43 29.5 -74t72.5 -31q45 0 75 31t30 74q0 45 -30 74.5t-75 29.5q-43 0 -72.5 -29.5 t-29.5 -74.5zM213 6v244h33v-215h123v-29h-156zM217 913v244h168v-29h-135v-73h119v-31h-119v-111h-33zM250 584q0 70 61 69q55 0 60 -49h-21q-2 31 -35 31q-43 0 -43 -51q0 -53 43 -54q29 0 37 29h21q-8 -47 -58 -47q-66 0 -65 72zM262 1468h76l-37 107zM403 113v137h35 v-152q0 -70 60 -69q63 0 63 69v152h35v-137q0 -113 -96 -113t-97 113zM424 913v244h113q80 0 79 -65q0 -41 -34 -58q29 -12 30 -47v-33q2 -14 15 -34v-7h-41q-4 6 -4 29l-2 41q-2 35 -48 35h-75v-105h-33zM438 1368v244h39l123 -197v197h33v-244h-37l-125 197v-197h-33z M457 1047h75q52 0 52 43q0 39 -47 38h-80v-81zM563 629v22q55 4 64 45h24v-235h-33v168h-55zM627 221v29h196v-29h-82v-215h-32v215h-82zM664 1583v29h196v-29h-82v-215h-33v215h-81zM668 913v244h178v-29h-146v-73h134v-29h-134v-82h148v-31h-180zM731 616q0 82 78 82 q82 1 82 -110q0 -133 -86 -133q-70 0 -70 63h29q2 -39 41 -39q47 0 57 90q-18 -29 -57 -28q-74 0 -74 75zM762 616q0 -49 47 -49t47 51t-45 52q-49 0 -49 -54zM836 6v27l149 188h-139v29h180v-29l-149 -186h149v-29h-190zM895 913v244h176v-29h-145v-73h135v-29h-135v-82 h147v-31h-178zM895 1368v244h113q80 0 79 -66q0 -41 -34 -59q29 -10 30 -45v-33q0 -14 13 -35v-6h-39q-4 6 -4 27l-2 41q-2 37 -47 37h-76v-105h-33zM920 616q0 82 77 82q82 1 82 -110q0 -133 -86 -133q-70 0 -69 63h28q2 -39 41 -39q47 0 58 90q-18 -29 -58 -28 q-74 0 -73 75zM928 1499h76q51 0 51 43q0 41 -47 41h-80v-84zM950 616q0 -49 47 -49t47 51t-45 52q-49 0 -49 -54zM1108 526q0 43 41 60q-33 14 -33 47q0 66 74 65q72 0 72 -59q0 -35 -31 -51q39 -19 39 -60q0 -76 -80 -75q-82 0 -82 73zM1120 913v244h168v-29h-135v-73h119 v-31h-119v-111h-33zM1122 1489q0 129 119 129t119 -125q0 -131 -121 -131q-117 0 -117 127zM1141 526q0 -45 49 -45t49 43q0 47 -51 47q-47 0 -47 -45zM1147 633q0 -35 41 -35q43 0 43 37q0 35 -43 35q-41 0 -41 -37zM1153 6v244h104q72 0 72 -62q0 -35 -33 -51 q45 -16 45 -59q0 -72 -86 -72h-102zM1157 1487q0 -96 86 -96q84 0 84 102q0 96 -84 96q-86 0 -86 -102zM1186 35h71q52 0 52 45q0 41 -58 41h-65v-86zM1186 147h59q51 0 51 37t-51 37h-59v-74zM1311 1034q0 129 119 129q118 0 118 -123q0 -133 -121 -133q-117 0 -116 127z M1346 1032q0 -96 86 -96q81 0 81 104q0 94 -81 95q-86 0 -86 -103zM1360 6l92 244h37l88 -244h-37l-24 74h-97l-26 -74h-33zM1403 1368v244h108q72 0 72 -70q0 -72 -72 -72h-75v-102h-33zM1405 461v241h104q70 0 70 -59q0 -35 -33 -51q45 -19 45 -62q0 -70 -84 -69h-102z M1430 106h75l-37 107zM1436 489h71q52 0 52 43q0 41 -58 41h-65v-84zM1436 600h61q49 0 49 39q0 37 -51 37h-59v-76zM1436 1499h65q49 0 49 43q0 41 -49 41h-65v-84zM1585 6l92 244h37l88 -244h-35l-24 74h-96l-27 -74h-35zM1587 913v244h39l123 -196v196h31v-244h-37 l-125 197v-197h-31zM1612 702h39l69 -116l70 116h39l-92 -143v-98h-33v98zM1612 1489q0 129 119 129q118 0 118 -125q0 -131 -120 -131q-117 0 -117 127zM1647 1487q0 -96 86 -96q84 0 84 102q0 96 -84 96q-86 0 -86 -102zM1655 106h76l-37 107zM1812 1128v29h197v-29h-82 v-215h-33v215h-82zM1837 6v244h113q80 0 80 -66q0 -41 -35 -59q29 -10 28 -45l2 -33q0 -14 13 -35v-6h-39q-4 6 -6 27l-2 41q0 37 -47 37h-74v-105h-33zM1870 137h76q49 0 49 43q0 41 -45 41h-80v-84zM1880 1446h31q2 -57 67 -57q63 0 64 43q0 31 -53 43l-33 6 q-68 16 -68 61q0 76 86 76q92 0 92 -78h-30q-6 49 -62 49q-55 0 -55 -41q0 -27 59 -39l33 -8q62 -14 62 -65q0 -74 -97 -74q-98 0 -96 84z" />
<glyph unicode="$" horiz-adv-x="1058" d="M133 111q221 61 299 100q172 82 172 205q0 53 -33 114q-53 102 -178 203q-133 106 -172 166q-78 119 -74 322q2 109 234 215l2 180l260 16l-22 -88l233 25l18 -121q-446 -86 -434 -291q8 -121 101 -211q88 -72 176 -143q104 -86 129 -182q33 -127 33 -189 q0 -106 -117 -231q-47 -53 -131 -97l-4 -208l-226 -17l17 168l-217 -55z" />
<glyph unicode="%" horiz-adv-x="1888" d="M170 1114q0 102 31 191q53 78 145 120q78 39 146 33q150 -8 206 -35q78 -34 123 -143q20 -51 21 -113q0 -182 -162 -362q-188 -76 -225 -70q-147 18 -222 135q-63 98 -63 244zM281 -25q166 365 491 799q291 371 580 742l194 -3q-250 -311 -547 -741q-96 -137 -518 -764z M348 1171q0 -248 135 -247q35 0 80 14q102 31 103 170q0 76 -41 129q-47 57 -127 57q-17 0 -35 -2q-78 -12 -115 -121zM936 350q0 109 43 221q51 78 143 113q74 29 148 25q150 -10 205 -35q79 -38 122 -144q23 -53 23 -120q0 -115 -53 -224q-55 -115 -142 -163 q-63 -35 -192 -39q-150 29 -227 133q-70 94 -70 233zM1126 420q0 -272 138 -273q35 0 75 21q109 55 109 192q0 76 -41 127q-49 57 -131 58q-17 0 -35 -4q-80 -10 -115 -121z" />
<glyph unicode="&#x26;" horiz-adv-x="1531" d="M111 426q14 162 108 246q70 63 225 110q-123 121 -145 164q-27 55 -27 203q0 154 152 235q129 70 319 70q117 0 213 -27q66 -20 134 -106q74 -94 69 -182q-4 -172 -112 -275q-49 -45 -234 -147l332 -338l129 18l133 -121l-111 -79l123 -134l-188 -88l-154 115 q-272 -115 -497 -115q-109 0 -215.5 26t-186.5 160t-67 265zM406 420q0 -88 53 -154q74 -94 229 -96q170 -2 250 72l-356 346q-43 -16 -78 -35q-80 -47 -94 -100q-4 -12 -4 -33zM506 1096q0 -55 49 -115q59 -68 117 -137q96 41 166 108q88 86 92 181q8 131 -191 131 q-72 0 -134.5 -19.5t-72.5 -46.5q-27 -59 -26 -102z" />
<glyph unicode="'" horiz-adv-x="487" d="M55 1542l324 37q-20 -144 -53 -238q-33 -78 -123 -299l-99 60z" />
<glyph unicode="(" horiz-adv-x="978" d="M164 786q0 254 121 484q98 186 303 395l180 -39q-111 -141 -236 -401q-141 -291 -141 -428q0 -135 55.5 -248t110.5 -221q78 -190 186 -330l-198 -66q-152 143 -266.5 397.5t-114.5 456.5z" />
<glyph unicode=")" horiz-adv-x="1001" d="M176 -10q113 141 238 399q139 291 139 430q0 145 -33 244q-45 106 -88 212.5t-231 342.5l192 63l111 -116q129 -133 203 -342q71 -199 71 -396q0 -180 -137 -470.5t-276 -407.5z" />
<glyph unicode="*" horiz-adv-x="1155" d="M100 1085l86 226l269 -137l-56 292l242 17l10 -297l275 188l86 -203l-342 -139l227 -198l-180 -140l-199 260l-153 -292l-191 118l211 228z" />
<glyph unicode="+" horiz-adv-x="1406" d="M147 487l31 189l359 18q29 98 28 197q0 27 -3 86t-3 92l289 16l-49 -389l401 2l-24 -192q-68 -4 -132 0q-82 8 -112 8q-57 0 -137 -8l28 -445l-317 -34l55 483z" />
<glyph unicode="," horiz-adv-x="573" d="M12 -197q57 111 94 226q8 31 62 235l248 -24q-9 -25 -21 -97q-16 -86 -45 -137q-25 -39 -94 -115q-33 -33 -127 -120z" />
<glyph unicode="-" horiz-adv-x="942" d="M86 479l37 211q74 12 239 29q59 4 424 10l-77 -221q-25 -6 -74 -14q-27 0 -549 -15z" />
<glyph unicode="." horiz-adv-x="739" d="M154 0v270l307 13l26 -33l-30 -230z" />
<glyph unicode="/" horiz-adv-x="882" d="M-143 -59q184 301 368 604q190 317 330 637q135 307 252 475l205 -29q-406 -944 -908 -1769z" />
<glyph unicode="0" horiz-adv-x="1341" d="M82 803q4 117 20 211q39 227 123 303q140 124 312 149q57 8 125 9q199 0 307 -39q252 -94 243 -607q-4 -305 -83.5 -488t-264.5 -298q-55 -35 -141 -41q-72 0 -145 -2q-86 -6 -195 47q-119 55 -162 135q-70 133 -110 350q-31 168 -29 271zM358 965q0 -4 21 -418 q14 -293 227 -359q172 53 223 127q43 59 70 252q29 221 29 353q-1 118 -21 198q-45 164 -278 164q-39 0 -74 -6q-78 -12 -133 -88q-43 -59 -57 -131q-6 -29 -7 -92z" />
<glyph unicode="1" horiz-adv-x="757" d="M57 1245l39 141l496 64q-20 -240 -45 -705l-12 -710l-259 -37l-26 1194z" />
<glyph unicode="2" horiz-adv-x="1089" d="M49 -2q-12 213 31 238q127 68 336 311q233 270 252 424q6 25 6 61q0 78 -23 150q-29 82 -69 96q-20 2 -43 2q-135 0 -349 -70l-69 131q37 35 168 74q123 37 203 43q90 4 292 -22q57 -31 111 -86q61 -63 70.5 -117.5t9.5 -114.5q0 -106 -27 -219q-21 -86 -41 -121 q-92 -162 -205 -289q-123 -135 -247 -270q195 -14 528 -37l-8 -168q-98 -10 -238 -8q-190 4 -225 4z" />
<glyph unicode="3" horiz-adv-x="1165" d="M113 203q119 -20 239 -21q270 0 377 109q53 53 55 209q2 76 -82 176q-14 18 -106 18q-88 0 -320 -24l15 161q123 12 211 48q174 66 211 202q6 23 6 47q0 106 -86 144q-51 20 -123 20q-139 0 -313 -73l-50 147q207 82 381 92q94 6 197 -8q125 -18 186 -59 q31 -20 64 -109.5t26 -124.5q-23 -156 -174 -303q104 -31 179 -113q55 -59 74.5 -117.5t19.5 -123.5q0 -139 -94 -305q-72 -129 -355 -199q-53 -14 -155 -14q-219 0 -344 38z" />
<glyph unicode="4" horiz-adv-x="1214" d="M20 471q57 98 207 377q125 236 219 381q57 74 326 221l266 18q-20 -154 -34 -391q-14 -215 -37 -631l209 13l-35 -185l-180 -6l-17 -233l-219 -55l-10 276l-555 -12zM311 438l394 -8q10 283 12 744q-49 -39 -88 -76q-94 -88 -117 -150q-80 -148 -201 -510z" />
<glyph unicode="5" horiz-adv-x="1171" d="M100 23l29 170q63 -18 145 -19q158 0 299 55q61 51 105 127q49 88 49 170q0 76 -45 140q-55 76 -328 120q-6 -20 -55 -20q-66 0 -186 33q66 238 147 633q381 16 696 30l-20 -145l-424 -60q-39 -106 -102 -301q45 4 104 5q328 0 461 -144q31 -31 51.5 -113.5t20.5 -160.5 q0 -25 -5 -47q-14 -115 -127 -277q-205 -211 -387 -221q-252 -16 -428 25z" />
<glyph unicode="6" horiz-adv-x="1224" d="M72 563q8 512 211 748q162 186 700 184l-37 -158q-94 -4 -166 -10q-174 -18 -213 -53q-156 -145 -184 -494q-4 -49 -4 -106q0 -395 156 -467q49 -23 100 -23q82 0 168 64q74 55 74 215q0 123 -60 205q-70 98 -205 102l-141 6l33 154q119 8 201 8q174 -2 294 -96 q131 -102 148 -287q6 -57 -24.5 -178t-57.5 -166q-59 -96 -197 -162q-111 -51 -231 -67q-23 -2 -49 -2q-109 0 -224.5 49t-173.5 125q-121 246 -118 409z" />
<glyph unicode="7" horiz-adv-x="1007" d="M35 25q45 127 182 460q23 55 162 238q150 199 170 235q45 80 135 322l-631 -76l29 252q700 0 891 8l-12 -174q-27 -100 -54 -182q-66 -198 -127 -274q-68 -86 -118 -158q-127 -172 -156 -242q-35 -80 -72 -223q-49 -182 -67 -240z" />
<glyph unicode="8" horiz-adv-x="1222" d="M45 438q0 113 66 199q41 57 73 80q41 29 127 57q-39 25 -67 45q-70 51 -78 78q-31 119 -31 182q0 76 43 183q39 94 164 163.5t244 67.5q199 -2 327 -70q164 -84 160 -252q-4 -106 -12 -149q-18 -82 -74 -129q-12 -18 -24 -35q-23 -33 -78 -65q190 -102 213 -162 q25 -66 24 -148q0 -115 -43.5 -226.5t-111.5 -164.5q-141 -117 -392 -117q-244 0 -358 101q-76 66 -123 160q-49 102 -49 202zM362 418q10 -150 87 -197q49 -31 163 -22q113 6 172 75q51 59 52 150q0 109 -66 190q-72 86 -166 70q-129 -23 -180 -70q-72 -61 -62 -196z M410 1128q-4 -248 127 -276q33 -6 61 -6q102 0 154 94q35 66 55 205q-31 121 -76 147q-30 19 -145 15q-96 -4 -129 -31q-45 -35 -47 -148z" />
<glyph unicode="9" horiz-adv-x="1236" d="M68 995q0 109 41 201q66 147 176 205q92 49 274 61q203 12 354 -63q92 -43 148 -139q51 -88 49 -185q-10 -694 -385 -995q-98 -80 -530 -100l-58 126q104 14 193 37q209 55 297 148q63 70 110 239q61 215 64 519q0 106 -55.5 176.5t-141.5 70.5q-66 0 -135 -45 q-113 -76 -117 -229q-4 -319 178 -365q49 -12 142 -36l-60 -123l-155 12q-168 12 -281 162q-109 141 -108 323z" />
<glyph unicode=":" horiz-adv-x="729" d="M158 0l16 268l305 13l33 -68l-29 -193zM184 662l15 270l307 10l31 -47l-27 -213z" />
<glyph unicode=";" horiz-adv-x="731" d="M154 -195l10 37q12 57 31 201q14 121 14 141q0 47 -14 123l292 29l27 -55l-188 -392zM199 614l16 271l297 28l39 -157l-23 -103z" />
<glyph unicode="&#x3c;" horiz-adv-x="1499" d="M117 518l61 115q213 106 551 270q162 76 555 205v-203q-127 -57 -334 -149q-109 -47 -432 -156q268 -53 436 -111q170 -63 338 -124l-2 -185q-565 143 -1173 338z" />
<glyph unicode="=" horiz-adv-x="1249" d="M150 270l32 170q78 23 260 54q166 10 588 6l-33 -174q-274 -4 -847 -56zM188 764q86 14 281 35q188 8 575 22l-20 -184q-39 -8 -90 -14q-156 -14 -361 -19q-178 -4 -356 -6z" />
<glyph unicode="&#x3e;" horiz-adv-x="1662" d="M180 98l49 183q305 117 357 137q154 68 409 211q-283 51 -438 102q-182 70 -364 139l2 162q362 -78 575 -139q141 -41 553 -178l92 -115q-238 -113 -477 -227q-262 -123 -442 -195q-119 -45 -166 -51q-18 0 -150 -29z" />
<glyph unicode="?" horiz-adv-x="1409" d="M279 1411q240 119 417 119q55 0 121 -8q328 -45 381 -209q16 -53 16 -148q0 -147 -50 -216.5t-156 -155.5q-117 -96 -138 -119q-37 -41 -102 -254l-283 -27q2 207 68 299q49 68 250 195q106 113 106 239q0 25 -4 50q-18 92 -143 159q-33 10 -76 11q-115 0 -340 -91z M459 233l295 33l41 -84l-27 -178l-307 -22z" />
<glyph unicode="@" horiz-adv-x="1665" d="M102 752q-6 217 77 379.5t245 237.5t389 75q250 0 453 -94q96 -43 147 -181q47 -119 47 -272q0 -139 -38.5 -241.5t-151.5 -186.5q-119 -88 -232 -88q-92 0 -153 63q-61 -45 -148 -45q-23 0 -69 7q-92 10 -140 116q-41 92 -41 219q0 336 304 349q55 2 299 -46 q-18 -94 -43 -505q133 33 178 125q39 78 49 284q-10 330 -459 330q-49 0 -117 -4q-170 -10 -280 -166q-104 -147 -101 -340q8 -293 191 -451q170 -145 457 -145q39 0 77 2q72 4 406 80l-31 -211q-193 -55 -471 -55q-158 0 -278 22q-74 14 -181 72q-119 63 -159 119 q-100 137 -140 211q-80 160 -86 340zM643 725q0 -170 78 -178q57 -6 149 51l35 317q-66 31 -143 29q-57 0 -90 -70q-29 -61 -29 -149z" />
<glyph unicode="A" horiz-adv-x="1439" d="M51 14q125 831 211 1080q84 238 88 254q47 123 111 247l514 33q213 -721 293 -1182l-4 -440l-267 31l-34 299l-404 -39l-174 43l-98 -332zM422 494l518 34q4 31 8 84q2 78 -70.5 407t-101.5 372l-192 -19q-135 -420 -135 -579z" />
<glyph unicode="B" horiz-adv-x="1435" d="M145 190q2 233 13 699l6 231q0 20 -2 262q-4 111 -6 224q84 3 169 3q275 0 556 -30q84 -10 170 -152l4 -4q0 -2 2 0v-2q6 -8 20 -43q88 -199 88 -299q0 -27 -8 -39q-61 -92 -194 -168q59 -14 182 -47q111 -39 133 -79q17 -31 17 -102q0 -19 -1 -42q-6 -53 -14 -135 q-6 -74 -74 -207q-76 -145 -141 -176q-188 -87 -409 -87q-27 0 -54 1q-147 6 -450 35q-6 96 -7 157zM426 946q0 -80 8 -129q-1 -45 -1 -91q0 -241 18 -501q69 -24 237 -24h14q137 0 166 18q57 37 103 160q39 113 39 209q0 61 -19 80q-43 37 -336 37h-59l10 147l135 37 q43 33 74 59q76 70 78 105v7q0 74 -119 345l-334 -19q0 -33 -8 -352q-6 -20 -6 -88z" />
<glyph unicode="C" horiz-adv-x="1230" d="M51 967q31 258 103 419q131 147 233 177t287 30q326 0 485 -51l-63 -166q-156 27 -283 27q-164 0 -264 -47q-61 -29 -108.5 -88.5t-55.5 -124.5q-6 -90 -6 -187q0 -387 74 -630q16 -53 77 -95q70 -49 172 -61q30 -4 67 -4q59 0 136 10q102 14 205 29l-45 -164l-383 -53 q-369 39 -424 110q-76 94 -131 312q-59 238 -76 557z" />
<glyph unicode="D" horiz-adv-x="1480" d="M125 1581l575 33h4q38 0 209 -37q215 -45 273 -94q31 -45 90 -142q45 -94 45 -229v-12q-10 -752 -250 -981q-55 -53 -203 -86q-123 -27 -229 -27q-113 0 -453 8q-14 317 -41 926q-4 211 -20 641zM471 176l147 -2l295 105q96 279 105 821l-8 -2q0 -4 2 -6q6 -2 8 2 q1 2 1 6.5t-1 11.5q-6 43 -27 156l-213 123l-301 -13l-8 -227q-4 -87 -4 -331t4 -644z" />
<glyph unicode="E" horiz-adv-x="1208" d="M135 977q-5 140 -5 247q0 296 37 334q50 50 892 54l-37 -160q-473 -25 -522 -82q-39 -45 -39 -423v-38l37 -45l499 -16l-18 -148l-520 -45q2 -113 6 -196q14 -203 41 -236q29 -30 311 -30q103 0 240 4l-25 -146q-485 -51 -708 -51q-111 0 -119 14q-37 59 -55 572z" />
<glyph unicode="F" horiz-adv-x="1167" d="M131 1475l49 88l897 24l-69 -155l-471 -70l-66 -49q-6 -98 -10 -199q-5 -87 -5 -155q0 -51 3 -93l571 -2l-29 -157l-538 -52l-17 -630l-258 -29q-6 340 -49 1085z" />
<glyph unicode="G" horiz-adv-x="1380" d="M104 1090q0 115 9 200q18 209 67 250q39 33 295 53q207 16 402 17q117 0 333 -43l-47 -148l-243 23q-111 -14 -197 -29q-203 -35 -244 -76q-45 -47 -71 -297q-1 -15 -1 -32q0 -193 60 -770q256 -76 373 -76q31 0 47 6q68 22 68 279q0 36 -1 77q-4 35 -22 162l-146 12 l33 125q307 -9 402 -9q31 0 39 1l-80 -741q-137 -66 -371 -90q-94 6 -309 22q-219 27 -269 62q-59 174 -94 499q-33 276 -33 523z" />
<glyph unicode="H" horiz-adv-x="1587" d="M137 1573l334 12q-7 -207 -7 -377q0 -245 15 -411l559 20l43 787l310 43l-60 -936q-31 -567 -31 -643l-210 -82l-39 57l-11 594l-571 -74l-16 -540l-273 -23v42q0 125 -7 517q-9 479 -15 623q-2 8 -17 194q-5 79 -5 140q0 31 1 57z" />
<glyph unicode="I" horiz-adv-x="747" d="M152 1571l383 35q-23 -397 -43 -793q-23 -431 -23 -744v-49l-233 -18l-68 1184q-2 121 -16 385z" />
<glyph unicode="J" horiz-adv-x="1013" d="M20 1526l863 80q-10 -250 -39 -654q-35 -512 -43 -655q-53 -111 -70 -139q-53 -96 -94 -115q-68 -29 -151 -40t-160 -21q-41 -7 -100 -7q-67 0 -158 9l-15 133q293 41 377 63q55 16 127 142q3 545 4 545v-52q0 260 -24 522l-488 17z" />
<glyph unicode="K" horiz-adv-x="1492" d="M119 1573l366 18l-14 -719l340 80q55 145 203 467q49 94 59 142l285 24q-72 -266 -129 -348q-98 -131 -262 -397l231 -191q147 -420 201 -602l-182 -100q-109 258 -205 413q-109 174 -287 367l-256 -8q3 -20 3 -98.5t-3 -217.5q-4 -283 -12 -385l-271 -12 q-66 1294 -67 1567z" />
<glyph unicode="L" horiz-adv-x="1034" d="M135 1583l397 33q-37 -233 -45 -379q-25 -434 -49 -1010l566 -37l-27 -145l-823 -61q2 23 8 393q1 60 1 128q0 203 -9 476q-18 559 -19 602z" />
<glyph unicode="M" horiz-adv-x="1964" d="M139 408q0 207 17 333q25 297 69 813l398 37l67 -139q127 -260 273 -801q47 184 127 381q55 125 108 250q49 102 143 315l336 -14q10 -186 58 -772q37 -473 45 -772l-320 -53l-16 1224l-60 -20q-229 -532 -335 -911l-246 -37q-31 168 -133 473q-137 401 -164 493l-68 -41 q0 -174 -14 -479q-12 -319 -12 -475q0 -106 4 -203l-264 6q-12 201 -13 392z" />
<glyph unicode="N" horiz-adv-x="1622" d="M117 1251q2 8 69 316q111 6 396 22q152 -242 301 -485q178 -301 276 -561l-26 1061l342 10q-35 -311 -62 -582q-61 -645 -67 -969l-232 -57q-84 264 -252 602q-176 358 -350 596l-61 -28q-10 -1069 -13 -1160l-229 -22z" />
<glyph unicode="O" horiz-adv-x="1531" d="M70 1190q47 152 100 231q78 113 201 154q172 55 358 55q301 0 451 -106q96 -68 135 -185q35 -104 35 -288q0 -96 -11 -291q-6 -109 -96 -334q-98 -251 -184 -317q-57 -45 -303 -109q-307 8 -357 51q-160 141 -219 285q-45 102 -90 373q-21 322 -21 436q0 30 1 45z M381 887q-2 -72 -2 -130q0 -116 8 -177q20 -152 135 -291q37 -45 228 -45q104 0 151 26q27 14 82 275q63 291 64 502q0 256 -101 303q-41 20 -352 43q-55 -12 -129 -82t-74 -121q-4 -94 -10 -303z" />
<glyph unicode="P" horiz-adv-x="1251" d="M78 1585q144 7 304 7q220 0 470 -13q57 -18 154 -98q39 -72 106.5 -291t65.5 -272l-93 -199q-297 -203 -446 -236q-46 -9 -109 -9q-55 0 -122 7q-3 -42 -3 -106q0 -128 11 -346l-332 -37q2 262 10 786v67q0 140 -6 337q-10 322 -10 403zM406 1399q0 -252 12 -731h1 q72 0 445 217q2 9 2 22q0 101 -104 449l-82 37z" />
<glyph unicode="Q" horiz-adv-x="1572" d="M129 1249q49 147 98 213q70 96 195 135q143 43 301 43q160 0 305 -45q129 -37 197 -92q159 -124 159 -469q0 -117 -12 -297q-6 -80 -63 -243q-63 -178 -138 -299l320 -95l-55 -157q-432 64 -529 64q-15 0 -22 -1q-59 -10 -111 -18q-326 12 -375 57q-115 104 -161 205 q-43 88 -66 246q-8 66 -31 211q-13 350 -13 480q0 43 1 62zM432 1204q-9 -75 -9 -204q0 -168 15 -427q2 -61 38 -154t71 -138q18 -23 110.5 -44.5t178.5 -21.5q76 0 110 21q29 14 101 284q79 301 79 513v5q0 248 -117.5 296t-330.5 48q-49 -8 -141 -34q-94 -43 -105 -144z " />
<glyph unicode="R" horiz-adv-x="1382" d="M127 6q12 190 18 580l2 196l-16 801l393 23l2 2v-2h2q8 0 58 -2q201 -16 383 -35l149 -131q76 -441 76 -514v-9q-66 -76 -131 -153q-90 -102 -150 -117q125 -219 465 -647l-200 -57q-119 111 -285 305q-133 162 -268 325l-174 -39q-6 -172 -6 -295t6 -196zM420 1376v-14 q0 -91 22 -315q14 -130 14 -224q0 -57 -5 -102q174 39 303 119l141 127l-53 436z" />
<glyph unicode="S" horiz-adv-x="1224" d="M102 1272q0 172 23 203q43 57 68 98q33 41 258 41q240 0 577 -37l-43 -168q-15 -1 -33 -1q-37 0 -88 3q-98 6 -121 6h-39q-204 0 -276 -39l-37 -288q20 -29 160 -89q88 -37 178 -73q309 -129 358 -221q16 -33 17 -99q0 -199 -86 -444l2 -2h-2q-14 -31 -29.5 -66 t-42.5 -43q-174 -57 -440 -57q-184 0 -375 27l-18 155q76 -12 170 -12q293 0 489 121q16 10 16 71q0 84 -28 236q-25 25 -318 154q-274 121 -305 174q-35 61 -35 350z" />
<glyph unicode="T" horiz-adv-x="1122" d="M-63 1407l24 149l299 11q227 10 762 22l27 -162l-359 -67l-43 -62q-10 -428 -37 -1273l-243 -50q4 76 4 162q0 123 -15 398q-12 228 -12 356v35v15q0 119 -29 374l-59 37z" />
<glyph unicode="U" horiz-adv-x="1550" d="M96 1561l322 24q-5 -98 -5 -293q0 -146 3 -346q6 -477 20 -543q10 -49 15 -65q12 -37 30 -62q59 -82 201 -86q11 -1 22 -1q54 1 114 17q73 20 85 48q74 162 98 352q16 123 21 363q0 88 16 305q12 150 12 260q0 24 -1 45l354 23l-117 -1188q-37 -92 -88 -185 q-102 -176 -194 -206q-74 -23 -302 -23q-266 0 -352 43q-68 35 -145 260q-70 198 -70 282v33q0 159 -20 457q-20 270 -20 433q0 28 1 53z" />
<glyph unicode="V" horiz-adv-x="1280" d="M0 1552l289 37q39 -78 104 -248l2 -6l2 -24l9 -88q35 -348 51 -463q37 -281 92 -445l117 66q16 78 122 582q72 338 125 505q8 27 42 68t42 63l285 27l-106 -354q-96 -305 -193 -610q-113 -362 -176 -629l-434 -51q-119 403 -373 1570z" />
<glyph unicode="W" horiz-adv-x="1910" d="M51 1589l244 17l100 -93q14 -440 62 -1230l57 39l277 1054l292 27q59 -145 109 -440q31 -176 106 -639l84 90l84 796q19 171 19 349v18l334 33q-5 -205 -99 -545q-14 -53 -24 -129l-144 -905l-354 -37q-80 141 -147 432q-41 162 -144 578l-39 -50q-33 -176 -67 -331 q-82 -377 -156 -600l-385 -17q-170 1006 -209 1583z" />
<glyph unicode="X" horiz-adv-x="1368" d="M-20 1509l286 82q178 -330 385 -604q92 131 183 264q102 152 129 234l43 112l292 23q0 -16 -6 -104q-82 -217 -229 -416q-135 -178 -270 -357l469 -653l-291 -115l-338 547q-143 -166 -215 -309q-25 -49 -101 -217l-243 45q59 139 141 283q76 135 260 434 q-57 82 -180 229q-117 141 -162 211q-106 162 -153 311z" />
<glyph unicode="Y" horiz-adv-x="1357" d="M-8 1532l254 55q14 -39 30 -121q25 -121 48 -243q33 -156 69 -224q45 -82 148 -260q43 4 77 11q86 14 121 32q57 29 99 115q29 74 60.5 146.5t51.5 541.5l350 39q-176 -722 -266 -872q-80 -86 -186 -185q-53 -309 -53 -544l-287 -43q-4 338 -29 542q-33 18 -183.5 190.5 t-145.5 180.5q-53 90 -109 326q-49 205 -49 299v14z" />
<glyph unicode="Z" horiz-adv-x="1204" d="M14 180l144 314l288 444q115 176 256 422l-604 18l31 160l918 45l-17 -280q-154 -201 -270 -379q-281 -426 -340 -676l715 -51l-33 -183l-1041 9z" />
<glyph unicode="[" horiz-adv-x="1089" d="M195 213q-1 295 30 1538l623 12l20 -116l-401 20q-31 -373 -66 -1087q0 -109 15 -283q27 -303 28 -328l375 23v-109l-622 2q-2 154 -2 328z" />
<glyph unicode="\" horiz-adv-x="1576" d="M172 1610l274 26q152 -438 338 -796q176 -340 486 -799l-252 -102z" />
<glyph unicode="]" horiz-adv-x="1179" d="M197 -154l28 109l381 22q18 250 39 721q0 23 -16 981l-363 -22l53 90l560 16q12 -70 28 -209q6 -127 6 -268q0 -303 -63 -1362z" />
<glyph unicode="^" horiz-adv-x="1347" d="M211 1356q12 12 16 60t19 61q45 39 116 86q96 66 273 178q141 -76 399 -252l6 -146q-92 51 -442 207z" />
<glyph unicode="_" horiz-adv-x="1591" />
<glyph unicode="`" horiz-adv-x="952" d="M201 1624l286 55q109 -92 218 -245l-175 -43q-8 6 -159 122q-86 66 -170 111z" />
<glyph unicode="a" horiz-adv-x="1310" d="M41 8q35 223 65 404q76 430 125 573q39 115 76 227q27 76 105 228l469 30q193 -653 266 -1069l-4 -401l-248 29l-33 268l-358 -35l-152 39l-90 -297zM389 451l455 28q6 43 6 72v8q0 75 -62 355q-66 296 -92 331l-168 -14q-119 -375 -118 -518z" />
<glyph unicode="b" horiz-adv-x="1292" d="M127 172q2 209 10 627l6 209q-4 221 -4 440q83 3 166 3q242 0 488 -26q53 -6 112 -75q41 -47 47 -68q0 1 1 1q8 0 51 -114q49 -133 49 -198q-1 -25 -9 -37q-51 -78 -165 -148q109 -25 153 -41q100 -33 123 -73q16 -27 16 -88v3q-1 0 -14 -167q-6 -68 -67 -189 q-70 -131 -129 -159q-168 -79 -366 -79q-27 0 -54 1q-127 6 -410 33q-5 66 -5 115q0 16 1 30zM389 858v-29q0 -56 6 -94q-1 -44 -1 -89q0 -213 16 -439q61 -20 221 -21q123 0 147 15q53 35 92 143q35 100 35 184q0 53 -16 70q-37 31 -297 31h-62l11 141l125 33q37 29 65 53 q66 59 70 92q4 59 -107 312l-293 -17q0 -25 -8 -313q-4 -6 -4 -72z" />
<glyph unicode="c" horiz-adv-x="1107" d="M41 874q8 70 22 136q29 152 72 243q37 41 70 72q84 74 143 90q92 27 258 27q305 0 443 -47l-60 -158q-143 25 -256 25q-147 0 -237 -41q-129 -59 -144 -189q-6 -80 -6 -166q0 -352 66 -571q20 -68 110 -107q76 -34 155 -34h5q61 0 162 14q133 18 162 22l-43 -157 l-349 -49q-98 12 -174 26q-180 33 -211 74q-70 88 -118 285q-55 217 -70 505z" />
<glyph unicode="d" horiz-adv-x="1333" d="M106 1427l525 31h4q36 0 188 -33q195 -43 246 -88q41 -63 82 -127q43 -86 43 -210v-11q-10 -678 -227 -887q-49 -47 -185 -77q-111 -25 -207 -25q-98 0 -411 8q-14 287 -37 838q-4 190 -21 581zM428 164l129 -2l262 92q86 248 92 735q-10 74 -22 148l-189 108l-264 -10 l-8 -199q-3 -79 -3 -297t3 -575z" />
<glyph unicode="e" horiz-adv-x="1087" d="M119 879q-5 135 -5 235q0 257 33 289q46 45 814 53l-35 -153q-125 -6 -219 -17q-223 -23 -254 -57q-33 -39 -33 -369v-39l31 -39l452 -16l-16 -139l-469 -41q2 -98 6 -174q12 -180 37 -207q25 -28 296 -28q88 0 201 3l-24 -139q-440 -45 -637 -45q-106 0 -117 14 q-33 53 -49 516z" />
<glyph unicode="f" horiz-adv-x="1050" d="M113 1329l47 80l817 25l-66 -150l-426 -61l-57 -43q-4 -88 -10 -176q-3 -68 -3 -123t3 -97l514 -2l-27 -149l-485 -47l-12 -568l-242 -28q-6 305 -45 985z" />
<glyph unicode="g" horiz-adv-x="1243" d="M88 979q2 104 8 182q16 190 64 230q35 29 266 47q186 14 362 14q102 0 308 -39l-45 -141l-224 20q-98 -12 -174 -24q-182 -31 -217 -68q-43 -43 -65 -264q-1 -14 -1 -31q0 -175 56 -688q222 -67 325 -67h3q27 0 43 6q59 20 59 239q0 35 -2 76q-4 31 -18 141l-134 13 l31 120l406 -10q-29 -285 -74 -672q-117 -59 -336 -81q-86 4 -278 20q-203 23 -246 55q-99 287 -117 922z" />
<glyph unicode="h" horiz-adv-x="1447" d="M121 1421l309 11q-5 -182 -5 -330q0 -233 13 -381l494 18l39 707l289 41l-54 -846q-28 -497 -28 -579v-5l-197 -75l-39 55l-8 530l-506 -65l-14 -486l-250 -20l-25 1067q0 4 -14 178q-5 73 -5 128q0 28 1 52z" />
<glyph unicode="i" horiz-adv-x="663" d="M123 1417l354 33q-20 -360 -39 -719q-20 -385 -20 -667v-50l-219 -18l-60 1071q-4 113 -16 350z" />
<glyph unicode="j" horiz-adv-x="903" d="M4 1378l787 72q-27 -393 -74 -1184q-51 -104 -60 -121q-53 -94 -92 -110q-66 -29 -143 -39q-70 -8 -137 -19q-31 -4 -76 -4q-66 0 -162 9l-14 127q133 18 344 59q49 14 110 123v48q0 456 -36 861l-420 14z" />
<glyph unicode="k" horiz-adv-x="1343" d="M100 1421l342 15l-14 -645l299 69q49 131 180 420q47 86 54 129l268 23q-20 -72 -39 -132q-47 -141 -82 -188q-86 -121 -231 -354l206 -172q66 -190 181 -545l-172 -96q-94 227 -160 338q-102 174 -283 366l-221 -6q2 -16 2 -87.5t-2 -197.5q-6 -260 -14 -346l-250 -12z M428 643z" />
<glyph unicode="l" horiz-adv-x="931" d="M117 1430l366 28q-16 -102 -39 -344q-25 -393 -45 -905l510 -33l-26 -141l-750 -55q4 25 8 360q1 54 1 115q0 183 -9 430q-16 500 -16 545z" />
<glyph unicode="m" horiz-adv-x="1804" d="M111 702l77 703l365 33l61 -129q106 -195 246 -707q47 186 203 555q45 90 131 283l311 -17q8 -178 51 -696q37 -430 43 -698l-294 -49l-21 1099l-51 -8q-186 -496 -266 -805l-258 -57q-27 150 -121 428q-123 367 -146 444l-51 -32q0 -158 -14 -443q-16 -295 -17 -442 q0 -84 5 -160l-242 8z" />
<glyph unicode="n" horiz-adv-x="1482" d="M119 1122l47 291l387 23q193 -328 266 -463q141 -268 203 -463l-21 799l21 135l297 8q-33 -283 -55 -526q-60 -582 -66 -875l-217 -55q-227 694 -498 1096l-69 -33q-29 -399 -33 -1051l-209 -22z" />
<glyph unicode="o" horiz-adv-x="1370" d="M61 1071q43 137 93 211q70 102 182 139q154 51 323 52q270 0 408 -99q88 -61 123 -168q33 -94 33 -260q0 -88 -11 -262q-6 -98 -86 -303q-88 -228 -168 -287q-49 -39 -274 -98q-82 2 -145 8q-150 12 -181 39q-143 127 -198 256q-39 94 -80 338q-20 299 -20 398q0 24 1 36 zM350 799q-1 -56 -1 -102q0 -116 7 -175q18 -135 121 -258q29 -35 195 -35q94 0 141 19q33 14 82 235q51 238 51 432q0 250 -94 295q-37 18 -315 39q-47 -10 -112 -72.5t-67 -105.5q-4 -137 -8 -272z" />
<glyph unicode="p" horiz-adv-x="1163" d="M102 1432q124 6 262 6q206 0 441 -13q51 -16 141 -90q35 -63 96.5 -263t59.5 -249l-84 -180q-80 -53 -150 -94q-168 -98 -256 -117q-41 -9 -101 -9q-45 0 -101 5q-2 -32 -2 -81q0 -115 10 -324l-309 -35q2 238 8 712q1 36 1 77q0 122 -5 290q-10 287 -11 365zM408 1255 q0 -203 12 -634q35 4 88 22q129 43 321 156q1 6 1 15q0 85 -111 419l-72 31z" />
<glyph unicode="q" horiz-adv-x="1415" d="M113 1126q43 133 88 193q63 88 176 123q131 39 272 39q145 0 279 -39q115 -35 178 -86q145 -115 145 -428q0 -100 -12 -264q-6 -74 -57 -220q-55 -162 -121 -268l287 -82l-52 -151q-388 59 -478 59q-14 0 -21 -2q-51 -8 -99 -16q-94 10 -163 18q-164 23 -179 35 q-135 123 -176 260q-10 35 -57 338q-12 311 -12 429q0 45 2 62zM393 1083q-7 -69 -7 -189q0 -150 11 -378q4 -53 36 -137t63 -123q16 -20 98 -38.5t158 -18.5q68 0 98 16q25 14 88 254q72 272 72 463q-1 219 -103 264q-109 37 -297 43q-100 -18 -127 -31q-82 -39 -90 -125z " />
<glyph unicode="r" horiz-adv-x="1245" d="M109 0q12 170 18 526l2 179l-16 722l360 23q174 -14 399 -35l138 -119q68 -392 68 -463q0 -8 -1 -12q-61 -74 -125 -145q-76 -86 -123 -98q111 -195 420 -582l-192 -55q-115 109 -498 567l-149 -33q-5 -156 -5 -266.5t5 -175.5zM381 1235q16 -270 31 -580q147 33 264 105 l123 112l-45 385z" />
<glyph unicode="s" horiz-adv-x="1105" d="M90 1145q0 156 21 184l65 86q29 41 244 41q207 0 514 -33l-41 -159q-8 0 -90 4q-100 4 -164 4q-185 0 -246 -35l-33 -254q14 -23 302 -143q281 -117 323 -203q14 -29 14 -90q0 -180 -75 -402q2 0 -66 -100q-166 -51 -412 -51q-170 0 -329 22l-19 150q72 -12 160 -12 q262 0 436 108q16 8 17 60q0 74 -29 210q-20 20 -283 136q-250 111 -276 159q-33 55 -33 318z" />
<glyph unicode="t" horiz-adv-x="1009" d="M-66 1262l25 143l270 10q197 8 691 21l26 -156l-325 -59l-37 -54q-8 -387 -33 -1149l-229 -47q4 72 4 152q0 111 -13 358q-10 200 -10 316v37v14q0 106 -27 332l-55 32z" />
<glyph unicode="u" horiz-adv-x="1394" d="M82 1409l299 23q-5 -84 -5 -260q0 -132 3 -316q4 -432 18 -491q16 -82 41 -115q51 -70 176 -76h13q51 0 104 14q68 18 78 43q68 147 88 324q14 104 18 317q0 78 15 277q9 123 9 217q0 31 -1 59l330 21l-107 -1075q-37 -92 -76 -160q-94 -166 -180 -195q-65 -22 -257 -22 h-17q-240 0 -318 41q-61 33 -133 235q-63 184 -63 260v26q0 143 -19 413q-17 241 -17 386q0 29 1 54z" />
<glyph unicode="v" horiz-adv-x="1150" d="M-6 1401l268 35q18 -51 51 -113q29 -49 45 -115q-4 0 39 -364q49 -399 99 -553l98 55q16 68 113 522q63 303 110 455q8 25 40 64.5t38 56.5l264 24l-98 -325q-86 -274 -172 -551q-103 -325 -160 -565l-397 -50q-106 365 -338 1424z" />
<glyph unicode="w" horiz-adv-x="1720" d="M41 1434l227 16l92 -86q14 -397 56 -1100l43 29l248 944l272 25q55 -141 98 -371q16 -94 94 -590l70 74l78 715q14 120 14 290v43l307 31q-2 -190 -51 -369q-55 -210 -59 -243l-129 -817l-326 -35q-74 133 -133 362q-63 266 -127 535l-29 -37q-31 -156 -61 -297 q-76 -336 -141 -539l-353 -14q-156 915 -190 1434z" />
<glyph unicode="x" horiz-adv-x="1230" d="M-25 1362l267 76q162 -299 344 -543q6 8 157 229q84 121 101 170l59 148l268 22l-4 -102q-66 -199 -200 -377q-125 -157 -248 -315l424 -590l-273 -109l-303 492q-123 -145 -186 -273q-23 -43 -92 -198l-230 43q53 127 129 258q70 123 234 389q-49 72 -160 205 q-104 127 -147 190q-96 145 -140 285z" />
<glyph unicode="y" horiz-adv-x="1189" d="M-12 1382l235 52q18 -43 60 -263q39 -203 76.5 -272.5t129.5 -226.5q37 -3 67 -3q73 0 106 17q47 25 75 92q33 80 66 162q29 63 47 490l326 36q-47 -195 -89 -344q-100 -362 -153 -450q-20 -18 -88 -88q-45 -47 -96 -76q-47 -276 -48 -492l-266 -39q0 150 -24 490 q-29 14 -158 171t-125 165q-49 82 -98 297q-43 187 -43 269v13z" />
<glyph unicode="z" horiz-adv-x="1083" d="M8 162l129 284l473 756l-528 33l31 151l833 46l-16 -261q-137 -180 -242 -342q-254 -385 -307 -602l649 -45l-31 -174l-948 8z" />
<glyph unicode="{" horiz-adv-x="1263" d="M162 741v45q94 18 239 86q41 106 43 261q3 207 13 264q20 143 90 192q113 78 239 94q119 6 238 13v-51q-66 -8 -131 -15q-80 -10 -111 -47q-78 -92 -77 -188q0 -20 4 -77.5t4 -98.5q0 -164 -76 -310q-27 -53 -219 -133q53 -12 94 -24q94 -31 102 -50q57 -129 66 -233 v-283q0 -23 32.5 -75t55.5 -66q117 -68 231 -65l-2 -52q-92 -4 -108 -4q-307 0 -350 76q-74 129 -85.5 182.5t-11.5 251.5q0 102 -4 129q-8 72 -43 113q-49 55 -233 65z" />
<glyph unicode="|" horiz-adv-x="946" d="M330 1653l272 16l-10 -2124l-254 -16z" />
<glyph unicode="}" horiz-adv-x="1243" d="M160 -125l2 51q213 2 280 140q37 76 52 307q12 221 71 317q31 49 193 105q-53 27 -94 49q-96 55 -111 82q-70 133 -70 250q0 25 4.5 96t4.5 125q0 18 -68 157q-137 39 -238 35v53q106 6 119 7q154 0 205 -7q119 -16 166 -78.5t57 -199.5q2 -39 2 -240q0 -158 66 -235 q129 -47 223 -51v-45q-94 -18 -238 -95q-25 -70 -32 -262q-8 -184 -15 -198q-18 -61 -34 -111q-43 -119 -78 -147q-82 -68 -217 -89q-23 -4 -250 -16z" />
<glyph unicode="~" horiz-adv-x="1259" d="M182 1343q156 223 258 248q96 -6 215 -50t123 -44q45 0 185 68q4 2 55 -4l-51 -131q-82 -82 -88 -87q-57 -49 -109 -49q-33 0 -152.5 59.5t-171.5 59.5q-39 0 -104 -55l-94 -86z" />
<glyph unicode="&#xa0;" />
<glyph unicode="&#xa1;" horiz-adv-x="774" d="M182 1032l27 103l328 47l-19 -262l-293 -37zM197 -375q20 72 20 115q2 121 12.5 299t12.5 299q-2 102 6 297l248 61q18 -170 18 -368q0 -55 -2 -165t-2 -165q0 -173 14 -320z" />
<glyph unicode="&#xa2;" horiz-adv-x="1253" d="M203 782q0 254 256 424q68 45 151 80l4 184l238 41l-27 -208q94 -8 185 -29l-2 -152q-80 31 -236 8q-100 -14 -192 -83q-127 -96 -134 -242q-6 -129 129 -273q121 -129 201 -135q96 -4 238 43l-4 -153q-20 -8 -80 -19q-74 -10 -121 -24l4 -185l-203 -45l4 209 q-160 80 -278 230q-133 168 -133 329z" />
<glyph unicode="&#xa4;" horiz-adv-x="2068" d="M274 344q205 131 205 145q0 6 -32.5 32t-53.5 67q-29 61 -28 160q0 186 157 325l-168 168l224 121l92 -195q147 68 317 68q80 0 131 -18q10 -2 113 -52l166 185l229 -56l-256 -219q160 -139 160 -327q0 -133 -113 -259l166 -114l-145 -180l-221 151q-53 -29 -106.5 -57.5 t-123.5 -28.5q-215 1 -385 105l-176 -177zM598 756q0 -109 110.5 -188t268.5 -79q147 0 225 80q70 70 70 187q0 119 -70 188q-78 78 -225 78q-158 0 -268.5 -78t-110.5 -188z" />
<glyph unicode="&#xa5;" />
<glyph unicode="&#xa7;" horiz-adv-x="1300" d="M117 721q0 145 53 225q35 51 127 105q63 37 125 57q-176 55 -176 250q0 27 4 55q12 106 137 162q111 49 266 41q266 -14 414 -141l-72 -109q-219 94 -360 96q-98 -27 -105.5 -34t-37.5 -105q66 -90 190 -133q113 -37 227 -74q190 -86 191 -321q0 -29 -2 -60 q-6 -78 -62 -170q-70 -119 -174 -168q106 -45 148 -84q49 -51 51 -137q4 -139 -174 -229q-158 -80 -352 -80q-102 0 -170 27q-33 14 -183 118l115 123q160 -102 262 -102q16 0 33 4q180 43 180 147q0 127 -340 154q-123 39 -223 166q-92 121 -92 217zM387 752q0 -41 8 -95 q8 -68 82 -115.5t160 -47.5q195 0 205 223q10 238 -156 237q-24 0 -51 -4q-4 -2 -86 -4q-53 -2 -86 -18q-76 -41 -76 -176z" />
<glyph unicode="&#xa8;" horiz-adv-x="1003" d="M96 1620l4 106l142 125l151 -61l25 -88l-156 -113zM549 1692l24 127l197 43l94 -148l-55 -84l-199 -20z" />
<glyph unicode="&#xa9;" horiz-adv-x="2291" d="M190 582q0 51 36 85.5t85 34.5q51 0 87 -34.5t36 -85.5q0 -49 -36 -85t-87 -36q-49 0 -85 35.5t-36 85.5zM193 1368l92 244h37l88 -244h-37l-25 74h-96l-27 -74h-32zM209 582q0 -43 29.5 -74t72.5 -31q45 0 75 31t30 74q0 45 -30 74.5t-75 29.5q-43 0 -72.5 -29.5 t-29.5 -74.5zM213 6v244h33v-215h123v-29h-156zM217 913v244h168v-29h-135v-73h119v-31h-119v-111h-33zM250 584q0 70 61 69q55 0 60 -49h-21q-2 31 -35 31q-43 0 -43 -51q0 -53 43 -54q29 0 37 29h21q-8 -47 -58 -47q-66 0 -65 72zM262 1468h76l-37 107zM403 113v137h35 v-152q0 -70 60 -69q63 0 63 69v152h35v-137q0 -113 -96 -113t-97 113zM424 913v244h113q80 0 79 -65q0 -41 -34 -58q29 -12 30 -47v-33q2 -14 15 -34v-7h-41q-4 6 -4 29l-2 41q-2 35 -48 35h-75v-105h-33zM438 1368v244h39l123 -197v197h33v-244h-37l-125 197v-197h-33z M457 1047h75q52 0 52 43q0 39 -47 38h-80v-81zM563 629v22q55 4 64 45h24v-235h-33v168h-55zM627 221v29h196v-29h-82v-215h-32v215h-82zM664 1583v29h196v-29h-82v-215h-33v215h-81zM668 913v244h178v-29h-146v-73h134v-29h-134v-82h148v-31h-180zM731 616q0 82 78 82 q82 1 82 -110q0 -133 -86 -133q-70 0 -70 63h29q2 -39 41 -39q47 0 57 90q-18 -29 -57 -28q-74 0 -74 75zM762 616q0 -49 47 -49t47 51t-45 52q-49 0 -49 -54zM836 6v27l149 188h-139v29h180v-29l-149 -186h149v-29h-190zM895 913v244h176v-29h-145v-73h135v-29h-135v-82 h147v-31h-178zM895 1368v244h113q80 0 79 -66q0 -41 -34 -59q29 -10 30 -45v-33q0 -14 13 -35v-6h-39q-4 6 -4 27l-2 41q-2 37 -47 37h-76v-105h-33zM920 616q0 82 77 82q82 1 82 -110q0 -133 -86 -133q-70 0 -69 63h28q2 -39 41 -39q47 0 58 90q-18 -29 -58 -28 q-74 0 -73 75zM928 1499h76q51 0 51 43q0 41 -47 41h-80v-84zM950 616q0 -49 47 -49t47 51t-45 52q-49 0 -49 -54zM1108 526q0 43 41 60q-33 14 -33 47q0 66 74 65q72 0 72 -59q0 -35 -31 -51q39 -19 39 -60q0 -76 -80 -75q-82 0 -82 73zM1120 913v244h168v-29h-135v-73h119 v-31h-119v-111h-33zM1122 1489q0 129 119 129t119 -125q0 -131 -121 -131q-117 0 -117 127zM1141 526q0 -45 49 -45t49 43q0 47 -51 47q-47 0 -47 -45zM1147 633q0 -35 41 -35q43 0 43 37q0 35 -43 35q-41 0 -41 -37zM1153 6v244h104q72 0 72 -62q0 -35 -33 -51 q45 -16 45 -59q0 -72 -86 -72h-102zM1157 1487q0 -96 86 -96q84 0 84 102q0 96 -84 96q-86 0 -86 -102zM1186 35h71q52 0 52 45q0 41 -58 41h-65v-86zM1186 147h59q51 0 51 37t-51 37h-59v-74zM1311 1034q0 129 119 129q118 0 118 -123q0 -133 -121 -133q-117 0 -116 127z M1346 1032q0 -96 86 -96q81 0 81 104q0 94 -81 95q-86 0 -86 -103zM1360 6l92 244h37l88 -244h-37l-24 74h-97l-26 -74h-33zM1403 1368v244h108q72 0 72 -70q0 -72 -72 -72h-75v-102h-33zM1405 461v241h104q70 0 70 -59q0 -35 -33 -51q45 -19 45 -62q0 -70 -84 -69h-102z M1430 106h75l-37 107zM1436 489h71q52 0 52 43q0 41 -58 41h-65v-84zM1436 600h61q49 0 49 39q0 37 -51 37h-59v-76zM1436 1499h65q49 0 49 43q0 41 -49 41h-65v-84zM1585 6l92 244h37l88 -244h-35l-24 74h-96l-27 -74h-35zM1587 913v244h39l123 -196v196h31v-244h-37 l-125 197v-197h-31zM1612 702h39l69 -116l70 116h39l-92 -143v-98h-33v98zM1612 1489q0 129 119 129q118 0 118 -125q0 -131 -120 -131q-117 0 -117 127zM1647 1487q0 -96 86 -96q84 0 84 102q0 96 -84 96q-86 0 -86 -102zM1655 106h76l-37 107zM1812 1128v29h197v-29h-82 v-215h-33v215h-82zM1837 6v244h113q80 0 80 -66q0 -41 -35 -59q29 -10 28 -45l2 -33q0 -14 13 -35v-6h-39q-4 6 -6 27l-2 41q0 37 -47 37h-74v-105h-33zM1870 137h76q49 0 49 43q0 41 -45 41h-80v-84zM1880 1446h31q2 -57 67 -57q63 0 64 43q0 31 -53 43l-33 6 q-68 16 -68 61q0 76 86 76q92 0 92 -78h-30q-6 49 -62 49q-55 0 -55 -41q0 -27 59 -39l33 -8q62 -14 62 -65q0 -74 -97 -74q-98 0 -96 84z" />
<glyph unicode="&#xaa;" />
<glyph unicode="&#xab;" horiz-adv-x="1529" d="M90 565q47 72 64 97q63 88 663 323l-26 -172l-453 -225q127 -39 256 -123q96 -61 190 -123l-10 -160q-141 47 -362 131q-39 18 -129 101q-109 96 -193 151zM596 594q129 74 170 102q53 49 170 133q80 45 416 193l-2 -172q-219 -72 -447 -225l432 -219l23 -183 q-286 76 -395 123q-35 14 -138 96q-117 92 -229 152z" />
<glyph unicode="&#xac;" />
<glyph unicode="&#xad;" horiz-adv-x="942" d="M86 479l37 211q74 12 239 29q59 4 424 10l-77 -221q-25 -6 -74 -14q-27 0 -549 -15z" />
<glyph unicode="&#xae;" horiz-adv-x="2291" d="M190 582q0 51 36 85.5t85 34.5q51 0 87 -34.5t36 -85.5q0 -49 -36 -85t-87 -36q-49 0 -85 35.5t-36 85.5zM193 1368l92 244h37l88 -244h-37l-25 74h-96l-27 -74h-32zM209 582q0 -43 29.5 -74t72.5 -31q45 0 75 31t30 74q0 45 -30 74.5t-75 29.5q-43 0 -72.5 -29.5 t-29.5 -74.5zM213 6v244h33v-215h123v-29h-156zM217 913v244h168v-29h-135v-73h119v-31h-119v-111h-33zM250 584q0 70 61 69q55 0 60 -49h-21q-2 31 -35 31q-43 0 -43 -51q0 -53 43 -54q29 0 37 29h21q-8 -47 -58 -47q-66 0 -65 72zM262 1468h76l-37 107zM403 113v137h35 v-152q0 -70 60 -69q63 0 63 69v152h35v-137q0 -113 -96 -113t-97 113zM424 913v244h113q80 0 79 -65q0 -41 -34 -58q29 -12 30 -47v-33q2 -14 15 -34v-7h-41q-4 6 -4 29l-2 41q-2 35 -48 35h-75v-105h-33zM438 1368v244h39l123 -197v197h33v-244h-37l-125 197v-197h-33z M457 1047h75q52 0 52 43q0 39 -47 38h-80v-81zM563 629v22q55 4 64 45h24v-235h-33v168h-55zM627 221v29h196v-29h-82v-215h-32v215h-82zM664 1583v29h196v-29h-82v-215h-33v215h-81zM668 913v244h178v-29h-146v-73h134v-29h-134v-82h148v-31h-180zM731 616q0 82 78 82 q82 1 82 -110q0 -133 -86 -133q-70 0 -70 63h29q2 -39 41 -39q47 0 57 90q-18 -29 -57 -28q-74 0 -74 75zM762 616q0 -49 47 -49t47 51t-45 52q-49 0 -49 -54zM836 6v27l149 188h-139v29h180v-29l-149 -186h149v-29h-190zM895 913v244h176v-29h-145v-73h135v-29h-135v-82 h147v-31h-178zM895 1368v244h113q80 0 79 -66q0 -41 -34 -59q29 -10 30 -45v-33q0 -14 13 -35v-6h-39q-4 6 -4 27l-2 41q-2 37 -47 37h-76v-105h-33zM920 616q0 82 77 82q82 1 82 -110q0 -133 -86 -133q-70 0 -69 63h28q2 -39 41 -39q47 0 58 90q-18 -29 -58 -28 q-74 0 -73 75zM928 1499h76q51 0 51 43q0 41 -47 41h-80v-84zM950 616q0 -49 47 -49t47 51t-45 52q-49 0 -49 -54zM1108 526q0 43 41 60q-33 14 -33 47q0 66 74 65q72 0 72 -59q0 -35 -31 -51q39 -19 39 -60q0 -76 -80 -75q-82 0 -82 73zM1120 913v244h168v-29h-135v-73h119 v-31h-119v-111h-33zM1122 1489q0 129 119 129t119 -125q0 -131 -121 -131q-117 0 -117 127zM1141 526q0 -45 49 -45t49 43q0 47 -51 47q-47 0 -47 -45zM1147 633q0 -35 41 -35q43 0 43 37q0 35 -43 35q-41 0 -41 -37zM1153 6v244h104q72 0 72 -62q0 -35 -33 -51 q45 -16 45 -59q0 -72 -86 -72h-102zM1157 1487q0 -96 86 -96q84 0 84 102q0 96 -84 96q-86 0 -86 -102zM1186 35h71q52 0 52 45q0 41 -58 41h-65v-86zM1186 147h59q51 0 51 37t-51 37h-59v-74zM1311 1034q0 129 119 129q118 0 118 -123q0 -133 -121 -133q-117 0 -116 127z M1346 1032q0 -96 86 -96q81 0 81 104q0 94 -81 95q-86 0 -86 -103zM1360 6l92 244h37l88 -244h-37l-24 74h-97l-26 -74h-33zM1403 1368v244h108q72 0 72 -70q0 -72 -72 -72h-75v-102h-33zM1405 461v241h104q70 0 70 -59q0 -35 -33 -51q45 -19 45 -62q0 -70 -84 -69h-102z M1430 106h75l-37 107zM1436 489h71q52 0 52 43q0 41 -58 41h-65v-84zM1436 600h61q49 0 49 39q0 37 -51 37h-59v-76zM1436 1499h65q49 0 49 43q0 41 -49 41h-65v-84zM1585 6l92 244h37l88 -244h-35l-24 74h-96l-27 -74h-35zM1587 913v244h39l123 -196v196h31v-244h-37 l-125 197v-197h-31zM1612 702h39l69 -116l70 116h39l-92 -143v-98h-33v98zM1612 1489q0 129 119 129q118 0 118 -125q0 -131 -120 -131q-117 0 -117 127zM1647 1487q0 -96 86 -96q84 0 84 102q0 96 -84 96q-86 0 -86 -102zM1655 106h76l-37 107zM1812 1128v29h197v-29h-82 v-215h-33v215h-82zM1837 6v244h113q80 0 80 -66q0 -41 -35 -59q29 -10 28 -45l2 -33q0 -14 13 -35v-6h-39q-4 6 -6 27l-2 41q0 37 -47 37h-74v-105h-33zM1870 137h76q49 0 49 43q0 41 -45 41h-80v-84zM1880 1446h31q2 -57 67 -57q63 0 64 43q0 31 -53 43l-33 6 q-68 16 -68 61q0 76 86 76q92 0 92 -78h-30q-6 49 -62 49q-55 0 -55 -41q0 -27 59 -39l33 -8q62 -14 62 -65q0 -74 -97 -74q-98 0 -96 84z" />
<glyph unicode="&#xb0;" horiz-adv-x="856" d="M59 1393q-6 143 92.5 228t282.5 85q170 0 258 -111q74 -89 70 -206q-6 -113 -84 -187q-94 -86 -268 -92q-338 -12 -351 283zM254 1378q0 -119 135 -118q25 0 51 4q88 14 107 49q8 10 8 76q0 74 -16 102q-29 57 -123 57q-162 0 -162 -170z" />
<glyph unicode="&#xb1;" />
<glyph unicode="&#xb4;" horiz-adv-x="987" d="M197 1364q63 82 174 209q16 18 118 121l259 -23q-18 -14 -60.5 -70.5t-62.5 -70.5q-82 -61 -263 -156z" />
<glyph unicode="&#xb6;" />
<glyph unicode="&#xba;" />
<glyph unicode="&#xbb;" horiz-adv-x="1560" d="M117 772l2 176q440 -115 749 -319q-100 -72 -217 -183q-98 -94 -137 -114q-82 -47 -395 -185l2 187q90 68 178 137q125 88 266 135q-231 84 -448 166zM659 854l19 131q571 -180 629 -240q23 -23 82 -90q-90 -66 -203 -172q-96 -93 -137 -116q-84 -47 -371 -181l22 154 q55 33 182.5 140.5t219.5 164.5q-207 113 -443 209z" />
<glyph unicode="&#xbf;" horiz-adv-x="1341" d="M178 10q0 145 51.5 215t155.5 156q119 96 139 121q35 39 103 254l282 24q-4 -207 -69 -299q-49 -68 -250 -194q-106 -111 -107 -238q0 -27 6 -51q18 -92 144 -160q33 -10 76 -10q113 0 338 90l67 -156q-240 -119 -416 -118q-57 0 -120 8q-330 45 -381 209q-18 53 -19 149 zM598 993l27 176l307 25l4 -252l-297 -33z" />
<glyph unicode="&#xc0;" horiz-adv-x="1404" d="M33 14q125 831 211 1080q82 238 88 254q47 123 110 247l514 33q213 -721 293 -1182l-4 -440l-266 31l-35 299l-403 -39l-195 43l-78 -332zM360 494l562 34q4 31 8 84q2 78 -70.5 407t-101.5 372l-193 -19q-135 -420 -135 -579zM416 1970l268 6l100 -272l-184 -18z" />
<glyph unicode="&#xc1;" horiz-adv-x="1404" d="M33 14q125 831 211 1080q82 238 88 254q47 123 110 247l514 33q213 -721 293 -1182l-4 -440l-266 31l-35 299l-403 -39l-195 43l-78 -332zM360 494l562 34q4 31 8 84q2 78 -70.5 407t-101.5 372l-193 -19q-135 -420 -135 -579zM608 1686l133 239l291 4l-221 -225z" />
<glyph unicode="&#xc4;" horiz-adv-x="1439" d="M51 14q125 831 211 1080q84 238 88 254q47 123 111 247l514 33q213 -721 293 -1182l-4 -440l-267 31l-34 299l-404 -39l-174 43l-98 -332zM365 1686l18 208l281 25l-33 -215zM422 494l518 34q4 31 8 84q2 78 -70.5 407t-101.5 372l-192 -19q-135 -420 -135 -579z M817 1706l21 215l288 18l-59 -213z" />
<glyph unicode="&#xc5;" horiz-adv-x="1439" d="M51 14q125 831 211 1080q84 238 88 254q47 123 111 247l514 33q213 -721 293 -1182l-4 -440l-267 31l-34 299l-404 -39l-174 43l-98 -332zM393 1874q6 61 100.5 106t231.5 45q168 0 240 -24q96 -35 94 -125q-4 -66 -98 -127q-103 -63 -236 -63q-188 0 -287 55 q-57 35 -45 133zM422 494l518 34q4 31 8 84q2 78 -70.5 407t-101.5 372l-192 -19q-135 -420 -135 -579zM545 1864q0 -31 47 -64t108 -33q63 0 130 36t67 65q0 59 -145 59q-70 0 -136 -18q-72 -20 -71 -45z" />
<glyph unicode="&#xc6;" horiz-adv-x="1972" d="M33 14q125 829 211 1080q84 238 88 252q47 125 110 247l514 35l58 -194q-4 121 12 139q41 39 825 45l-34 -160q-473 -25 -525 -84q-41 -45 -39 -459l37 -45l500 -18l-16 -147l-523 -43q2 -113 9 -199q12 -203 40 -234q39 -43 551 -28l-26 -144q-152 -18 -303 -34 q-180 -18 -297 -15q-37 -4 -213 6q-20 125 -47 322l-424 -41l-195 45l-78 -332zM362 494l580 32q4 31 8 86q2 76 -70.5 406t-101.5 371l-213 -17q-135 -422 -135 -579z" />
<glyph unicode="&#xc7;" horiz-adv-x="1230" d="M51 967q31 258 103 419q131 147 233 177t287 30q326 0 485 -51l-63 -166q-156 27 -283 27q-164 0 -264 -47q-61 -29 -108.5 -88.5t-55.5 -124.5q-6 -90 -6 -187q0 -387 74 -630q16 -53 77 -97q70 -47 172 -59q82 -10 203 6q102 14 205 29l-45 -164l-346 -49l-60 -164 l-202 4l100 172q-258 43 -299 94q-76 94 -131 312q-59 238 -76 557z" />
<glyph unicode="&#xc8;" horiz-adv-x="1208" d="M135 977q-18 530 32 580.5t894 54.5l-37 -160q-473 -25 -524 -82q-41 -47 -39 -461l39 -45l497 -16l-16 -148l-522 -45q2 -113 8 -196q12 -203 41 -236q39 -41 551 -26l-27 -146q-483 -51 -708 -51q-109 0 -119 14q-35 59 -55 572zM360 1858l222 43l96 -218l-143 -34z " />
<glyph unicode="&#xc9;" horiz-adv-x="1208" d="M135 977q-18 530 32 580.5t894 54.5l-37 -160q-473 -25 -524 -82q-41 -47 -39 -461l39 -45l497 -16l-16 -148l-522 -45q2 -113 8 -196q12 -203 41 -236q39 -41 551 -26l-27 -146q-483 -51 -708 -51q-109 0 -119 14q-35 59 -55 572zM500 1665l106 240l264 6l-211 -228z " />
<glyph unicode="&#xd1;" horiz-adv-x="1595" d="M168 -6q12 76 14 618q2 502 -2 639q18 164 27 295q104 6 309 19q16 0 47 4q121 -244 242 -490q190 -387 309 -575l45 18q-8 193 -20 348q-29 379 -70 523l45 211l320 30q-29 -262 -62 -792q-10 -260 -26 -779l-211 -57q-213 395 -648 1151l-36 -43q-2 -256 4 -614 q6 -377 6 -484zM379 1745q135 170 225 182q111 14 354 -76l129 68h113l-45 -94q-164 -90 -254 -94q-88 -2 -287 79l-120 -55q-2 0 -37 -33l-6 -6q-16 0 -38 13.5t-34 15.5z" />
<glyph unicode="&#xd6;" horiz-adv-x="1531" d="M70 1188q51 152 106 229q78 113 203 152q162 49 338 49q313 0 471 -115q90 -68 127 -174q33 -98 33 -264q0 -106 -15 -328q-8 -109 -102 -334q-103 -250 -189 -313q-61 -43 -307 -102q-305 12 -354 57q-158 143 -215 287q-41 104 -84 375q-18 406 -12 481zM367 1686 l18 208l281 25l-33 -215zM377 881q-10 -215 2 -308q16 -152 129 -292q16 -18 88 -34t149 -16q96 0 142 25q27 14 90 283q70 301 70 510q0 238 -97 284q-41 22 -352 49q-55 -10 -130 -79.5t-75 -118.5q-6 -94 -16 -303zM819 1686l21 215l268 18l-39 -213z" />
<glyph unicode="&#xd8;" horiz-adv-x="1531" d="M82 1200q49 150 104 230q78 111 203 149q162 49 338 49t326 -47q45 80 92 145l205 -28q-49 -113 -103 -230q113 -117 113 -393q0 -106 -17 -327q-8 -109 -100 -334q-104 -248 -190 -314q-59 -43 -308 -102q-143 6 -247 25q-29 -50 -56 -95l-247 82q43 72 92 154 q-90 104 -131 235q-27 90 -62 318q-20 406 -12 483zM387 891q-8 -215 2 -307q8 -76 53 -168q72 117 224 422q139 283 227 413q14 33 45 101q-80 18 -330 41q-55 -10 -127 -78q-78 -72 -78 -121q-6 -94 -16 -303zM631 252q184 -29 266 14q31 16 115 291q98 311 98 520 q0 49 -6 90l-6 105q-78 -156 -150 -307q-172 -367 -286 -660z" />
<glyph unicode="&#xdc;" horiz-adv-x="1550" d="M96 1561l322 24q-8 -172 -2 -639q6 -477 20 -543q10 -49 15 -65q12 -37 30 -62q59 -82 201 -86q63 -4 136 15.5t85 48.5q74 162 98 352q16 123 21 363q0 88 16 305q14 182 11 305l354 23l-117 -1188q-37 -92 -88 -185q-102 -176 -194 -206q-74 -23 -302 -23 q-266 0 -352 43q-68 35 -145 260q-72 203 -70 287q2 160 -20 485q-23 317 -19 486zM387 1686l19 208l280 25l-33 -215zM840 1686l20 215l268 18l-38 -213z" />
<glyph unicode="&#xdf;" />
<glyph unicode="&#xe0;" horiz-adv-x="1263" d="M25 8q33 223 65 404q76 430 125 573q37 115 76 227q27 76 104 228l469 30q193 -653 264 -1069l-2 -401l-249 29l-31 268l-359 -35l-172 39l-71 -297zM332 451l495 28q6 43 4 72q4 68 -61 363.5t-90 330.5l-168 -14q-121 -375 -121 -518zM365 1778l174 -267l172 19 l-93 254z" />
<glyph unicode="&#xe1;" horiz-adv-x="1263" d="M25 8q33 223 65 404q76 430 125 573q37 115 76 227q27 76 104 228l469 30q193 -653 264 -1069l-2 -401l-249 29l-31 268l-359 -35l-172 39l-71 -297zM332 451l495 28q6 43 4 72q4 68 -61 363.5t-90 330.5l-168 -14q-121 -375 -121 -518zM539 1511l192 19l209 211l-274 -4 z" />
<glyph unicode="&#xe4;" horiz-adv-x="1310" d="M41 8q35 223 65 404q76 430 125 573q39 115 76 227q27 76 105 228l469 30q193 -653 266 -1069l-4 -401l-248 29l-33 268l-358 -35l-152 39l-90 -297zM324 1511l18 197l260 25l-31 -203zM389 451l455 28q6 43 6 72q4 68 -62.5 363.5t-91.5 330.5l-168 -14 q-119 -375 -118 -518zM731 1530l19 203l270 18l-55 -201z" />
<glyph unicode="&#xe5;" horiz-adv-x="1310" d="M41 8q35 223 65 404q76 430 125 573q39 115 76 227q27 76 105 228l469 30q192 -653 266 -1069l-4 -401l-248 29l-33 268l-358 -35l-152 39l-90 -297zM348 1692q8 57 94 98t211 41q133 0 197 -16q118 -31 106 -123q-8 -63 -92 -117q-92 -61 -211 -62q-162 0 -260 54 q-55 35 -45 125zM389 451l455 28q6 43 6 72q4 68 -62.5 363.5t-91.5 330.5l-168 -14q-119 -375 -118 -518zM494 1681q0 -25 42 -55.5t95 -30.5q55 0 113.5 32.5t58.5 55.5q0 49 -127 50q-61 0 -121.5 -15.5t-60.5 -36.5z" />
<glyph unicode="&#xe6;" horiz-adv-x="1779" d="M29 12q113 748 190 971q76 215 80 229q43 111 100 222l461 30l51 -174q-4 109 13 125q37 37 743 41l-33 -143q-426 -23 -471 -76q-37 -41 -35 -414l33 -41l449 -14l-15 -133l-469 -39q2 -102 7 -178q12 -184 36 -211q35 -39 496 -27l-23 -129q-444 -47 -540 -45 q-33 -2 -193 6q-18 113 -41 289l-381 -35l-176 39l-69 -297zM326 444l522 29q4 29 8 78q2 70 -64.5 365.5t-91.5 332.5l-192 -14q-121 -379 -121 -522z" />
<glyph unicode="&#xe7;" horiz-adv-x="1107" d="M41 870q8 70 22 136q29 152 72 243q37 41 70 72q84 74 143 90q92 27 258 27q305 0 443 -47l-60 -158q-143 25 -256 24q-147 0 -237 -40q-129 -59 -144 -189q-6 -80 -6 -166q0 -348 66 -567q20 -70 114 -109q76 -33 164 -32q59 0 158 14q125 18 158 22l-43 -157l-314 -43 l-51 -150l-195 4l91 156q-227 37 -265 84q-158 201 -188 786z" />
<glyph unicode="&#xe8;" horiz-adv-x="1087" d="M119 879q-18 479 28 524t814 53l-35 -153q-125 -6 -219 -17q-223 -23 -254 -57q-35 -41 -33 -408l31 -39l452 -16l-16 -139l-469 -41q2 -98 6 -174q12 -180 37 -207q33 -37 497 -25l-24 -139q-440 -45 -637 -45q-106 0 -117 14q-33 53 -49 516zM315 1675l209 41l92 -205 l-137 -32z" />
<glyph unicode="&#xe9;" horiz-adv-x="1087" d="M119 879q-18 479 28 524t814 53l-35 -153q-125 -6 -219 -17q-223 -23 -254 -57q-35 -41 -33 -408l31 -39l452 -16l-16 -139l-469 -41q2 -98 6 -174q12 -180 37 -207q33 -37 497 -25l-24 -139q-440 -45 -637 -45q-106 0 -117 14q-33 53 -49 516zM442 1493l154 18l199 213 l-252 -6z" />
<glyph unicode="&#xf1;" horiz-adv-x="1435" d="M150 -10q8 0 10 516q2 498 -4 620q10 74 26 271q340 14 326 22q106 -215 211 -428q178 -358 285 -532l34 14q-6 172 -18 313q-25 338 -64 467l43 195l297 27q-26 -238 -57 -717q-10 -236 -22 -705l-197 -53q-193 356 -582 1034l-26 -33q-4 -231 2 -555q4 -334 4 -436z M332 1567q129 160 211 172q94 12 319 -68l115 60h110l-45 -93q-45 -25 -84 -41q-94 -41 -147 -43q-74 -4 -258 70l-107 -49q-18 -17 -38 -35q-18 0 -38 13.5t-38 13.5z" />
<glyph unicode="&#xf6;" horiz-adv-x="1378" d="M59 1071q45 135 95 207q72 102 186 137q147 45 305 45q285 0 429.5 -105.5t144.5 -396.5q0 -96 -15 -294q-8 -98 -92 -302q-92 -227 -172 -284q-51 -39 -276 -94q-90 10 -154 18q-158 23 -170 35q-141 131 -195 260q-39 94 -75 338q-18 373 -11 436zM324 1511l18 197 l262 25l-31 -203zM340 633q0 -72 4 -117q16 -135 117 -260q35 -43 211 -43q86 0 125 20q23 12 77 254q61 270 62 459q0 209 -82 250q-39 18 -315 43q-47 -8 -114 -69.5t-67 -104.5q-2 -18 -10 -199q-8 -150 -8 -233zM731 1511l21 203l252 19l-37 -201z" />
<glyph unicode="&#xf8;" horiz-adv-x="1378" d="M74 1079q45 135 94 207q72 100 182 135q147 45 305 45t293 -43q41 72 82 131l184 -26q-43 -100 -92 -205q100 -106 101 -356q0 -94 -15 -293q-6 -98 -90 -301q-92 -225 -172 -283q-53 -39 -274 -92q-129 6 -223 20q-27 -41 -52 -84l-223 74q39 66 84 139q-80 94 -117 211 q-27 82 -57 287q-18 367 -10 434zM348 803q-8 -195 2 -279q8 -67 47 -149q260 418 406 751q23 49 41 91q-72 16 -295 36q-51 -10 -117.5 -71.5t-69.5 -106.5q-4 -84 -14 -272zM537 219q63 -10 147 -4q88 6 124 24.5t110 254.5q89 291 83 567q-37 -18 -206 -346 q-248 -475 -258 -496z" />
<glyph unicode="&#xfc;" horiz-adv-x="1394" d="M82 1409l299 23q-8 -147 -2 -576q4 -432 18 -491q16 -82 41 -115q51 -70 176 -76q57 -2 117 14q68 18 78 43q68 147 88 324q14 104 18 317q0 78 15 277q12 164 8 276l330 21l-107 -1075q-37 -92 -76 -160q-94 -166 -180 -195q-68 -23 -274 -22q-240 0 -318 41 q-61 33 -133 235q-63 184 -63 260q2 143 -19 439q-20 289 -16 440zM342 1511l18 197l263 25l-31 -203zM750 1511l20 203l252 19l-37 -201z" />
<glyph unicode="&#x152;" horiz-adv-x="2121" d="M70 1188q49 152 106 229q78 113 201 152q164 49 340 49q197 0 356 -57q96 47 887 51l-35 -160q-475 -25 -524 -82q-41 -47 -39 -461l37 -45l499 -16l-16 -148l-522 -45q2 -113 8 -196q12 -203 41 -236q37 -41 551 -26l-27 -146q-485 -51 -708 -51q-111 0 -119 14 q-14 23 -25 115q-23 -25 -41 -39q-59 -43 -305 -102q-307 12 -356 57q-156 143 -213 287q-43 104 -84 375q-20 406 -12 481zM377 573q18 -152 131 -292q14 -18 87 -34t150 -16q96 0 142 25q20 10 74 223q59 238 77 441l-2 57q-4 109 -4 217q-23 109 -82 139q-43 22 -352 49 q-55 -10 -130 -79.5t-77 -118.5q-4 -94 -14 -303q-10 -215 0 -308z" />
<glyph unicode="&#x153;" horiz-adv-x="1910" d="M63 1069q45 135 95 207q70 100 182 135q145 45 305 45q178 0 322 -53q86 43 796 47l-30 -143q-426 -23 -473 -74q-35 -41 -35 -414l35 -41l448 -16l-14 -131l-469 -41q0 -100 6 -176q10 -184 37 -211q35 -39 495 -27l-22 -131q-438 -45 -639 -45q-98 0 -108.5 16.5 t-20.5 100.5q-19 -23 -37 -35q-53 -41 -274 -92q-276 10 -320 51q-141 129 -192 258q-39 92 -76 338q-18 365 -11 432zM338 793q-8 -195 2 -277q14 -137 117 -264q35 -43 213 -43q88 0 127 20q20 10 67 203q55 213 70 395l-2 52q-2 98 -2 196q-20 98 -76 125q-36 18 -317 45 q-49 -10 -116 -72.5t-69 -107.5q-4 -84 -14 -272z" />
<glyph unicode="&#x2dc;" horiz-adv-x="1368" d="M123 588q39 106 112.5 219t104.5 115q100 8 291 -33q106 -35 309 -78q16 0 64 35q59 47 63 49q49 4 115 4l-41 -82l-78 -110q-72 -92 -145 -97q-76 -4 -246 43q-125 35 -142 39q-82 20 -145 23q-37 2 -109 -74l-47 -47q-45 -4 -106 -6z" />
<glyph unicode="&#x2000;" horiz-adv-x="1012" />
<glyph unicode="&#x2001;" horiz-adv-x="2025" />
<glyph unicode="&#x2002;" horiz-adv-x="1012" />
<glyph unicode="&#x2003;" horiz-adv-x="2025" />
<glyph unicode="&#x2004;" horiz-adv-x="675" />
<glyph unicode="&#x2005;" horiz-adv-x="506" />
<glyph unicode="&#x2006;" horiz-adv-x="337" />
<glyph unicode="&#x2007;" horiz-adv-x="337" />
<glyph unicode="&#x2008;" horiz-adv-x="253" />
<glyph unicode="&#x2009;" horiz-adv-x="405" />
<glyph unicode="&#x200a;" horiz-adv-x="112" />
<glyph unicode="&#x2010;" horiz-adv-x="942" d="M86 479l37 211q74 12 239 29q59 4 424 10l-77 -221q-25 -6 -74 -14q-27 0 -549 -15z" />
<glyph unicode="&#x2011;" horiz-adv-x="942" d="M86 479l37 211q74 12 239 29q59 4 424 10l-77 -221q-25 -6 -74 -14q-27 0 -549 -15z" />
<glyph unicode="&#x2012;" horiz-adv-x="942" d="M86 479l37 211q74 12 239 29q59 4 424 10l-77 -221q-25 -6 -74 -14q-27 0 -549 -15z" />
<glyph unicode="&#x2013;" horiz-adv-x="1325" d="M41 467l41 211q156 14 315 14q63 0 181 -3t180 -3q199 0 399 23l-43 -215q-309 -23 -1073 -27z" />
<glyph unicode="&#x2014;" horiz-adv-x="2330" d="M188 672q223 18 697 43q362 0 1116 16l-21 -160q-223 -18 -700 -43q-346 0 -1071 -14z" />
<glyph unicode="&#x2018;" horiz-adv-x="960" d="M197 1419l190 105l148 -76q12 -6 20 -12q57 -53 164 -205l-162 6q-25 2 -43 2q-70 25 -317 180z" />
<glyph unicode="&#x2019;" horiz-adv-x="643" d="M33 1198q61 88 166 219q14 16 112 115l246 -23q-18 -12 -58.5 -65.5t-58.5 -69.5q-78 -57 -250 -166z" />
<glyph unicode="&#x201a;" horiz-adv-x="944" d="M186 -291q31 39 86 117q27 39 62 139q61 174 69 193l310 -52l-166 -268q-27 -43 -234 -98q-55 -14 -127 -31z" />
<glyph unicode="&#x201c;" horiz-adv-x="1198" d="M92 1477q92 -88 258 -320q119 -45 262 -94q-2 12 -96 225q-96 222 -110 232zM514 1460q47 -49 135 -176q82 -125 121 -160q49 -43 109 -63q33 -12 133 -35q-37 94 -113 279l-94 219z" />
<glyph unicode="&#x201d;" horiz-adv-x="1069" d="M55 1044q37 92 113 279l94 219l291 -65q-49 -47 -133 -173t-125 -161q-49 -43 -107 -66q-33 -12 -133 -33zM455 1079q2 12 97.5 229.5t109.5 227.5l313 -41q-92 -88 -258 -319q-119 -47 -262 -97z" />
<glyph unicode="&#x201e;" horiz-adv-x="1062" d="M45 -238q37 94 113 281l94 219l291 -65q-47 -47 -132 -173t-124 -161q-49 -45 -109 -66q-33 -12 -133 -35zM444 -201q2 12 97 226q96 221 110 231l314 -41q-90 -90 -258 -321q-119 -45 -263 -95z" />
<glyph unicode="&#x2022;" horiz-adv-x="1007" d="M205 702q0 115 81 196t197 81q115 0 196 -81t81 -196q0 -117 -81 -197.5t-196 -80.5q-117 0 -197.5 80.5t-80.5 197.5z" />
<glyph unicode="&#x2026;" horiz-adv-x="2342" d="M281 80l155 94l148 -84l-154 -94zM961 78l151 94l148 -84l-152 -94zM1651 76l151 96l148 -84l-152 -96z" />
<glyph unicode="&#x202f;" horiz-adv-x="405" />
<glyph unicode="&#x205f;" horiz-adv-x="506" />
<glyph unicode="&#x25fc;" horiz-adv-x="1464" d="M0 0v1464h1464v-1464h-1464z" />
</font>
</defs>
</svg>
