<?xml version="1.0" standalone="no"?>
<!DOCTYPE svg PUBLIC "-//W3C//DTD SVG 1.1//EN" "http://www.w3.org/Graphics/SVG/1.1/DTD/svg11.dtd" >
<svg xmlns="http://www.w3.org/2000/svg" xmlns:xlink="http://www.w3.org/1999/xlink" version="1.1">
<metadata></metadata>
<defs>
<font id="caveatregular" horiz-adv-x="921" >
<font-face units-per-em="2048" ascent="1638" descent="-410" />
<missing-glyph horiz-adv-x="495" />
<glyph unicode="&#xfb01;" horiz-adv-x="940" d="M161 -133.5q-3 16.5 3 70.5q10 31 10 86q0 68 29.5 187.5t38.5 176.5q39 129 39 168t28 55q2 16 31 68q86 240 123 305q37 102 59 129q14 35 78 102.5t113 108.5q76 39 121 39t59 -6q23 -6 53 -37q27 -31 32 -41t5 -39q-8 -43 -41 -110.5t-49 -69.5q-25 -8 -36 5t-11 44 l-15 41q0 31 15 51q10 20 4 30.5t-27 4.5q-18 -10 -91 -72.5t-73 -75.5q-10 -27 -38 -61q-37 -51 -37 -70.5t-13 -19.5q-8 -29 -28 -66q-18 -49 -41 -71h2q-39 -102 -38 -112.5t61.5 -4.5t105.5 18.5t86 1.5q23 -14 29 -47.5t-5 -44.5q-10 -27 -198 -61q-137 -27 -137 -35 q-20 0 -20.5 -26.5t-9.5 -49t-35 -126t-26 -128.5q-16 -20 -16 -73q-12 -23 -12 -52l-17 -200q-6 -61 -20 -76q-18 -12 -72 49q-16 18 -19 34.5zM786 180q8 76 13 111q16 76 52 208t44 148q10 14 32.5 7t40 -26.5t12.5 -63.5t-46 -188.5t-37 -213.5q-12 -94 -18 -96 q-35 -14 -61.5 31.5t-31.5 82.5zM943 901.5q-1 16.5 3 46t22.5 56t38 27.5t60.5 -15q6 -6 15.5 -28.5t16.5 -40t9 -26t5 -23.5t0 -25.5t-7 -22.5q-8 -23 -28.5 -37t-45.5 2q-20 2 -54 36t-35 50.5z" />
<glyph unicode="&#xfb02;" horiz-adv-x="942" d="M161 -133.5q-3 16.5 3 70.5q10 31 10 86q0 68 29.5 187.5t38.5 176.5q39 129 39 168t28 55q2 16 31 68q86 240 123 305q37 102 59 129q14 35 78 102.5t113 108.5q76 39 121 39t59 -6q23 -6 53 -37q27 -31 32 -41t5 -39q-8 -43 -41 -110.5t-49 -69.5q-25 -8 -36 5t-11 44 l-15 41q0 31 15 51q10 20 4 30.5t-27 4.5q-18 -10 -91 -72.5t-73 -75.5q-10 -27 -38 -61q-37 -51 -37 -70.5t-13 -19.5q-8 -29 -28 -66q-18 -49 -41 -71h2q-39 -102 -38 -112.5t61.5 -4.5t105.5 18.5t86 1.5q23 -14 37 -46.5t6 -45.5q-8 -23 -217 -61q-137 -27 -137 -35 q-20 0 -20.5 -26.5t-9.5 -49t-35 -126t-26 -128.5q-16 -20 -16 -73q-12 -23 -12 -52l-17 -200q-6 -61 -20 -76q-18 -12 -72 49q-16 18 -19 34.5zM750 76q49 299 104 450q14 39 25 70q70 201 114 260q2 4 6.5 15.5t6.5 25.5t18 39q23 37 35 72q33 70 57 106q20 49 49 78l-2 2 q14 25 50 25t41.5 -7.5t5.5 -49.5t-19 -62h2q-27 -63 -36 -73.5t-81 -158.5q-109 -225 -108 -250q-23 -49 -25 -53l-45 -162q-33 -88 -35 -98q-33 -90 -45 -252l-2 -8q-6 -43 -20.5 -57.5t-42.5 -5.5q-51 16 -53 94z" />
<glyph unicode="&#xfb03;" horiz-adv-x="1339" d="M213 45q-16 156 82 506q29 102 102.5 274t89.5 187q8 -2 10.5 3t2.5 11t7 19.5t19.5 35t20.5 37.5q41 59 102 113q98 86 159.5 86t112 -43t72.5 -98q63 80 148 147q76 39 121 39t61 -6q20 -6 51 -37q27 -31 32 -41t5 -39q-8 -43 -41 -110.5t-49 -69.5q-25 -8 -36 5 t-11 44l-14 41q0 31 14 51q10 20 4 30.5t-27 4.5q-18 -10 -91 -72.5t-73 -75.5q-10 -27 -38 -61q-37 -51 -37 -70.5t-13 -19.5q-8 -29 -28 -66q-18 -49 -41 -71h2q-39 -102 -38 -112.5t61.5 -4.5t105.5 18.5t86 1.5q23 -14 37 -46.5t6 -45.5q-8 -23 -219 -61 q-135 -27 -135 -35q-20 0 -20.5 -26.5t-9.5 -49t-35 -126t-26 -128.5q-16 -20 -16 -73q-12 -23 -12 -52l-17 -200q-6 -61 -20 -76q-18 -12 -72 49q-16 18 -19 34.5t3 70.5q10 31 10 86q0 68 30 187.5t38 176.5q25 88 35 145q-47 0 -162 -15t-121 -21q-12 -6 -36 -73 t-36 -136q-23 -90 -27 -193.5t11 -146.5q27 -102 -23 -121q-41 -4 -69.5 58.5t-28.5 160.5zM461 627l33 -4q25 -4 262 32l12 23q74 205 92 246q23 74 23 84q23 102 12.5 142t-64.5 40q-18 2 -53 -15.5t-35 -31.5v-8q-10 2 -72.5 -75t-85 -117t-35.5 -74.5t-34 -90.5 q-47 -129 -55 -151zM1214 180q8 78 13 111q16 76 52 208t44 148q10 14 32.5 7t40 -26.5t12.5 -63.5t-46 -188.5t-37 -213.5q-12 -94 -18 -96q-35 -14 -61.5 31.5t-31.5 82.5zM1371 901.5q-1 16.5 3 46t22.5 56t38 27.5t60.5 -15q6 -6 15.5 -28.5t16.5 -40t9 -26t5 -23.5 t0 -25.5t-7 -22.5q-8 -23 -28.5 -37t-45.5 2q-20 2 -54 36t-35 50.5z" />
<glyph unicode="&#xfb04;" horiz-adv-x="1372" d="M213 45q-16 156 82 506q29 102 102.5 274t89.5 187q8 -2 10.5 3t2.5 11t7 19.5t19.5 35t20.5 37.5q41 59 102 113q98 86 159.5 86t112 -43t72.5 -98q63 80 148 147q76 39 121 39t61 -6q20 -6 51 -37q27 -31 32 -41t5 -39q-8 -43 -41 -110.5t-49 -69.5q-25 -8 -36 5 t-11 44l-14 41q0 31 14 51q10 20 4 30.5t-27 4.5q-18 -10 -91 -72.5t-73 -75.5q-10 -27 -38 -61q-37 -51 -37 -70.5t-13 -19.5q-8 -29 -28 -66q-18 -49 -41 -71h2q-39 -102 -38 -112.5t61.5 -4.5t105.5 18.5t86 1.5q23 -14 37 -46.5t6 -45.5q-8 -23 -219 -61 q-135 -27 -135 -35q-20 0 -20.5 -26.5t-9.5 -49t-35 -126t-26 -128.5q-16 -20 -16 -73q-12 -23 -12 -52l-17 -200q-6 -61 -20 -76q-18 -12 -72 49q-16 18 -19 34.5t3 70.5q10 31 10 86q0 68 30 187.5t38 176.5q25 88 35 145q-47 0 -162 -15t-121 -21q-12 -6 -36 -73 t-36 -136q-23 -90 -27 -193.5t11 -146.5q27 -102 -23 -121q-41 -4 -69.5 58.5t-28.5 160.5zM461 627l33 -4q25 -4 262 32l12 23q74 205 92 246q23 74 23 84q23 102 12.5 142t-64.5 40q-18 2 -53 -15.5t-35 -31.5v-8q-10 2 -72.5 -75t-85 -117t-35.5 -74.5t-34 -90.5 q-47 -129 -55 -151zM1180 76q49 299 104 450q14 39 25 70q70 201 114 260q2 4 6.5 15.5t6.5 25.5t18 39q23 37 35 72q33 70 57 106q20 49 49 78l-2 2q14 25 50 25t41.5 -7.5t5.5 -49.5t-19 -62h2q-27 -63 -36 -73.5t-81 -158.5q-109 -225 -108 -250q-23 -49 -25 -53 l-45 -162q-33 -88 -35 -98q-33 -90 -45 -252l-2 -8q-6 -43 -20 -57.5t-43 -5.5q-51 16 -53 94z" />
<glyph horiz-adv-x="0" />
<glyph horiz-adv-x="0" />
<glyph unicode="&#xd;" horiz-adv-x="495" />
<glyph unicode=" "  horiz-adv-x="495" />
<glyph unicode="&#x09;" horiz-adv-x="495" />
<glyph unicode="&#xa0;" horiz-adv-x="495" />
<glyph unicode="!" horiz-adv-x="430" d="M172 31q-74 71 41 149q37 23 54.5 25t54.5 -15q61 -39 54 -86t-83 -84q-70 -29 -121 11zM338 584q29 57 29 86q25 88 69 172q8 0 17.5 14t9 45t22.5 49l27 72q37 61 106.5 231t73.5 201t35 25q10 8 33 8q10 -10 29.5 -31.5t19.5 -55.5t-5 -50.5t-9 -27.5t-15.5 -32.5 t-17.5 -32.5q-8 -20 -41 -75q-59 -115 -59 -118t-27 -65q-63 -106 -64 -131q-10 -27 -16 -32q-10 0 -10 -17v-6q0 -29 -39 -108q-70 -199 -75 -265.5t-8 -75t-20 -16.5q-39 -6 -59 21q-43 55 -6 215z" />
<glyph unicode="&#x22;" horiz-adv-x="485" d="M360 915q-4 18 47.5 99.5t62.5 114t17 57.5q14 57 13.5 88t5.5 52t20 15q4 -2 19.5 -9t21.5 -10t17.5 -11t17.5 -15q25 -31 -24 -161q-12 -35 -17 -50q-18 -66 -104 -163q0 -8 -19.5 -12.5t-29.5 -8.5q-29 -2 -48 14zM606 915q-4 18 47.5 99.5t62.5 114t17 57.5 q14 57 13 88t5.5 52t20.5 15q4 -2 19.5 -9t21.5 -10t17.5 -11t17.5 -15q25 -31 -25 -161q-12 -35 -16 -50q-18 -66 -105 -163q0 -8 -19 -12.5t-30 -8.5q-29 -2 -47 14z" />
<glyph unicode="#" horiz-adv-x="1144" d="M162 442q39 25 270 37q23 70 29 78q20 0 20 45.5t23 63.5l20 77l15 31h-115q-41 0 -72 10q-43 0 -59 29q-23 31 -6 39q41 29 301 37q72 178 153.5 396t81.5 237q0 33 33 32q10 10 33 11l33 -33q23 -20 22.5 -55t-2.5 -46.5t-4 -20.5t-10 -27.5t-14.5 -33t-25 -52 t-29.5 -62.5t-69.5 -162t-76.5 -180q90 4 329 8q231 573 231.5 613t33.5 40q10 10 32 11l33 -33q23 -20 23 -55t-2 -46.5t-4.5 -20.5t-10.5 -27.5t-14 -33t-24.5 -52t-30.5 -64.5q-109 -246 -144 -330h103q53 0 71.5 -5t40.5 -26q33 -31 23 -58.5t-55 -18.5l-181 -13h-47 q-80 -166 -80 -190.5t-10 -34.5q-10 0 -10 -16v-6q0 -6 -10 -43q61 2 123.5 2t81 -5.5t40.5 -25.5q33 -31 23 -58.5t-55 -19.5l-129 -10l-123 -4q-154 -508 -154 -564.5t-3 -71t-17 -22.5q-59 -16 -81 49.5t3 180.5q23 59 22 86q8 45 105 342q-209 -4 -328 -4 q-152 -508 -151.5 -562.5t-3 -69t-17.5 -22.5q-59 -16 -80.5 49.5t2.5 180.5q23 59 23 86q10 51 102 336h-94q-41 0 -72 10q-43 0 -59 28q-23 31 -6 39zM557 483l330 6q20 61 24 68q20 0 20.5 45t22.5 64l21 77q6 8 16 37q-201 -4 -323 -4q-78 -162 -78 -185.5t-10 -33.5 q-10 0 -11 -16v-6q0 -14 -12 -52z" />
<glyph unicode="$" d="M113 258q0 18 41 43t82 4q-27 -47 -16 -71.5t74.5 -35t123.5 -1.5q135 322 168 372q8 0 18 14.5t11 30t3 25.5q-47 76 -79 94q-6 6 -16.5 25.5t-16.5 25.5q-49 49 -23 121q35 102 172 201q59 41 76 44t33 9q63 29 93 29t38 4q131 279 135 303q12 33 41 27q12 12 33 4 l29 -29q35 -59 -13 -149q-8 -14 -35 -58l-53 -92q98 -27 125 -80q14 -31 -29 -61q-20 -6 -69 16.5t-82 26.5q-135 -242 -135 -251t-32 -61.5t-58 -105.5q41 -41 41 -45v-8q4 0 32.5 -40t28.5 -48q6 -12 18 -31q10 -6 19.5 -62.5t9.5 -87.5q0 -84 -205 -188 q-104 -51 -200 -63q-94 -238 -98.5 -283t-9.5 -60.5t-23 -19.5q-55 -12 -63.5 53.5t28.5 177.5q31 43 35 91l12 30q-111 0 -131 15q-18 6 -43 24q-84 41 -90 121zM537 207q25 2 41 12q137 41 167 94q23 20 26 32.5t1 55.5t-9 62.5t-28.5 55.5t-38.5 52q-2 -6 -10 -14 q-8 0 -12 -22q0 -33 -43 -97zM596 874q10 -38 35 -69l47 -51q31 51 168 333q-98 -25 -152 -86q-98 -61 -98 -127z" />
<glyph unicode="%" horiz-adv-x="1228" d="M204 -121q3 64 68 156q45 37 52 57q16 27 172.5 203t160.5 184q8 -2 18.5 8.5t20 37t43.5 34.5q2 4 9.5 14.5t8.5 15.5t9 14t10 15q55 47 292 290t249 266.5t37 11.5q14 8 32 0q2 -12 19 -43q16 -35 -33 -107q-6 -6 -20.5 -19t-24.5 -23.5t-38.5 -36t-48 -45t-85 -83 t-123 -119t-59.5 -59.5q-23 -4 -41 -41q-150 -150 -153 -154.5t-29 -15.5l-9 -10q0 -25 -69 -84q-326 -389 -367 -473q-27 -63 -49 -66q-55 8 -52 72zM418 791l2 36q-6 6 2 21q10 0 6 18q-8 37 48 132.5t125 152.5t136 72q35 10 51.5 8t38.5 -27q68 -29 76 -106 q12 -129 -84 -269q-59 -84 -157 -143q-68 -45 -130 -47q-29 0 -63 31q-63 63 -51 121zM528 854q-35 -84 7 -111q53 -29 155 80q113 129 109 246q0 43 -8 49q-49 27 -105 -24q-72 -57 -158 -240zM705 33l2 37q-6 6 2 20q10 1 6 19q-8 37 48 132t124.5 152.5t136.5 71.5 q35 10 51.5 8t38.5 -27q68 -29 76 -106q12 -129 -84 -268q-59 -84 -158 -144q-68 -45 -129 -47q-29 0 -63 31q-63 63 -51 121zM813 98q-35 -84 6 -110q54 -29 156 80q113 129 110 245q-2 43 -10 49q-49 27 -104 -24q-72 -57 -158 -240z" />
<glyph unicode="&#x26;" horiz-adv-x="1155" d="M154 143q-25 14 0 101q12 39 115.5 176t203.5 237q-78 104 -77 204t87 251q51 84 154 174q37 31 41 25q6 -11 16 -11q70 18 156 -12q80 -10 107.5 -18t50.5 -35q78 -59 77.5 -125t-153.5 -203l-82 -84q0 -10 -11.5 -23.5t-25.5 -19.5q-170 -147 -173 -160.5t106.5 -153.5 t127.5 -140q47 45 143.5 130t145.5 130q76 80 92.5 89t38.5 -11q25 -4 28 -26t-4 -40t-11 -23q-43 -55 -187.5 -185t-165.5 -152q98 -117 157.5 -163t107.5 -61q121 -41 127 -125q6 -63 -152 7l-82 43q-80 23 -258 235q-170 -94 -220 -114.5t-106 -36.5q-135 -12 -247 26 q-23 6 -66 40t-61 54zM319 266q-39 -90 21 -129q178 -55 430 131q-74 86 -106 129.5t-46 59.5q-33 29 -63 82q-10 0 -50 -43t-59 -74q-59 -43 -108 -127q-14 -23 -19 -29zM573 731q16 18 127 109q261 215 236 303q-8 14 -67.5 37.5t-92.5 21.5q-78 6 -197.5 -166t-5.5 -305z " />
<glyph unicode="'" horiz-adv-x="239" d="M340 915q-4 18 47 99.5t62.5 114t17.5 57.5q14 57 13 88t5.5 52t20.5 15q4 -2 19.5 -9t21.5 -10t17 -11t18 -15q25 -31 -25 -161q-12 -35 -16 -50q-18 -66 -105 -163q0 -8 -19.5 -12.5t-29.5 -8.5q-29 -2 -47 14z" />
<glyph unicode="(" horiz-adv-x="675" d="M302 189.5q1 138.5 34 252t37 164.5q8 27 76.5 182.5t93.5 221.5q43 94 154.5 254.5t154.5 196.5t55 38q8 20 32 35.5t44 15.5q47 27 74.5 14.5t39 -56.5t6.5 -52t-46 -26q-72 -27 -96 -56q-45 -57 -76 -76q-37 -14 -37 -32q-23 -53 -74 -119l-56 -94.5t-66.5 -114.5 t-47.5 -72q0 -31 -31 -80q-12 -45 -42.5 -108.5t-58.5 -152t-28 -117.5q-10 0 -18 -70t-14 -113q-4 -135 16.5 -204.5t77.5 -131.5q47 -41 98 -43l70 -43q-12 -45 -30.5 -57t-55.5 -8q-86 16 -153.5 77.5t-94.5 149.5q-39 86 -38 224.5z" />
<glyph unicode=")" horiz-adv-x="675" d="M63 -168q0 23 11 43q16 -16 59 -4q39 -2 55.5 7t49.5 46q86 123 92 139q41 31 73 82q0 45 37 105q12 27 31 59q33 64 33 74q10 10 10 49q33 16 29 72q0 2 10 24q25 59 29 109q33 104 43 184t16 184.5t8 147.5t2 59v41q0 49 -20 80q-20 66 -35 66q-12 0 -15 21.5t3 41.5 q-2 10 7 19.5t32.5 8.5t48.5 -32q10 10 30 -31q57 -133 60.5 -166.5t-6.5 -181.5q-2 -205 -58 -469q-27 -106 -93 -277t-97 -220q8 0 -61.5 -101.5t-88.5 -132.5q-47 -66 -108.5 -101.5t-102.5 -23.5q-82 23 -84 78z" />
<glyph unicode="*" horiz-adv-x="743" d="M384 889.5q1 21.5 7 36.5q20 25 114.5 120t111 108t16.5 19.5t-17 22.5q-14 20 -12 26.5t-8 8.5q-12 18 -12 35v20q-12 8 -13.5 40t7.5 40q6 0 18 -10q6 0 41 -49q31 -63 57 -64q29 43 35 92q20 29 47 74l53 84q6 20 17 23q20 25 26 20q25 -20 33 -43l21 -33 q-80 -102 -107 -190q-8 -25 -4 -25q2 2 52.5 19.5t74.5 23.5q20 0 49 19q31 10 49 0q29 -29 29 -76q-72 -37 -164 -64.5t-96 -42.5q-25 0 0 -34q2 -6 6 -72q6 -23 11 -45.5t12 -44.5q8 0 8 12q0 8 13 8t25.5 -19.5t6.5 -23.5v-12q14 -8 -4.5 -33.5t-22.5 -25.5 q-20 -12 -48 11t-41 48t-17 41q-16 45 -29 78l-4 75q-6 6 -80 -57t-129 -119q-82 -76 -106 -71q-23 2 -23 22q-4 6 -3 27.5z" />
<glyph unicode="+" horiz-adv-x="913" d="M227 442q20 14 97 23q66 14 211 20q-2 74 -2.5 156t5 100.5t25.5 40.5q31 33 58.5 23t19.5 -55l10 -129l4 -132q147 4 192.5 4.5t64 -5t40.5 -25.5q33 -31 23 -58.5t-55 -19.5l-129 -10l-134 -4q4 -152 4.5 -184.5t-10.5 -63.5q0 -43 -28 -60q-31 -23 -39 -6 q-14 20 -23 97q-12 53 -20 213q-76 -2 -146.5 -2t-101.5 10q-43 0 -60 28q-23 31 -6 39z" />
<glyph unicode="," horiz-adv-x="405" d="M68 -141q0 16 28 49q98 98 131 160q14 45 31 120q0 41 10 52q41 41 56 -56l4 -24q12 -72 -31 -172q-8 -21 -50 -71t-51.5 -50t-23.5 -14.5t-48 -14.5t-38 2q-10 0 -18 19z" />
<glyph unicode="-" horiz-adv-x="667" d="M227 442q21 15 97 23q129 29 226 29t115.5 -5.5t41.5 -25.5q33 -31 22.5 -58.5t-55.5 -19.5q-258 -20 -304 -20t-77 10q-43 0 -60 28q-23 31 -6 39z" />
<glyph unicode="." horiz-adv-x="405" d="M193 117q-75 71 40 149q37 23 54.5 25t54.5 -15q61 -39 54 -86t-83 -84q-70 -29 -120 11z" />
<glyph unicode="/" horiz-adv-x="675" d="M67.5 -128q-8.5 69 41.5 175q37 70 46 93.5t177 328.5t180 322q18 -4 29 38q12 47 34 58q18 37 19.5 42t8.5 15t9 17q45 55 170 252.5t131.5 225t40.5 21.5q10 8 33 4q6 -12 25.5 -38.5t5.5 -77.5q-4 -35 -23.5 -60.5t-29 -39t-35 -46.5t-43 -56.5t-35.5 -47.5 q-41 -51 -42 -56.5t-14.5 -26t-21.5 -36.5q-23 -29 -75 -102.5t-59 -90t-13 -20.5q-10 0 -12.5 -18.5t-55.5 -102.5q-92 -168 -233.5 -438t-151.5 -318.5t-16 -62.5t-21 -19q-61 -4 -69.5 65z" />
<glyph unicode="0" d="M297 515q18 114 93 242t174.5 214.5t201.5 111.5q29 8 89 8.5t120.5 -34.5t60.5 -66q0 -18 -2 -21t-18 1h-21l21 -60q20 -45 20 -88t-22.5 -148.5t-34.5 -132t-12 -53.5l-52 -112q-18 -20 -10 -29q0 -8 -21.5 -46t-27.5 -38q-10 0 -10 -8q0 -23 -90 -113 q-31 -33 -91.5 -66.5t-87 -33.5t-80 28.5t-83.5 55.5q-68 66 -101.5 170t-15.5 218zM399 391q0 -84 29 -139l49 -62q23 -20 38 -23t52 5q49 0 78 29q39 27 88 82q80 94 148 288q29 43 28.5 122t10.5 116q0 55 -3.5 71.5t-15.5 32.5q-23 18 -43 18.5t-59 -15t-54.5 -24.5 t-33 -3t-17.5 16q0 39 -59 -12q-31 -27 -60 -62q-33 -33 -60.5 -72.5t-27.5 -44.5t-18 -52q-14 -23 -38.5 -79.5t-31.5 -80.5v-111z" />
<glyph unicode="1" d="M344 735q6 2 75.5 51.5t78 52.5t16.5 9t21.5 17.5t23.5 17.5q6 8 35 28.5t81 58t89 64.5q172 106 185.5 103.5t37 -20t25.5 -34.5q12 -14 -9.5 -59t-69.5 -186.5t-68.5 -214t-45 -139t-39.5 -122.5q-41 -96 -75 -260q-8 -20 -19 -53q-20 -63 -29 -69q-18 -14 -65 32 q-12 20 -10 35q2 33 67 295q16 8 60.5 159.5t83.5 268.5l43 156q-109 -59 -221.5 -142.5t-139.5 -97.5q-55 -43 -67.5 -48t-30.5 5q-57 49 -33 92z" />
<glyph unicode="2" d="M251 111.5q-7 13.5 0 41t15 27.5q6 -6 34 32t30 48q2 6 28 25q0 2 32 38.5t56 59.5q213 205 222 244q10 12 32.5 26.5t49.5 40.5q8 41 63 97q35 51 45 85.5t4 40t-51 19.5q-121 41 -238 -41q-14 -4 -34 -10q-45 -16 -53.5 -14.5t-14.5 9t-15.5 18.5t-15.5 17l-20 43 l63 35q170 111 279 76l59 -10q25 2 65 -39t60 -84q57 -88 -41 -234q-23 -27 -126 -140t-124 -130q-37 -18 -124 -121.5t-80 -103.5q-2 -8 4 -7t47 14t166 29.5t139 6.5l10 -4q8 12 51 8t90.5 -18.5t50.5 -25.5t19 -30q47 -41 -22 -39q-29 2 -76 11q-53 0 -71.5 -3.5 t-102.5 -9.5q-59 8 -133 -18.5t-176.5 -53t-119 -20.5t-43 28.5t-33.5 36z" />
<glyph unicode="3" d="M295 119q2 31 14.5 36t57.5 -3q100 -20 223 14.5t181 92.5t52 110q-8 92 -182 141q-80 23 -116 18.5t-74 16.5q-18 20 -37 57q-2 12 27.5 31.5t211 119t234.5 144.5q39 49 37 63.5t-54 24.5q-145 12 -145 0h-8q-14 6 -79 -8t-67 -21.5t-43 -21.5t-54 -12t-32.5 36.5 t-13.5 51t127 73.5q39 10 130 15.5t134 1.5q184 -20 209 -154q10 -45 -1 -66.5t-71 -74.5q-145 -92 -168.5 -106.5t-50.5 -30.5q-68 -43 -67 -50q29 -18 51 -36q104 -39 178 -140q90 -201 -127 -329q-123 -70 -274 -80q-82 0 -144.5 25.5t-58.5 60.5z" />
<glyph unicode="4" d="M374 568q-7 44 9 61q8 23 23 51q34 66 34 74l11 28q18 39 113 179.5t126 171.5q49 25 60 10q8 -18 16 -51t2 -33q-10 0 -10 -11.5t-66 -89.5q-119 -162 -186 -286q-33 -102 -21 -115q35 -18 164 21q98 20 121 30q43 0 43 21q0 6 14 39q92 193 109 219q23 49 51.5 115.5 t34.5 66.5q31 0 45 -31q16 -18 18 -26t-12 -50t-20 -53q-35 -63 -49 -96q-154 -307 -206.5 -463.5t-60.5 -194.5t4 -77q4 -55 -39 -84q-39 -20 -53 20q-16 18 -15 44t14.5 84.5t31.5 140.5t20 90l35 104q-41 0 -90 -20q-102 -25 -158.5 -14.5t-89.5 65.5q-16 16 -23 60z" />
<glyph unicode="5" d="M266 180q10 23 40 19t34 -27q6 -39 96 -36t185.5 58.5t146.5 122.5q35 82 40 137.5t-3 59.5q-4 23 -13.5 48.5t-46 58t-71.5 47.5q-70 14 -121 6l-84 2q-16 4 -49 31.5t-33 42.5q6 31 61.5 119.5t100.5 134.5q127 141 303 131q63 -2 87 -10.5t48 -39.5q16 -27 14 -49 q-4 -49 -55 -28q-53 35 -184 -7q-43 -16 -91 -52t-59 -58q-6 -4 -10 -8q-4 -8 -12 -9q-12 -12 -12 -22l-17 -21q-4 0 -8 7q0 -10 -1 -20.5t-1 -18.5q0 -14 44 -19.5t60 -9.5q39 -6 99 -43q82 -49 120.5 -144.5t25.5 -188.5t-50 -150q-94 -131 -256 -192.5t-252 -2.5 q-37 27 -37 45q-8 12 -16 11t-18.5 24t-4.5 51z" />
<glyph unicode="6" d="M241 269.5q1 17.5 19.5 104.5t30.5 125t47 87q39 109 70 143q45 68 73 96l56 74q29 18 52 47t106 80t175 64q31 4 27 -11q6 -12 29 -16q2 0 24 -35q6 -29 -35 -67q-45 -33 -59 -17q0 10 -19.5 14.5t-96 -45t-119.5 -98.5q-45 -41 -52 -57l-67 -78q6 -10 28.5 -5t26.5 13 q0 8 46 21.5t93 17.5q23 8 86.5 -5t80 -21.5t38.5 -36.5q72 -70 70 -168q0 -66 -35 -109q-27 -43 -71 -97t-68 -71l-23 -14q-4 -23 -98 -74q-172 -94 -270 -82q-47 6 -89 47q-53 39 -63 105q-14 51 -13 68.5zM338 205q4 -33 43 -41q33 -8 56.5 -7t72.5 21q45 12 53 10 q45 31 124 80t139.5 134t50.5 143q2 10 -4.5 30.5t-6.5 24.5q-4 0 -10 2q-70 20 -113 13t-121.5 -25.5t-102 -28.5t-38.5 -14q-29 -23 -54.5 -27t-41.5 -41t-38.5 -144.5t-8.5 -129.5z" />
<glyph unicode="7" d="M379 41q-14 68 143 365q51 84 44 91t-40 7q-70 16 -73 22q-47 25 -39 47q4 8 14 11q43 10 0 24l121 -4q37 0 58.5 -3t30.5 4t42 48q8 14 50 76t63 100q135 190 104 222q-12 10 -53 8t-149.5 -45t-137.5 -50.5t-51 5.5q-39 6 -27 69q8 37 269 103q180 27 204 -17 q16 -2 19 -10q16 -31 30.5 -55.5t17.5 -37.5t-1 -46q-14 -49 -43 -74q-25 -35 -53 -63q-2 -6 -10.5 -18.5t-8.5 -16.5l-112 -170q-39 -35 -30 -45t27 -19q72 -33 89 -82q2 -41 -11 -47q-12 -12 -32.5 -11t-26.5 9q-8 16 -46 31.5t-50 15.5q-29 -16 -87.5 -129.5t-64.5 -125 t-15 -26t-17.5 -31.5t-14.5 -61t4 -46q25 6 35 -27q16 -23 -25 -53.5t-73 -22.5q-45 8 -74 78zM424 610q2 0 4 -2q-2 2 -4 2z" />
<glyph unicode="8" d="M258 102q0 72 25 111q25 70 102.5 186.5t118.5 166.5t38 70.5t-42 74.5q-6 16 -15.5 30.5t-5.5 14.5q-8 8 -16 28q-31 31 -30 89.5t30 115.5q61 142 174 158q190 -27 278 -64q37 -14 86.5 -54t51.5 -50t9 -20.5t16 -31t5 -69.5t-22 -78q-51 -57 -63.5 -62t-22.5 -13 q-25 -25 -39 -27q-27 -35 -37 -35q-25 16 -25 0q-2 -8 -55 -31.5t-63.5 -19.5t-26.5 -6q-27 4 31 -66q119 -217 63 -293q-39 -88 -84 -145t-71 -53q-16 -10 -29 -19q-8 -27 -41 -22q-18 8 -59 -19.5t-100.5 -37t-78.5 2.5q-29 4 -81 54q-29 61 -21 114zM375 71.5 q2 -30.5 18 -32.5q27 -2 92.5 28.5t116.5 65.5q156 127 109 246q-41 84 -55.5 105.5t-37.5 33.5q-29 -16 -40 -45q-37 -45 -58 -84l-45 -45q0 -16 -34.5 -80.5t-51 -113t-14.5 -79zM555 905q-25 -78 4 -135q23 -8 31 -35q0 -18 16 -18q4 -25 39 -24t66 22q41 37 74.5 43 t43.5 -17q6 -10 55.5 24t69.5 56q18 33 13 80q2 31 -14 47t-79 41q-268 94 -319 -84z" />
<glyph unicode="9" d="M430 803q2 49 58.5 135t140.5 151.5t166 81t136 -6t93 -84t29 -97.5q-23 -106 -78 -166q-47 -41 -119 -182t-106.5 -241.5t-45 -154t-10.5 -85t11 -33.5l43 -12q25 -37 -54 -123q-39 -43 -53 -41t-32.5 18.5t-18.5 24.5q2 8 1 9t-9 1l-7 41l5 70q8 113 102 385 q31 74 27 90t-54 12q-94 -16 -162.5 49.5t-62.5 157.5zM546.5 806q-20.5 -61 2.5 -81q45 -49 138 -1t159 150q61 82 67 87q46 50 19 79q-29 41 -117 9q-51 -10 -131 -62q-12 -12 -26.5 -10t-14.5 -8q10 -18 -25 -47q-51 -55 -71.5 -116z" />
<glyph unicode=":" horiz-adv-x="405" d="M205 117q-74 71 41 149q37 23 54 25t54 -15q61 -39 54 -86t-82 -84q-70 -29 -121 11zM348 547q-74 71 41 149q37 23 54.5 25t54.5 -14q61 -39 54 -86.5t-83 -83.5q-70 -29 -121 10z" />
<glyph unicode=";" horiz-adv-x="405" d="M82 -141q0 16 29 49q98 98 131 160q14 45 30 120q0 41 11 52q41 41 55 -56l4 -24q12 -72 -31 -172q-8 -21 -50 -71t-51 -50t-23.5 -14.5t-48.5 -14.5t-40 2q-8 0 -16 19zM348 547q-74 71 41 149q37 23 54.5 25t54.5 -14q61 -39 54 -86.5t-83 -83.5q-70 -29 -121 10z" />
<glyph unicode="&#x3c;" horiz-adv-x="913" d="M252 485q20 4 50 24.5t32 20.5q53 43 260 160q84 39 176 103q45 35 62.5 34.5t29.5 -13.5t37 -24.5t25 -23.5q-12 -27 -32 -39t-61 -33q-115 -57 -190.5 -102t-110 -64.5t-52 -30t-36.5 -22.5q-33 -25 -28 -55q41 -90 368 -191q129 -33 154 -75q10 -20 -16 -35 q-82 -23 -164 -6q-57 16 -72.5 19t-33 9t-27 9.5t-21.5 9.5q-27 12 -43 26q-123 39 -217 148l-76 90z" />
<glyph unicode="=" horiz-adv-x="913" d="M236 311q-35 37 10 49q26 7 94 13q150 29 284 28.5t154.5 -5.5t49 -30.5t17.5 -53t-57 -19.5q-356 -20 -402 -20.5t-89 10.5q-45 0 -61 28zM348 602q-35 37 10 49q27 7 95 13q150 29 283.5 28.5t154 -5.5t50.5 -30.5t19.5 -53.5t-59.5 -19q-315 -20 -381.5 -20.5 t-111.5 9.5q-43 0 -60 29z" />
<glyph unicode="&#x3e;" horiz-adv-x="913" d="M296.5 160q7.5 19 27.5 35q18 8 63 26q117 47 197 87t115.5 56.5t54 25.5t39.5 24q35 23 30 53q-39 94 -356 213q-141 49 -148 94q-2 16 21 27q98 16 219 -27q31 -10 44 -14t32 -12q33 -14 61 -39q117 -49 205 -166l70 -94l10 -62q-18 0 -51 -19.5t-35 -19.5 q-41 -31 -268 -139q-106 -41 -140 -64q-86 -59 -108 -57q-16 -2 -27.5 11.5t-24 20.5t-20.5 11q-18 10 -10.5 29z" />
<glyph unicode="?" horiz-adv-x="765" d="M334 31q-74 71 41 149q37 23 54 25t54 -15q61 -39 54 -86t-82 -84q-70 -29 -121 11zM451 463.5q0 25.5 3 41t8 29t16 38t18 42.5q23 39 68.5 91.5t80.5 76.5l35 25q0 8 28.5 30.5t49.5 32.5q47 33 67 52q63 66 84 119t47 186q4 70 1 97.5t-25 43.5q-66 35 -168 -21.5 t-148 -156.5q-16 -49 -8 -80l10 -55q-12 -4 -52 -2t-58 10q-29 39 -31 54.5t-1 30.5t1 26q59 182 193 249l102 50q18 0 68 6q8 -2 18 0q25 2 25 -9h59q92 -27 139 -79q31 -92 -8 -254t-119 -250q-2 -2 -73.5 -67.5t-98.5 -94.5q-66 -37 -120 -111.5t-82 -156.5 q-23 -49 -31 -57.5t-38 -7.5t-45 23.5t-15 48z" />
<glyph unicode="@" horiz-adv-x="1316" d="M207 268q16 84 39 127l8 33q0 29 28.5 69t57.5 78.5t35 48t29.5 39t30.5 39t27.5 33t31.5 33.5q49 49 65 61.5t37.5 30t63.5 48t129.5 68.5t130.5 44q199 29 333 -96q125 -98 160 -254q12 -43 7 -135.5t-23 -131.5q-43 -92 -124 -181t-126 -101q-33 0 -83 14.5 t-59.5 24.5t-52.5 35q-76 -82 -141.5 -112t-91.5 -24q-63 16 -87 30.5t-65 70.5q-14 37 -14 69.5t20 100.5q20 88 91 186q57 86 167 131q25 12 71 12t77 -20q18 -2 44 -35t40 -65q8 -45 4 -72q-16 -80 -30.5 -128t-6.5 -69q-4 -16 31 -27.5t45 -11.5q35 0 74 45 q35 35 45 47.5t24.5 29t19.5 25.5t15 23q10 20 27 68q4 33 4 70q0 111 -51 202q-84 152 -267 152q-102 0 -178 -33q-53 -18 -156.5 -100t-154.5 -142q-170 -205 -201 -421q-10 -82 17 -136q45 -90 145 -153q117 -47 246 -39q16 -4 21 -10t3 -23q9 -17 17 -33 q0 -59 -135.5 -59t-270.5 106q-63 59 -112 144q-63 88 -31 274zM657 213q14 -31 42 -42t61 3q33 20 72.5 57t44 49.5t20.5 43.5q43 68 53 129q0 2 17 45q0 25 -23 39q-76 20 -115 0q-59 -25 -119.5 -139.5t-52.5 -184.5z" />
<glyph unicode="A" horiz-adv-x="1028" d="M102 -32q-2 5 -2 12q0 19 14 50q18 42 55.5 114.5t106 204.5t68.5 153q-8 31 31 49q47 47 78 100q25 57 215 381q76 135 194 295q47 63 81 63h1q35 0 84 -38q63 -47 72 -103q2 -12 2 -34.5t-1 -45t-4 -57.5t-5 -60.5t-6.5 -68.5t-6.5 -76t-24 -248q-37 -362 -37 -552 q0 -42 2 -76q2 -14 0 -37t-2 -25q-11 -13 -35 -13q-15 0 -33 5q-50 12 -55 41q-10 8 -10 17.5t8 164.5l10 332l-26 -2q-41 0 -182.5 -16.5t-176.5 -26.5q-43 0 -92 -88q-12 -31 -31.5 -64.5t-19.5 -37.5l-33 -39q0 -23 -43 -115q-39 -88 -125 -219l-33 24q-33 16 -39 36z M565 592q76 16 127 18q123 29 158 33t49 -4q11 -14 19 -14h4q4 12 24 223q16 158 31 381q-20 0 -97 -102.5t-137 -219.5q-55 -100 -67 -100q-14 -15 -68 -111q-45 -81 -45 -99q0 -4 2 -5z" />
<glyph unicode="B" horiz-adv-x="1048" d="M170 172q16 27 33 88q27 80 155 398q126 317 188 456q46 105 47 135q0 10 -5 11q0 6 -6.5 18t-3.5 18q0 12 57 37q49 22 76 22q4 0 8 -1q39 0 39 10q2 0 20 2q33 3 62 3q15 0 28 -1q137 -12 213 -80q74 -66 74 -174v-6q-2 -51 -71.5 -150.5t-151.5 -173t-117 -90.5 q2 -2 78 -28q172 -61 213 -226q5 -21 4 -46q0 -79 -49 -193l-31 -45q-2 -8 -37 -62.5t-61 -87.5q-180 -156 -371 -158q-104 0 -154.5 33t-79 55.5t-42.5 45.5q-10 16 -10 30q0 26 34 47q3 2 7 2q23 0 79 -55q53 -49 138 -49q46 0 100 14q156 47 272 193q59 78 71 182 q3 27 2 50q0 63 -24 85q-82 112 -228 112q-59 0 -128 -18q-41 -6 -119 -24q-29 -8 -40 -35t-94 -260t-114 -248q-3 -1 -6 -1q-19 0 -51 44q-21 32 -21 64q0 29 17 57zM504 672q143 25 186 41q53 31 86 61.5t104.5 119.5t104.5 150q45 72 50 110q1 6 1 12q0 30 -22 51 q-25 29 -108 33q-15 1 -29 0q-63 0 -103 -13q-55 -16 -55 -53q0 -31 -33 -64l-18 -37q0 -6 -35 -84q-129 -287 -129 -327z" />
<glyph unicode="C" horiz-adv-x="987" d="M254 281q0 182 63 346q2 4 29 67.5t49.5 114.5t110.5 178q125 193 217 264q35 29 147 107q49 35 105 35q23 1 47 -5q84 -20 119 -94q24 -45 24 -106q0 -55 -20 -124q-41 -144 -127 -224q-31 -23 -48.5 -19t-49.5 33q-25 45 -21 47t8 2q18 23 54 87.5t49 101.5q6 41 11 58 t7 32.5t3 22.5t2 16.5t0 15.5t-3 12q0 7 -13 21q-4 4 -12 5q-19 0 -59 -22q-49 -20 -125 -91.5t-137 -155.5q-178 -233 -221 -365l-23 -53q1 -6 1 -12q0 -31 -25 -82q-28 -114 -27 -231q0 -30 1 -60q9 -148 56 -193q17 -13 49 -13q61 0 175 48q29 10 102.5 41t124.5 78 q53 39 86 39q27 10 32 8t5 -18q0 -59 -113 -127q-41 -41 -98 -64q-77 -55 -179 -94q-73 -28 -129 -28q-23 0 -44 5q-43 16 -65.5 26.5t-53.5 43.5q-84 82 -84 297v29z" />
<glyph unicode="D" horiz-adv-x="1183" d="M170 -2q6 10 15 10q20 0 55 -45q45 -46 129 -46q23 0 49 3q143 27 211 78l239 160q4 10 43 24q10 8 63.5 62.5t61.5 60.5q2 10 7.5 27.5t5.5 25.5q25 27 73.5 128.5t67.5 175.5q19 96 19 174q0 84 -22 146q-42 122 -151 216q-43 35 -142 77q-90 38 -108 38h-2 q-12 -4 -29.5 -43t-45 -114t-53 -143.5t-63.5 -174t-58 -160.5q-8 -33 -25 -80q-37 -109 -37 -119q-37 -55 -65 -282q-20 -82 -23.5 -95.5t-6.5 -20.5t-5 -13q-4 -10 -8 -11l-9 -8q0 -25 -36.5 -10.5t-51.5 29.5q-5 18 -5 41q0 35 13 81q37 154 85.5 295.5t90.5 287 t74 206.5q68 193 84 231l15 68l-23 10q-37 -12 -55 0q-20 -6 -56 17.5t-40 44.5l-7 34q5 25 108 44q81 15 137 14q15 0 29 -1q62 -5 91 -12.5t46 -13.5t52 -19.5t51 -19.5q104 -41 213 -156.5t140 -242.5q12 -45 17 -115q1 -18 2 -33q0 -43 -11 -64q-14 -28 4 -34 q-4 -8 -17.5 -53t-19.5 -62q-12 -129 -115 -303q-12 -2 -14 -8q0 -10 -22 -39q-6 -4 -25.5 -29.5t-28.5 -31.5q-2 -14 -12 -23.5t-18 -9.5q0 -6 -7 -8q-37 -53 -134 -131t-173 -111q-10 -8 -86 -43q-16 -14 -82.5 -39.5t-130.5 -37.5q-22 -4 -45 -3q-46 0 -100 15 q-31 6 -45.5 22.5t-17.5 19.5t-12 16t-15 19q-38 55 -38 87q0 12 5 20z" />
<glyph unicode="E" horiz-adv-x="1122" d="M221 393q20 100 51 164q45 109 199 348l12 17q0 14 60 127q35 38 35 64q0 12 -7 22q-1 2 -1 5q0 17 50 54q60 43 105 70q47 37 95 42t54 -20q6 -2 16 -2q18 0 52 8q50 12 68 13q14 18 137 32l113 4q7 3 14 3q32 0 55 -52q14 -39 -10.5 -57t-187 -38.5t-241.5 -37 t-115 -41t-81 -94.5q-18 -12 -82 -139q-134 -182 -134 -205q0 -2 1 -2q43 -12 53 -12q16 8 99 22q326 84 368 90q19 11 37 12q36 0 64 -49q5 -11 5 -20q-1 -29 -45 -47q-60 -24 -267 -80q-207 -58 -275 -62h-14q-56 0 -62 35q-14 6 -32.5 -21.5t-33 -73.5t-26.5 -99 q-16 -72 -17 -119q-1 -30 7 -50q18 -50 45.5 -77t93.5 -45l82 -6q49 0 86 16q217 37 271 74q23 10 36 10q-4 -6 0 -6q8 4 37 35q53 45 104.5 60.5t53.5 6.5q5 -9 5 -20q0 -30 -35 -77q-48 -64 -144 -118q-190 -102 -463 -106q-55 4 -90 24q-74 47 -123 86q-91 91 -91 225 q0 50 13 107z" />
<glyph unicode="F" horiz-adv-x="954" d="M190 16q0 38 56 216q60 190 86 240t38.5 95t16.5 54q-4 23 -2 29.5t18 25.5q29 25 62 96l102 293q13 48 13 60q0 5 -2 5t-60.5 -7t-60.5 -7q-9 -1 -17 -1q-36 0 -37 30q10 72 74 78q139 33 168 33q4 0 6 -1q27 18 27 29q0 20 30.5 22.5t45.5 -18.5q6 -10 38 -10 q45 0 140 20q80 7 127 7q39 0 55 -5q18 4 43 7q49 2 57 6q84 -14 91 -23q12 -12 8 -24l14 -11q31 -16 21 -47q-2 -18 -20 -21q-10 -2 -42 -2q-21 0 -51 1q-59 8 -130 8q-107 0 -241 -18q-104 -8 -125 -33q-37 -43 -109.5 -231.5t-76.5 -194.5q29 -8 100 -8q99 0 281 16 q65 12 93 12q13 0 17 -2q16 -8 24.5 -39.5t0.5 -48.5q-18 -43 -371 -49h-59q-81 0 -117 4q-18 -14 -18 -37q-37 -66 -108.5 -254t-71.5 -225q-16 -41 -23 -81t-14 -44q-2 -6 -25 -6t-43 25q-29 21 -29 36z" />
<glyph unicode="G" horiz-adv-x="1019" d="M258 166v11q0 237 84 499q88 256 163 381t144.5 196.5t108.5 94.5q68 40 162 40q42 0 88 -8q117 -31 159 -69q4 -8 19 -27q24 -31 24 -60q0 -30 -26 -59q-16 -16 -30 -16t-26 14q-20 33 -39.5 46.5t-47 27.5t-29.5 14q-24 17 -67 17q-16 0 -35 -2q-68 -9 -108 -42.5 t-93.5 -98t-81.5 -119.5q-123 -215 -174.5 -404.5t-61.5 -265.5t-13 -117q-2 -21 -2 -41t2 -40q3 -40 16.5 -63.5t35.5 -37.5q22 -15 58 -15q41 0 100 21q68 8 153.5 79t143.5 161q92 171 92 233q0 9 -2 16q-8 23 -42 25t-102.5 2t-99.5 14q-13 20 -13 39q0 26 25 52 q21 13 99 13h32q105 -3 168 -34q64 -30 64 -128q0 -35 -8 -77q-18 -80 -125 -239q-47 -66 -140.5 -142.5t-150.5 -99.5q-117 -52 -200 -52q-65 0 -109 32q-55 35 -87 98q-28 56 -28 116v15z" />
<glyph unicode="H" horiz-adv-x="1155" d="M170 -63q16 16 16 77q10 20 23.5 87t73 280t73.5 227v23q0 31 23 63q20 61 20 84l119 289v10q4 4 51 109.5t63.5 140.5t25 50.5t14.5 25.5t6 16q16 23 48 11.5t48 -44.5l21 -32l-74 -148q-76 -133 -76 -159q-47 -119 -64.5 -174.5t-33.5 -92.5q-33 -74 -33 -80q0 6 113 9 q356 2 395 8l106 10l160 490q31 88 49.5 113.5t37 25.5t38 -9.5t25.5 -23.5q21 -19 21 -47q0 -34 -32 -80q-33 -57 -58.5 -133t-33.5 -92q0 -43 -14 -57.5t-34.5 -64.5t-20.5 -75.5t-21 -46.5q-92 -320 -127 -410l-53 -182q-47 -217 -47 -223q-3 -3 -11 -3q-16 0 -53 15 q-41 23 -47 48.5t7.5 53t66.5 228.5q25 70 57.5 194.5t36.5 129.5v20q0 9 -138 9h-29q-167 -1 -279 -15h-150q-10 -23 -62 -189.5t-81 -307t-70 -265.5q-20 10 -43 10q-31 8 -46 36t-7 61z" />
<glyph unicode="I" horiz-adv-x="819" d="M98 25q4 53 170 55l109 2l20 41q16 47 36 112.5t46 145.5q70 213 76 237q31 66 68 220q80 250 80 292q0 8 -3 9h-9q-27 1 -102 -7q-91 -10 -102 -16q-10 -14 -34.5 -6t-30.5 29q-6 35 13.5 49t96 37.5t154.5 32t119 42.5q40 13 68 13h4q16 -11 73 -11q29 0 68 3 q81 8 125 9q17 0 29 -2q40 -5 55 -34q7 -25 7 -42q0 -39 -36 -38h-8q-35 -8 -168 -12q-145 -12 -156 -29q-6 -6 -14 -18.5t-12 -16.5q1 -3 1 -7q1 -25 -21 -87q-24 -72 -50 -151q-66 -201 -79 -230t-19 -65q-41 -141 -87 -284.5t-65 -213.5q44 4 152 14q81 8 119 9 q13 1 20 -1q31 -4 41 -30q22 -30 22 -50q0 -28 -43 -38q-30 -6 -85 -6h-29q-170 -6 -216 -12.5t-50 -24.5q0 -18 -19 -18q-14 0 -39 10q-23 31 -139 31q-22 0 -47 -1q-11 -1 -21 -1q-31 0 -59 14q-37 18 -29 45z" />
<glyph unicode="J" horiz-adv-x="626" d="M-76 -232q13 39 29 39q23 0 51 -38q38 -33 77 -33q76 0 157 125q10 25 53 121q113 246 121 274.5t18 40.5q0 2 10.5 32.5t16.5 57.5l86 244q20 94 39.5 140t52.5 145.5t49 150.5t27.5 85t21.5 65q18 66 15 71l-115 -20q-25 -10 -63 -10.5t-38 14.5v10q-10 -8 -27.5 11.5 t-15.5 35.5q0 33 146 51l147 21q10 8 51 -7.5t58 -31.5q14 -28 14 -56q0 -12 -3 -24q-9 -39 -48 -146.5t-52.5 -145.5t-43.5 -126q-70 -197 -90 -248l-127 -380q0 -41 -27 -68q-115 -285 -131 -311q-29 -47 -29 -56.5t-10 -9.5q-12 -8 -12 -20q-10 -25 -63.5 -76t-96.5 -71 q-22 -9 -50 -9t-62 9q-70 20 -119 73q-20 23 -20 49q0 11 3 22z" />
<glyph unicode="K" horiz-adv-x="1011" d="M160.5 -45.5q-2.5 16.5 9.5 59.5q0 14 10 80q14 0 14.5 21.5t6.5 42t16 51.5q14 53 31 94q31 74 31 90.5t26 57.5q20 55 21 100q41 90 47 111.5t22.5 65.5t32.5 92t29.5 79t38.5 88q45 109 55 109v22q0 6 7 20.5t19.5 40t22.5 42.5q25 41 35 86q12 23 22 32q24 17 43 17 q28 0 45 -36q14 -29 14 -55q0 -28 -16 -51q-211 -444 -211 -489l70 51q53 53 170 142l252 204q41 20 113 74q160 115 172 113q23 10 49 -21t22 -57q4 -20 -9 -35.5t-81.5 -50.5t-81.5 -58q-57 -45 -135 -100q-174 -113 -215 -172q-6 0 -15 -6t-16 -4q-29 -18 -39 -31 q-19 -45 -48 -45h-3q-47 -29 -155 -113q18 -168 82 -276q59 -131 120 -193q92 -100 140 -100q18 -6 51 -29q41 -28 41 -59q0 -19 -15 -39q-8 -20 -21 -26q-3 -1 -8 -1q-18 0 -61 15h-2q-33 0 -111 62q-80 64 -122 116q-125 176 -156 289q-10 47 -27.5 99t-19.5 67v39 l-24 -62q0 -2 -11 -31q-35 -84 -65 -192q-104 -369 -131 -389q-14 -10 -54 18q-25 14 -27.5 30.5z" />
<glyph unicode="L" horiz-adv-x="872" d="M208 242v17q0 50 5 65q5 3 5 22q0 16 14 60q11 34 12 57q0 9 -2 16q10 23 20 33q14 16 10 35.5t17 48.5l18 31q2 14 32 91t40 93v4q8 20 22 43q12 82 129 268q168 272 220 277q23 2 45 -20.5t28 -43.5q14 -49 -4 -53q-27 -18 -106.5 -133t-128.5 -205l-80 -166 q-49 -104 -92 -225q-17 -17 -17 -37v-6q-4 0 -7 -14.5t-7 -20.5q-14 -12 -14 -59q-23 -55 -37 -139q-11 -66 -12 -105q0 -11 1 -20q8 -68 113 -109q47 -18 70 -18q10 -2 24 -2q53 0 164 30q23 6 53.5 10.5t63.5 16.5q60 17 84 17q9 0 12 -3q23 -18 12 -49q-6 -16 -65 -49 t-115 -49q-63 -29 -153 -37q-30 -3 -55 -3q-51 0 -83 11q-80 20 -145.5 80.5t-83.5 128.5q-6 45 -7 111z" />
<glyph unicode="M" horiz-adv-x="1474" d="M74 3.5q6 19.5 47 109.5q63 125 84 141q25 33 28 72q27 37 76 133q78 121 148 264q41 70 77.5 134.5t61.5 105.5t39 64.5t31 47.5q35 52 49 64q33 39 33 71.5t17 68.5t36 32q47 0 71 -31q2 -4 8.5 -12t8.5 -11.5t6 -11.5t6 -14t4 -16.5t1 -21.5t-2 -26.5t-4 -42 t-14.5 -92t-11.5 -76.5q-61 -184 -106 -468q-32 -202 -32 -273q0 -28 5 -35q12 -12 24.5 -3t37 56.5t88.5 124.5q14 27 70 117q211 348 376 639q18 27 58 90q72 119 100 139q20 18 40 18q24 0 49 -25q46 -46 50 -136v-12q0 -136 -82 -391q-29 -141 -82 -299q-4 -29 -16 -86 q-17 -92 -17 -125q0 -7 1 -11q-31 -57 -31 -221q-20 -139 -27 -143q-27 8 -26 -10q-6 -20 -28.5 -6t-33.5 28q-17 37 -17 108q0 28 3 62q63 373 149 750q45 160 72 305q0 12 -20.5 -16.5t-20.5 -36.5q-66 -92 -82 -122t-39.5 -76t-41 -75.5t-66.5 -121t-69.5 -125 t-59.5 -109.5q-20 -49 -74 -117l-51 -84q0 -10 -42 -69.5t-96.5 -118t-95.5 -69.5q-8 -2 -16 -2q-35 0 -80 38q-41 47 -48 122q-2 19 -2 43q0 68 15 171q14 70 33 184q41 240 53 266q4 45 -2 46q-8 2 -24 -25q-160 -266 -215 -387q-152 -281 -223.5 -416t-77.5 -143 q-31 0 -78 51q-8 27 -2 46.5z" />
<glyph unicode="N" horiz-adv-x="1159" d="M101 -70q-1 24 15 77q16 56 55.5 149.5t55.5 177.5q70 162 91.5 232.5t38 104.5t45 91t48 105t43 121t35.5 110q33 104 80 172q37 61 89.5 61t72.5 -61q43 -99 43 -393q0 -58 -2 -123q-2 -53 -2 -99q0 -181 25 -274q16 -94 44.5 -203.5t45.5 -109.5q66 0 227 649 q35 117 53 270q66 248 66 275v45q8 0 17 26.5t9 67.5t29 69q8 23 54 11.5t57 -41.5q1 -4 1 -9q0 -57 -59 -305q0 -25 -25.5 -136t-33.5 -159q-19 -129 -36 -129h-1q-84 -360 -215 -659q-62 -143 -132 -143q-48 0 -99 67q-68 88 -99 221q-10 49 -35 183q-35 91 -35 212 q0 21 1 42q2 51 9 143t9 139q-2 145 -16 147h-1q-15 0 -51 -104t-71 -188q-88 -207 -108.5 -250t-39.5 -119q-135 -360 -161 -467q-16 -41 -29 -61q-13 -21 -31 -21q-21 0 -47 29q-30 32 -30 57z" />
<glyph unicode="O" horiz-adv-x="1015" d="M262 45q-29 42 -29 139q0 100 31 258q12 12 10 32t4.5 40.5t18.5 60t20 80.5q92 279 228 457q152 158 250 203q77 46 116 46q10 0 17 -3q115 -25 172 -93.5t88 -224.5q16 -82 16 -158q0 -68 -13 -134q-28 -138 -159 -353q-143 -283 -343 -411q-111 -71 -202 -70 q-72 0 -131 45q-72 55 -94 86zM385 53q12 -20 42 -30.5t60 -4.5q70 8 132.5 54.5t164 163t138 184t92.5 258.5q37 147 37 218t-3.5 161t-41.5 133q-33 36 -77 36q-29 0 -63 -16q-59 -25 -186 -175q-125 -148 -125 -188v-1q0 -16 -10 -31q-55 -57 -119 -266t-69 -323 q-4 -95 -4 -112q0 -6 32 -61z" />
<glyph unicode="P" horiz-adv-x="966" d="M188 -8q10 52 66 221q10 43 22 82q23 72 23 84l10 67q25 0 45 84q4 18 11 39q12 41 14 49q16 53 55 134q61 227 115 344l17 42.5t13.5 34t6.5 21.5q6 16 -2 25q-12 9 -12 22q0 26 51 68q33 39 57 45q15 4 39 4q16 0 35 -2q49 -4 155 -4q12 -6 43 -17q72 -27 72 -32 q0 -16 24.5 -18.5t69.5 -47.5q93 -100 93 -209q0 -21 -3 -41q-8 -82 -24 -102q-33 -25 -33 -42.5t-52 -87t-100 -114.5q-53 -61 -127 -109q-231 -104 -328 -104h-9q-4 0 -43 -6t-47.5 -17.5t-25 -54.5t-16.5 -65q-12 -23 -54 -152t-53 -174t-21.5 -51t-34 -6t-39.5 26 q-16 8 -16 37q0 12 3 27zM492 549q0 -7 3 -15q1 -4 17 -3q16 0 47 4q131 18 283 110q74 51 143 139q97 161 97 246q0 16 -3 29q-10 53 -55 100q-67 70 -174 70q-31 0 -66 -6q-33 -10 -48 -28.5t-40 -78.5q-47 -90 -86 -196q-43 -152 -78.5 -240t-37.5 -92z" />
<glyph unicode="Q" horiz-adv-x="1003" d="M211 203q-1 17 -1 34q0 108 32 252q20 78 67 216.5t56 138.5q6 6 6 31.5t63.5 126t112.5 143.5q68 90 196 155q63 41 151 48q16 1 31 1q67 0 109 -25q51 -30 92 -112q33 -39 40.5 -66.5t11.5 -69.5t6 -50v-10q0 -114 -42 -272q-44 -164 -83 -164q-12 0 -12 -13 q2 -8 2 -19q0 -50 -54 -155q-86 -233 -204 -373q20 -45 32 -61q4 -14 26.5 -49t29.5 -55q46 -74 46 -91q0 -16 -13 -19t-42 -4h-3q-28 0 -61 23q-34 25 -42 54q-12 12 -14 24.5t-7.5 15.5t-19.5 21q-8 10 -27 53q-108 -79 -205 -79q-77 0 -147 49q-55 37 -76 80 q-51 102 -57 221zM350 86q4 -66 35 -96q21 -21 51 -21q14 0 29 4q82 12 162 93q-20 41 -45 88q-53 94 -62 112q-16 16 4 41q10 25 23.5 29t52.5 -6q47 0 86 -99q4 -18 27 -67q125 176 223 452q6 16 31.5 80t40.5 103q41 123 41 229q5 36 5 64q0 41 -10 67q-18 43 -69 68 q-29 10 -59 10q-79 0 -168 -69q-123 -97 -207 -304q-129 -274 -175 -458q-28 -111 -28 -204q0 -62 12 -116z" />
<glyph unicode="R" horiz-adv-x="1019" d="M86 -71.5q0 16.5 57 145.5q12 74 60 170q10 35 160.5 402.5t214.5 504.5q8 22 8 37q0 29 -33 29q-25 27 -25 47q0 19 23 32l106 43q75 17 145 17q131 0 245 -60q180 -105 180 -248q0 -49 -21 -102q-33 -82 -166 -193.5t-247 -160.5q-59 -29 -222 -80q-37 -10 -82 -10 l5 -2q47 -104 182 -254q63 -74 174 -169t190 -134q16 -18 4 -51t-26 -37q-10 -3 -21 -3q-35 0 -86 31q-193 115 -383 334q-90 102 -133 209l-4 -10q-61 -209 -186 -539q-9 -26 -30 -26q-22 0 -56 28q-33 33 -33 49.5zM486 640.5q-3 -17.5 3 -24.5q84 6 238 70 q147 68 264 169q111 96 111 189v9q0 39 -41 82t-84 55q-105 28 -164 28h-19q-60 -6 -73 -63q0 -6 -42 -96t-61 -139q-129 -262 -132 -279.5z" />
<glyph unicode="S" horiz-adv-x="995" d="M268.5 134q1.5 7 24.5 18q23 14 34 9t27 -40q39 -73 160 -91q32 -5 64 -4q87 0 167 37q77 31 95 65q7 12 6 27q0 26 -21 60q-6 23 -18 33q-37 37 -78 74q-45 20 -105.5 48.5t-133 89t-97.5 105.5q-49 45 -59 141q-2 20 -2 38q0 72 30 133q25 55 109 153t129 129l66 62 q2 2 22 10q51 20 98 63q263 127 365 127q78 -4 132 -48t65 -116q5 -19 5 -40q0 -60 -42 -134q-78 -141 -193 -165q-20 -4 -28 4q-9 10 -9 26q0 44 76 129q86 127 86 180q0 33 -33 37q-6 2 -18 2q-30 0 -96 -12q-90 -16 -90 -27l-9 -10q-8 2 -151.5 -85t-147.5 -97 q-4 -23 -47 -41q-61 -37 -149 -188q-36 -48 -50 -102q-7 -27 -7 -48q0 -22 8 -39q10 -35 63 -85t133 -97q225 -125 264 -211q49 -69 49 -140q0 -29 -8 -59q-16 -35 -51 -69q-33 -32 -56 -31h-3q-18 -4 -38 -15.5t-32 -19.5t-97 -17q-59 -6 -111 -6q-23 0 -46 1l-82 24 q4 10 -4 18.5t-28 10.5q-90 57 -123 145q-16 31 -14.5 38z" />
<glyph unicode="T" horiz-adv-x="937" d="M350 1178q10 43 86 55q41 10 193 29q133 18 399 36q18 0 88 -9t98 -19q82 -18 99 -82q8 -29 -17 -39q-4 -2 -6 -4q-42 -13 -74 -13q-27 0 -47 9q-14 12 -24 18q-25 15 -144 23q-74 -6 -104 -6q-8 -61 -47 -136q-6 -23 -16 -49q-18 -59 -19 -67q-12 -16 -69.5 -193.5 t-61.5 -187.5l-98 -269q-41 -78 -63.5 -161.5t-37 -135t-19.5 -60.5t-15.5 -8t-19.5 1t-29 26q-19 24 -19 57v6q2 36 34 142.5t58 165.5q6 29 15.5 58.5t9.5 33.5q23 27 34 82.5t148 483.5q18 31 35 77q16 10 16 43q33 70 37 74v2q-305 -29 -342 -31q-14 -1 -25 -1 q-55 0 -55 35q0 6 2 14z" />
<glyph unicode="U" horiz-adv-x="987" d="M268 94q-14 55 -13 133q0 134 40 336q31 150 105.5 357.5t136 315t86 132.5t49.5 21q58 -17 68 -67q2 -9 1 -17q0 -40 -41 -68q-25 -27 -69.5 -115t-61.5 -118q-127 -365 -159 -549q-43 -199 -43 -351q4 -8 11 -20t10 -19.5t9 -15.5q6 -10 23 -16q25 -12 54 -12 q50 0 112 36q12 23 43 37q6 -8 9 -5t7 13q-2 10 19 31q30 12 112 120.5t82 123t27 45.5q37 37 180 338q125 399 137 459.5t35 126.5h3q16 0 79 -31q12 -15 12 -39q0 -13 -4 -29q-53 -252 -88 -347t-60.5 -156.5t-39 -93.5t-45 -103.5t-43.5 -100.5v-12q-25 -14 -45.5 -52 t-28.5 -42l-19 -47q-2 -12 -24.5 -25.5t-27.5 -28t-7 -18.5q-74 -109 -166 -196q-137 -135 -244 -135q-19 0 -38 4q-145 52 -183 200z" />
<glyph unicode="V" horiz-adv-x="1003" d="M389 319q16 268 39 429v16q0 30 5 84q4 44 4 69q0 14 -1 21q10 31 19.5 103.5t17.5 103.5q14 111 14 117q-2 20 -2 37q0 65 37 81q24 10 42 10q17 0 28 -8q27 -16 27 -54q0 -6 -1 -13q5 -28 5 -64q1 -87 -27 -219q-38 -186 -45.5 -327.5t-13.5 -260.5q-10 -152 -10 -204 q-1 -51 9 -98q8 -44 19 -44q27 6 72 119q8 23 45 94.5t71 167.5q27 59 75 148.5t70.5 143.5t102.5 204q98 152 142 233q61 100 94 136t63 36q18 10 33 -4q30 -30 30 -64q1 -12 -3 -24q-14 -47 -121 -203.5t-162 -263t-63 -125.5q-18 -45 -31 -63q-27 -25 -123 -221 l-150 -344q-8 -25 -27.5 -70t-19.5 -53q-23 -35 -60.5 -54.5t-60.5 -9.5q-18 4 -20 35t-14.5 42t-46.5 19q-33 33 -42.5 85.5t-19.5 256.5z" />
<glyph unicode="W" horiz-adv-x="1474" d="M295 16q-2 13 -2 33q-1 59 13 177q18 159 34 262.5t57 295t54 252.5q14 31 34.5 106t22.5 85q0 41 19.5 58.5t43 12t37.5 -25.5q34 -36 34 -87q0 -38 -19 -85q-92 -225 -148 -594q-52 -311 -53 -379q0 -17 4 -19q18 -6 47 24t51 79q121 201 289 520.5t178 336.5t26.5 47 t27 48.5t23.5 41t21.5 35.5t16.5 26q20 29 29 30q68 -4 96 -69q6 -23 -6 -51q-29 -78 -56 -187q-39 -102 -51 -165.5t-45 -209.5q-63 -300 -64 -408q0 -7 -1 -14q0 -97 14 -131q4 -18 24.5 -21t36.5 15q104 135 206 323.5t274 596.5q88 254 108 282q31 44 63 44q19 0 38 -15 q20 -20 20 -57v-10q-20 -72 -95 -267.5t-100.5 -250t-44 -83t-26.5 -45t-8 -32t-107.5 -209t-167 -269t-128 -124t-95.5 -48.5h-9q-52 0 -69 46q-37 37 -45 83q-8 78 -8 156q0 182 41 369q27 121 44 185q12 46 12 60q0 5 -2 5q-7 0 -31.5 -46.5t-59.5 -117.5 q-113 -236 -256 -477q-10 -12 -65.5 -93t-90.5 -112q-54 -51 -100 -51q-34 0 -64 26q-26 30 -26 65q0 13 4 27z" />
<glyph unicode="X" horiz-adv-x="1073" d="M121 5.5q14 35.5 21.5 45.5t13.5 18.5t22.5 25t28.5 27.5t46 42t55.5 52.5t48 46t43 38.5t16.5 18.5t7 12.5t18.5 20.5t19.5 24.5q35 27 190 178q-16 84 -30.5 186.5t-28.5 116.5q-4 10 8 14q4 4 -10.5 52.5t-28.5 181.5q-14 152 -22 180q6 16 26 37q20 14 39 14 q25 0 48 -24q42 -43 42 -108.5t13 -78.5q-1 -3 -1 -16q0 -22 4 -74q7 -82 13 -102q-8 -25 0 -35l8 -82q0 -23 35 -145q33 37 76 80q133 137 159 170q219 260 250 338q6 14 11.5 23t6.5 12t4 7.5t5 6.5l4 4q8 4 14 4q39 -2 52 -35q7 -17 7 -37q0 -66 -75 -174 q-47 -47 -53 -80q-158 -190 -201 -225q-127 -109 -164 -156q-41 -45 -49 -49q-2 -8 -10 -16q41 -174 105.5 -306.5t117.5 -162.5q4 -4 21.5 -5t21.5 5q31 6 42 -17.5t13 -62.5q6 -23 -32 -40q-28 -13 -61 -13q-11 0 -23 2q-80 6 -164 159q-98 135 -158 326 q-88 -84 -270.5 -282.5t-196.5 -226t-55 -17.5q-10 -6 -31 0q-6 12 -12 43q-14 23 0 58.5z" />
<glyph unicode="Y" horiz-adv-x="1032" d="M448.5 -58q4.5 19 6.5 29q6 29 22 82q4 123 62 228q0 63 63 215l33 98q-115 152 -133 289q-22 75 -22 214q0 54 3 117q0 86 35 150q6 12 6 14q12 15 23 15q20 0 37 -45q16 -48 16 -114v-15q12 -449 102 -506q31 -8 54 8q68 49 232.5 242.5t225 260.5t89.5 83q14 23 43 26 q12 -4 19 -29.5t15.5 -41t6 -29.5t-45.5 -57q-45 -39 -143 -141.5t-156 -174.5q-186 -215 -247 -270l-43 -43q-10 -37 -35 -144q-12 -41 -35 -114q-31 -106 -53.5 -178t-40 -143.5t-27.5 -92t-25.5 -16.5t-68.5 41q-23 23 -18.5 42z" />
<glyph unicode="Z" horiz-adv-x="1069" d="M129 -14q-2 10 -2 19q0 46 41 89q207 223 520 504q162 139 318.5 303t177.5 240q5 16 5 29q0 30 -27 42q-38 16 -184 25q-29 2 -62 2q-133 0 -326 -33q-12 -4 -32.5 6.5t-20.5 20.5q16 23 -9 43q-12 25 17 53q12 6 63 12.5t86 12.5q36 6 140 8q35 1 62 1q55 0 81 -3 q39 -4 80 -7t61.5 -5t54 -7.5t52 -11.5t41.5 -16q69 -33 69 -118q1 -24 -17 -65q-20 -45 -24 -57q-37 -70 -145.5 -196.5t-294.5 -300t-313 -282t-232 -206.5q-13 -16 -13 -27q0 -19 38 -22q19 -2 40 -2q50 0 106 11q78 15 266 26.5t221.5 11.5t60.5 -37q27 -10 26 -28.5 t-28 -38.5q-10 0 -49 -7q-85 -17 -138 -17q-11 0 -19 1q-9 1 -21 1q-66 0 -238 -19q-109 -17 -227 -17q-41 0 -84 2q-86 6 -101.5 22.5t-19.5 37.5z" />
<glyph unicode="[" horiz-adv-x="675" d="M139 -162q27 18 27 54t57.5 241t73.5 229q0 37 63 134q63 207 167 461.5t153 330.5q16 70 16 72q0 41 21.5 58.5t79.5 17.5q45 6 106 10q141 12 275 70q41 18 55 12t31 -31q29 -33 24.5 -47t-47.5 -33q-150 -49 -309 -69q-92 -25 -100.5 -36.5t-50.5 -93t-42 -88.5 q-10 -10 -59 -111t-53 -121.5t-25 -66.5q-51 -121 -83 -219t-40 -116q0 -35 -21.5 -72t-35.5 -92l-25 -49q0 -16 -18 -82q-4 -4 -10 -23q-18 -70 -45 -145.5t-27 -114.5l-10 -57l61 12q221 31 287 31q53 10 66.5 8t37.5 -29q16 -39 11 -45q-12 -16 -228 -47h-76 q0 -18 -67 -18q-16 -8 -59.5 -20.5t-70 -24t-44 -11.5t-39.5 19q-76 33 -27 102z" />
<glyph unicode="\" horiz-adv-x="675" d="M354 1251q-6 119 24 181.5t85 37.5q18 -18 6 -90q-2 -45 47 -375.5t55 -386.5q29 -90 17 -114q-4 -20 6 -25q12 -12 11 -25.5t23 -100t40 -117.5l6 -74q0 -6 14 -52.5t23.5 -75t27 -63t23.5 -52t0 -36.5q4 -49 -31 -71l-37 -25q-23 0 -26 12q-37 8 -29 37 q-2 27 -50 215.5t-61 222.5q-18 59 -12 66q-14 33 -10 45q-14 10 -10 61q-4 49 -19 50q-10 43 -61 337.5t-49 318.5t0 37t-6.5 31.5t-6.5 30.5z" />
<glyph unicode="]" horiz-adv-x="675" d="M-96 -168l24 10q14 18 118 37t128 12l70 -4l73 7l21 55q10 55 10 84q29 23 25 55q4 10 41 131q2 23 24.5 93.5t28.5 97t26.5 88t24.5 80.5q2 18 17.5 61t17.5 66q16 55 84 257.5t98 301.5q29 55 45 129q-401 -27 -406 -19t-13.5 7t-16.5 8q-37 43 57 67q160 43 291 43 l47 -4q145 35 176 12q8 0 20.5 -12t12.5 -31q14 -29 15.5 -36t-15 -29.5t-56.5 -108.5t-39 -100t-13 -16q-10 -2 -9.5 -16.5t-8.5 -44.5t-17 -30q-10 -2 -10 -20.5t-16.5 -65.5t-32 -89t-24.5 -64.5t-15.5 -35.5t-10.5 -32q-20 -47 -28 -125q-37 -53 -52 -114l-12 -58 q0 -12 -20.5 -84.5t-34.5 -99.5q0 -29 -37 -143q-25 -127 -33 -144l-18 -31q0 -35 -10 -43l-7 -32l2 -8q-8 0 -8 -52.5t-18.5 -63.5t-102.5 -5h-71q-49 0 -68 4q-68 -6 -117 2q-25 -2 -59.5 3t-46.5 9z" />
<glyph unicode="^" horiz-adv-x="913" d="M274 618q-31 20 19 148q14 27 28.5 58.5t22.5 45.5q14 31 37 58q41 72 129 143.5t147 65.5q51 -6 207 -375q35 -84 37 -88q20 -45 -20 -74t-56 4q-2 6 -12 35t-90 203q-23 37 -48.5 90t-37.5 67q-35 43 -137 -81q-63 -74 -121 -203q-45 -129 -105 -97z" />
<glyph unicode="_" horiz-adv-x="913" d="M102 61q20 14 97 23q129 29 516 29q53 0 71.5 -5.5t40.5 -25.5q33 -31 23 -58.5t-55 -19.5q-258 -20 -555 -20q-41 0 -72 10q-43 0 -59 29q-23 31 -7 38z" />
<glyph unicode="`" horiz-adv-x="722" d="M549 1178q49 43 65 39q41 -14 89.5 -124t49.5 -128.5t-12.5 -38t-29.5 -23.5q-25 -16 -34 -10t-22 43q-8 16 -49 76q-86 131 -57 166z" />
<glyph unicode="a" horiz-adv-x="894" d="M176 152q-7 7 -7 22q0 64 118 279q12 12 31.5 42.5t25.5 34.5q0 8 6 15.5t15 7.5v12q0 18 67 90q128 133 215 133q36 0 64 -22q12 -16 170 -156l-37 -102q-17 -52 -17 -101q0 -78 43 -149q10 -23 41 -43t62 -25q45 -8 45 -47t-37 -47q-12 -2 -24 -2q-122 0 -209 170 q-29 39 -37 90q-31 -43 -66 -78q-221 -223 -353 -223q-40 0 -73 21q-6 12 -19.5 25.5t-13.5 26.5t-10 26zM293 188q0 -23 52 3t87 55q176 152 254 264l45 74q-37 82 -82 82t-137 -107.5t-168 -253.5z" />
<glyph unicode="b" horiz-adv-x="890" d="M247.5 265q0.5 16 28.5 118q16 78 42 162t36 92q17 28 17 61l22 70q10 8 38 89t52 134q74 164 103 244q12 18 26 43q29 53 39 57q16 4 42 -6t39 -30.5t7 -39t-80.5 -176t-113.5 -258t-70 -190.5t-41 -117l-10 -45l51 49q25 18 78 65.5t66.5 55.5t60.5 29q80 35 155.5 35 t127.5 -86q21 -40 21 -83q0 -56 -36 -116q-31 -23 -33 -47.5t-104 -136.5q-53 -55 -140 -110.5t-120 -67t-53 -15.5q-51 -6 -66 -10q-41 4 -50 10t-22 33q-25 27 -20 47q25 0 29 8q1 12 39 8h4q40 -1 138 57q104 62 210 158q76 98 95 144q11 26 11 47q0 16 -6 28 q-3 16 -39 16q-9 1 -21 -1q-56 -6 -114 -45q-221 -137 -297 -307l-10 -21q0 -8 -23.5 -20.5t-40.5 -12.5q-33 14 -39 45q-29 20 -28.5 36z" />
<glyph unicode="c" horiz-adv-x="727" d="M211 197q-1 13 -1 27q0 82 41 196q48 133 137 240.5t136 127t101 19.5q37 -8 72.5 -30.5t35.5 -45.5l10 -10q19 1 29 -55q4 -22 3 -41q0 -28 -9 -47q-8 -39 -27.5 -68t-40 -29t-20.5 -12q0 -18 -23.5 -4t-26.5 28.5t0 26.5t11 35q17 55 17 87q0 42 -30 42q-14 0 -34 -8 q-170 -96 -252 -414q-12 -41 -11 -69q0 -10 1 -18q6 -30 10 -32q18 -5 43 -5q16 0 35 2q49 5 93 29t85 54.5t61.5 48t32.5 23.5q18 29 31.5 31t34.5 2q49 -16 51 -35q0 -4 -8 -8l-11 -11q1 -1 1 -3q-1 -19 -73 -87q-80 -74 -102 -73.5t-22 -12.5q0 -8 -62.5 -37.5 t-101.5 -37.5q-24 -4 -45 -4q-63 1 -109 35q-62 46 -63 143z" />
<glyph unicode="d" horiz-adv-x="804" d="M223 348q43 127 119 211q90 134 194 134q51 0 105 -31q44 -22 61 -22q2 0 4 1q14 4 31 72q55 236 195 530q31 68 65 68h4q45 0 70 -62q6 -14 6 -27q0 -20 -12 -40q-53 -92 -131 -301t-110 -329q-34 -120 -48 -288q-8 -92 -7 -149q0 -47 5 -69q8 -33 8 -51q0 -9 -2 -15 q-6 -16 -41 -19q-9 -2 -17 -2q-37 0 -52 47q-29 82 -29 161q0 21 2 42l4 43l-80 -64q-128 -114 -246 -114h-2q-120 21 -120 144q0 55 24 130zM313 223q-1 -4 -1 -8q0 -31 43 -32q16 0 38 5q61 14 172 107q6 4 24.5 18.5t25 22.5t18.5 23.5t18 27.5q23 46 23 84q0 52 -43 90 q-15 15 -46 15q-9 0 -21 -1q-46 -6 -87 -45q-123 -111 -164 -307z" />
<glyph unicode="e" horiz-adv-x="665" d="M221 375q8 115 98.5 234.5t190.5 158.5q30 18 54 19h5q25 0 77 -7q58 -8 91 -49q51 -51 51 -119q-8 -49 -63 -112.5t-133 -102.5q-47 -14 -87 -14q-57 0 -99 29q-37 14 -50.5 -6.5t-23.5 -102.5q-3 -23 -2 -42q0 -101 69 -114q8 -2 24.5 -5l22 -4t17.5 -2t20 1 q16 4 31.5 13.5t24.5 13.5q16 8 21 11t6 3t4 2t3 4q14 12 36 34t32 22t21.5 -10.5t15.5 -12.5q15 0 15 -10q0 -13 -24 -43q-42 -53 -104 -92q-52 -45 -119 -45q-18 0 -36 3q-88 15 -142 89q-50 64 -50 189q0 31 3 67zM406 512q8 -16 65 -18h14q47 0 78 12q35 14 71 51t36 65 q0 26 -29 44q-18 11 -41 12q-12 0 -26 -4q-38 -10 -79.5 -47t-68.5 -73t-20 -42z" />
<glyph unicode="f" horiz-adv-x="595" d="M161 -134q-1 6 -1 16q0 19 4 55q10 31 10 86q0 68 29.5 187.5t38.5 176.5q39 129 39 168t28 55q2 16 31 68q86 240 123 305q37 102 59 129q14 35 78 102.5t113 108.5q76 39 121 39t59 -6q23 -6 53 -37q27 -31 32 -41t5 -39q-8 -43 -41 -110.5t-49 -69.5q-25 -8 -36 5 t-11 44l-15 41q0 31 15 51q10 20 4 30.5t-27 4.5q-18 -10 -91 -72.5t-73 -75.5q-10 -27 -38 -61q-37 -51 -37 -70.5t-13 -19.5q-8 -29 -28 -66q-18 -49 -41 -71h2q-38 -99 -38 -112q0 -11 62 -5q60 6 105 18q24 7 47 7q20 0 39 -5q23 -14 37 -46.5t6 -45.5q-8 -23 -217 -61 q-137 -27 -137 -35q-20 0 -20.5 -26.5t-9.5 -49t-35 -126t-26 -128.5q-16 -20 -16 -73q-12 -23 -12 -52l-17 -200q-6 -61 -20 -76q-3 -2 -7 -2q-20 0 -65 51q-16 18 -19 34z" />
<glyph unicode="g" horiz-adv-x="727" d="M145 -130q11 9 35.5 1t31.5 -28.5t33.5 -57.5t39.5 -39q31 -15 55 -15q20 0 35 11q33 27 56.5 69t51.5 134q86 303 107 342q-14 -12 -41 -37q-57 -53 -100 -70q-12 -16 -61 -18h-12q-42 0 -81 12q-43 23 -53.5 35t-26.5 50q-10 23 -10 59q0 22 4 48q10 70 37 140 q39 80 123 170t145 108q22 11 48 11q20 0 44 -7q49 -6 113 -61q49 -49 72 -109q11 -23 11 -45q0 -33 -24 -63q-27 -27 -46 -65.5t-23 -59.5q-2 -16 -105 -410q-92 -317 -184 -366q-24 -10 -50 -10q-33 0 -69 16q-106 47 -149 184q-11 39 -11 57q0 11 4 14zM329 326v-13 q0 -42 17 -49q123 4 219 152q61 84 61 181q0 14 -1 28q-2 33 -11.5 43t-33.5 6q-80 -12 -174 -131q-31 -41 -52.5 -101.5t-24.5 -115.5z" />
<glyph unicode="h" horiz-adv-x="950" d="M194 162.5q-1 15.5 7 54.5q55 233 121 412q25 90 62.5 185t64 170t51 142.5t37.5 98.5q16 43 28 82q0 33 33 32q40 0 60 -57q8 -22 8 -46q0 -36 -18 -74q-30 -62 -100.5 -261t-101.5 -264q0 -25 -43 -111q0 -8 -25.5 -91t-31.5 -124q31 53 105 119q113 96 139 115l63 43 q0 10 16.5 10t16.5 13.5t47 24.5t78 11t45 -10t37 -45q35 -46 35 -102q0 -34 -13 -72l-10 -109l-12 -65h33l45 -11q18 -23 33 -22q33 0 12 -31q-10 -14 -25 -24q-49 -32 -89 -32t-72 32q-43 42 -43 112q0 34 10 74q9 80 9 123v8q-1 43 -22 43q-47 0 -193.5 -107.5 t-219.5 -218.5q-61 -78 -95 -81t-57.5 17.5t-24.5 36z" />
<glyph unicode="i" horiz-adv-x="382" d="M199 131q-1 9 -1 17q0 29 11 49l8 43q-2 12 16 67q37 82 99 289q0 25 33 27q25 8 37 0.5t32 -39.5q14 -14 14 -39q0 -29 -19 -72q-36 -80 -44 -123q-31 -68 -46 -129t-28 -82q-18 -84 -33.5 -98t-45 17.5t-33.5 72.5zM399 948q-2 31 2 33q16 2 38 36t21 55.5t19 25.5 q15 10 29 10q32 0 63 -49q12 -30 12 -50q0 -9 -2 -15q-6 -24 -44 -70q-34 -45 -68 -45q-22 0 -43 18q-25 20 -27 51z" />
<glyph unicode="j" horiz-adv-x="417" d="M-164 -226q2 33 23 33q14 0 26.5 -14t12.5 -41.5t15 -51.5t40 -24q23 -8 60.5 13.5t62 57.5t76 137.5t75.5 166.5q29 96 84 361q6 43 18.5 91t12.5 75.5t14 56.5l11 86q8 8 29.5 1t39.5 -28q20 -21 20 -43q0 -26 -14 -145q0 -61 -31.5 -187t-38.5 -155t-13.5 -48.5 t-7.5 -29.5t-26.5 -81t-29.5 -99.5t-34 -93t-70.5 -127t-67.5 -82.5q-41 -45 -109 -45h-6q-71 2 -121 53q-25 37 -39 84q-12 41 -12 71v8zM430 1063q6 43 41 86q31 38 64 38q25 0 51 -22q20 -35 20 -56.5t-20 -53.5q-51 -57 -82 -70.5t-58 8.5q-18 21 -18 52q0 9 2 18z" />
<glyph unicode="k" horiz-adv-x="747" d="M152 131q6 12 15 43t24.5 79t27.5 87q16 27 43 109q20 39 69.5 157.5t65 152.5t122 287.5t110.5 274.5q-1 33 22 33q10 10 26.5 10t39 -32t22.5 -54q0 -82 -121 -328q-185 -398 -185 -443q0 -4 1 -5q47 18 129 76q37 25 96 61q86 49 93 57q35 14 51 10t37 -30 q18 -29 7 -46.5t-54 -44t-113 -69.5t-114 -69.5t-48 -32.5q31 -61 60 -107q45 -68 45 -78q23 -66 67 -93q23 -14 51 -14q27 0 55 12q21 9 36 9q30 0 40 -32q8 -16 5 -23.5t-27 -32.5q-55 -55 -106 -55q-24 0 -46 12h-3q-30 0 -74 41q-46 43 -127 150q0 14 -56 108 q0 6 -22 43q-16 0 -22.5 2t-16.5 -8q-18 -18 -26.5 -32.5t-12.5 -20.5q-58 -150 -58 -208q0 -12 3 -21q0 -33 -10.5 -44.5t-43.5 -11.5q-25 8 -51 48t-26 73z" />
<glyph unicode="l" horiz-adv-x="346" d="M186 50q-10 31 -11 72q0 47 13 107q23 59 23 86q6 39 42 140.5t46 122.5q20 0 20 45t23 63l20 78q33 63 115 285.5t82 251t33 28.5q10 10 33 10l32 -32q23 -20 23 -55t-2 -46.5t-4 -20.5t-10.5 -27.5t-14.5 -33t-24.5 -52.5t-29.5 -64.5t-25.5 -56t-22.5 -47t-8 -21.5 t-3.5 -13.5t-9.5 -25t-16 -37.5q-82 -180 -82 -199.5t-10 -29.5q-10 0 -10 -17v-6q0 -20 -33 -109q-88 -297 -88 -353t-3 -70.5t-18 -22.5q-12 -3 -22 -3q-41 0 -58 53z" />
<glyph unicode="m" horiz-adv-x="1146" d="M193 238q12 57 22 98t15.5 66.5t9.5 44t6 25.5t9 27.5t19.5 49.5t34 84t21.5 83.5t23.5 45t45.5 12.5q57 -12 60 -74v-6q0 -31 -17 -73q-90 -221 -90 -242q2 -8 37 21.5t73 64.5t123 88t130 68q12 0 20 -2.5t13.5 -3.5t14.5 -8t13 -9q16 -18 38 -40q14 -14 14 -39 q0 -16 -5 -36l-41 -129q154 131 205 158q41 21 73 21q47 0 77 -44q25 -25 25.5 -45t0.5 -26v-70q12 -160 19.5 -169t53.5 -16t50 -29.5t-26 -43.5q-29 -17 -65 -17q-33 0 -71 14q-78 29 -77 176v11q3 49 3 81v15q-1 36 -16 36q-27 0 -114 -70q-109 -88 -193 -184 q-10 -14 -16 -19.5t-16.5 -14.5t-16.5 -11.5t-16 -4.5h-3q-15 0 -57 33q-18 16 -10 47l47 135q54 129 54 153q0 5 -3 5q-18 -2 -51 -19.5t-41 -33.5q-6 0 -28.5 -22.5t-37.5 -30.5q-10 -16 -67 -72.5t-76.5 -74t-47.5 -52.5t-45 -58.5t-22 -23.5q-63 0 -79 62q-8 17 -8 41 q0 21 6 47z" />
<glyph unicode="n" d="M213 193q0 16 13.5 75.5t21.5 75.5q8 0 20.5 26.5t20.5 39.5q6 31 53 141q47 80 55 164q-2 8 4.5 15t14.5 7q15 14 30 14q22 0 46 -32q34 -45 34 -90q0 -7 -1 -15q-7 -52 -66 -149q-29 -70 -29 -78q82 55 115 78q16 18 87.5 65.5t100.5 53.5q48 23 67 23v-1 q18 0 60.5 -37t50.5 -61q-1 -22 7 -48q6 -20 6 -71v-29q-2 -74 -17 -81q0 -10 11 -11v-10q-23 0 -3.5 -38t38 -56.5t14.5 -40t-37 -29.5q-80 0 -113 76q-12 44 -16 100q-1 21 -1 35q0 26 4 33q6 10 6 54v12q-1 54 -18.5 61.5t-50.5 -12.5q-242 -152 -342 -238 q-27 -29 -63 -90q-6 -10 -17 -10q-5 -2 -11 -2q-19 0 -48 24q-45 49 -47 56z" />
<glyph unicode="o" horiz-adv-x="722" d="M200 284.5q5 6.5 7 8.5q12 -1 8 19q-1 3 -1 8q0 20 18 68q20 56 51 104q137 227 319 270q43 12 62.5 10t48.5 -33q47 -20 68.5 -48.5t27.5 -84.5q2 -18 2 -37q0 -143 -109 -299q-47 -68 -88 -103.5t-108 -76.5q-80 -53 -160 -59q-35 0 -80 39q-67 69 -67 131q0 10 2 20 l4 47q-10 10 -5 16.5zM334 289q-20 -48 -20 -82q0 -39 26 -62q15 -13 35 -13q61 0 168 116q88 100 135 229q11 30 11 81v8q-1 56 -17 65q-19 11 -41 11q-42 0 -94 -42q-102 -88 -203 -311z" />
<glyph unicode="p" horiz-adv-x="774" d="M82 -338q23 86 22 119l11 65q22 35 22 92q0 30 25 50l14 73q10 55 80 262t119 334q43 100 43 162q0 10 22 35q11 11 26 11q17 0 40 -17q6 -4 17.5 -21.5t14.5 -31t1 -58.5t-35 -100q98 41 169 41q51 0 88 -22q89 -50 89 -175q0 -37 -21.5 -89t-42.5 -70q-12 0 -32 -43 q-27 -33 -88 -69q-51 -29 -76 -29q-6 0 -10 1q-10 0 -11 -12q0 -14 -76.5 -33.5t-113.5 -19.5t-55 16q-14 -14 -14.5 -31.5t-21 -77t-32.5 -59.5q-12 -10 0 -22q0 -43 -12 -64q0 -53 -21 -98q0 -25 -7 -48.5t-15 -23.5q-12 -4 -13.5 -57t-19.5 -82t-43 -29q-2 0 -9 -1t-12 1 q-30 7 -30 57q0 26 8 64zM373 225q31 0 124 32t141 73t72 96q11 26 11 52q0 32 -16 65q-17 23 -51 23q-24 0 -56 -11q-137 -47 -201 -186q-38 -80 -38 -116q0 -22 14 -28z" />
<glyph unicode="q" horiz-adv-x="772" d="M209 331.5q0 57.5 110 209.5q23 39 91.5 97t102.5 78.5t79 41.5q37 23 53 22q40 9 75.5 9t65.5 -9q57 -39 78 -131q0 -35 -8 -61.5t-47 -112.5q-29 -45 -52.5 -93t-23.5 -58q-10 -29 -88 -197q-2 -12 -18 -70q-37 -141 -58 -235q-19 -98 -19 -161t19 -89q8 -25 -12 -32 t-53 9q-43 29 -56 99q-5 22 -5 55q0 67 19 175q27 161 85 325q18 32 12 59q-176 -84 -223 -84t-87 48t-40 105.5zM334 305q18 -5 37 -5q96 0 231 128q51 47 94 129q35 67 35 96q0 6 -2 11q-8 10 -22 10q-20 0 -55 -19q-58 -32 -99 -63q-147 -113 -197 -227z" />
<glyph unicode="r" horiz-adv-x="737" d="M215 102q-2 5 -2 17q0 53 43 239q6 51 71.5 215t106.5 224q18 14 35 14q23 0 45 -23q20 -16 8 -55q-16 -53 -66 -163q-45 -98 -45 -108q0 -1 1 -1q6 0 18 8q23 39 110 106.5t109.5 79t48 21.5t29.5 12q35 18 73 18q11 0 22 -1q50 -6 63 -37q0 -20 24 -33l11 -12 q0 -18 -53.5 -21.5t-118.5 -32.5q-8 -6 -34 -19t-35 -19.5t-31.5 -18.5t-34 -20.5t-30 -20.5t-31.5 -22.5t-30 -22.5q-63 -53 -119 -147q-14 -14 -29.5 -75t-15.5 -75q-8 -33 -29.5 -61.5t-38 -28.5t-48.5 33q-20 16 -27 30z" />
<glyph unicode="s" horiz-adv-x="698" d="M211 82q-1 29 13 31q2 0 7 1q24 0 119 -10q45 0 102.5 11.5t63.5 25.5q6 5 -10 23l-37 14q0 18 -59 45q-104 85 -104 104q0 2 1 3v10q-14 0 -31.5 40t-17.5 76t32 101.5t81 112.5t141 106q136 89 216 89q30 0 52 -13q61 -37 86 -102q0 -129 -37 -129q-10 0 -10 -16.5 t-31 -43.5q-49 -36 -75 -36q-22 0 -27 26q-10 20 -18 20q-12 6 -13 27l13 23q12 0 40.5 48t28.5 62t-3 16.5t-19 2.5q-160 -72 -199 -109q-8 -14 -10 -17t-10 -3q0 2 -1 2q-8 0 -65 -78q-14 -20 -43 -64q-14 -14 -15 -40.5t-2 -30.5t0 -9.5t2 -8.5t6 -8t9 -8t14.5 -11.5 t18.5 -14.5q186 -139 198 -186q26 -47 26 -76q0 -10 -3 -18q-12 -31 -56 -51.5t-128 -27.5q-39 -3 -69 -3q-35 0 -58 4q-37 14 -72 41.5t-47 48.5z" />
<glyph unicode="t" horiz-adv-x="677" d="M238 250q4 96 14 136t36.5 111.5t33.5 94.5l55 119l-82 22q-14 2 -23.5 14.5t-9.5 25.5t17.5 37t31 23t61.5 0t64.5 7t22.5 22q18 51 51 111q61 119 98 149q16 13 33 13q25 0 55 -25q16 -25 17.5 -32t-13 -35.5t-42 -74.5t-37.5 -67q-35 -49 -11 -53q5 -1 14 -1 q31 0 108 12q17 3 31 3q68 0 77 -59q6 -49 -10.5 -59.5t-94.5 -10.5q-66 -10 -124 -11t-70 -5q-25 -6 -39 -39q-6 -4 -15 -23q-12 -25 -51 -96q-54 -163 -72 -275q-11 -70 -11 -104q-1 -20 3 -28q10 -20 72 -25q15 -2 30 -2q91 0 195 61l56 33q8 13 16 13q13 0 27 -33 q0 -23 -3.5 -35t-22.5 -35t-60 -45q-121 -76 -235 -76q-32 0 -64 6q-33 6 -67 44t-44 71l-10 16q-9 8 -9 63q0 18 1 42z" />
<glyph unicode="u" horiz-adv-x="757" d="M236 252q6 143 88 323q66 129 94 173q17 6 31 6q38 0 45 -47q6 -9 6 -25q0 -50 -62 -166q-79 -187 -79 -265q0 -43 24 -52q11 -7 25 -6q18 0 40 8q42 16 104 88.5t102 169t46 170.5q-2 9 -2 18q0 38 37 60q8 12 21.5 19t19.5 -1l33 2q6 0 12 -12.5t13 -16.5 q16 -13 16 -46q0 -65 -62 -206q-67 -138 -67 -214q0 -75 59 -126q27 -18 27 -63v-12q-8 -29 -45 -38q-11 -3 -22 -3q-24 0 -46 14q-49 47 -73 139q-5 12 -5 47v39q-12 -31 -45 -55q-47 -47 -94 -70q-73 -45 -113 -47h-3q-39 0 -78 45q-52 42 -52 107q0 21 5 43z" />
<glyph unicode="v" horiz-adv-x="677" d="M233 612q-6 23 -6 42q0 40 29 59q23 14 49 9q45 -16 82 -249q8 -70 20.5 -114t12.5 -48q17 -37 33 -37q7 0 14 7q43 43 115.5 142t95.5 128q80 109 106 117q33 4 47 -6q9 -6 9 -19q0 -27 -39 -82q-12 -16 -25.5 -44t-27 -52.5t-74 -106.5t-71.5 -93t-28 -25 q-51 -43 -69 -72q-49 -47 -78 -57.5t-53 14.5q-23 16 -56.5 137t-47 199t-38.5 151z" />
<glyph unicode="w" horiz-adv-x="1058" d="M262 354q0 68 13.5 131.5t15.5 71.5q20 147 51 178q14 18 43 17q56 -4 56 -93q0 -9 -1 -18q-4 -66 -22 -90q-4 -10 -15.5 -103.5t-15.5 -115.5q-2 -15 -3 -27q0 -42 28 -45h3q45 0 129 121q87 125 121.5 224.5t47.5 107.5t28 8q23 0 50 -19q24 -24 24 -59t-24 -82 q-25 -49 -45.5 -136t-20.5 -125t6 -50t12.5 -14.5t20.5 -2.5q96 0 235 213q59 92 59.5 106.5t18.5 37.5q23 33 47.5 45t55.5 -19q12 -12 12 -65q-10 -37 -34.5 -95.5t-39.5 -74.5q-39 -31 -65 -76q-57 -68 -82 -88t-31 -27q-63 -62 -136 -80q-25 -6 -47 -7q-40 0 -67 22 q-63 33 -63 111l-11 43q-31 0 -54 -42t-93 -93.5t-107 -51.5q-48 0 -78 81q-24 64 -24 140q0 20 2 41z" />
<glyph unicode="x" horiz-adv-x="702" d="M115 147q66 78 141 144l131 129l-22 78q-37 80 -54 129q-25 33 -25.5 43t15.5 35q18 18 26.5 21t37.5 -11q16 0 52 -68.5t37 -95.5q0 -25 19 -25q24 0 78 37l53 53q12 10 70.5 51.5t73.5 47.5q25 16 55.5 -13.5t30.5 -58.5t-12.5 -43t-53.5 -37q-119 -86 -197 -153 l-53 -43l33 -56q33 -66 53 -75q16 -23 81 -72t70 -49t46 -21q25 -25 24.5 -56.5t-24.5 -31.5q-33 0 -43 12q-63 0 -168 91.5t-105 115.5q0 8 -1 9.5t-9 1.5q-12 10 -12 22q0 20 -21 21q-55 -43 -137 -125t-104.5 -82t-54 25.5t-31.5 49.5z" />
<glyph unicode="y" horiz-adv-x="698" d="M-98 -317q-4 20 17.5 38.5t35.5 -0.5q55 -37 110 -37q108 0 214 146q104 172 149 256q-41 12 -78 72q-32 51 -32 78q0 4 1 8v22q-23 0 -34 108q-7 71 -7 120q0 25 2 44q5 56 13 191v7q0 39 22 55q17 7 30 7q47 0 56 -83q3 -27 3 -66t-3 -90q-4 -57 -4 -106 q0 -225 76 -281q41 96 58.5 130t19.5 45t10 26.5t41 81.5q53 154 65.5 175t19.5 36.5t11 23.5t10.5 19.5t10.5 17.5t10 12q8 10 19 15q18 14 25 14t30 -12q33 -37 33 -68v-8q-5 -35 -50 -121q-37 -109 -65 -141q-68 -156 -122 -264.5t-79 -171.5q-131 -209 -184 -273 q-113 -100 -180 -119q-27 -8 -56 -8q-46 0 -100 18q-88 31 -98 83z" />
<glyph unicode="z" horiz-adv-x="645" d="M70 78q-15 6 -15 21q0 32 70 106q78 96 138.5 144t228.5 163q57 47 88.5 68.5t42.5 29.5q-71 7 -118 7q-19 0 -34 -1q-86 0 -106 7h-31q-20 0 -64.5 21.5t-46.5 39.5q23 10 33 23q35 23 43 14q61 0 127 4q170 -2 220 -13.5t93 -47.5q27 -27 27 -56q0 -30 -29 -63 q-23 -27 -28 -27q-78 -53 -129 -84q-86 -51 -93 -61q-41 -20 -63 -43q-27 -33 -74 -66l-106 -102q135 17 228 17q19 0 36 -1q147 6 197 6q68 0 87 -7t34.5 -29.5t9.5 -32.5q-4 0 -31 -4q-53 -6 -119 -9q-64 -4 -290 -32q-211 -27 -255 -27h-5q-34 2 -66 35z" />
<glyph unicode="{" horiz-adv-x="675" d="M289 -61q12 10 16 53q37 143 96 268q55 102 56 152q0 66 -103 86q-61 0 -41 59q8 25 34 39t52 6q47 0 109 68q127 137 149 448q8 117 39 183.5t107 140.5q27 39 52.5 51t40.5 20.5t19 10.5q92 33 138 6q14 -6 31.5 -41t9.5 -41q-4 0 -27 -5t-47 -5q-78 -18 -148 -80 q-45 -59 -58 -85t-15 -50q-20 -53 -25 -80q-8 -39 -19.5 -154t-26.5 -154.5t-21 -54.5q-55 -152 -142 -227q-35 -20 -38 -28.5t16 -30.5q0 -2 10 -27t10 -41q14 -35 2 -81t-61 -157q-39 -78 -39 -112q-14 -20 -39 -113q-8 -49 -14 -75.5t-6 -30.5q0 -39 92 -25q35 10 47 8 t26 -20q47 -41 -41 -68q-45 -25 -97 -26.5t-73 14.5q-18 28 -18 16q-57 25 -53 125v58z" />
<glyph unicode="|" horiz-adv-x="675" d="M226.5 -237.5q-21.5 65.5 2.5 180.5q23 59 23 86q8 39 84 274.5t86 253.5q20 0 20 45.5t23 63.5l20 77q35 66 167 410t132 372.5t33 28.5q10 10 33 11l33 -33q23 -20 22.5 -55t-2.5 -46.5t-4 -20.5t-10 -27.5t-14.5 -33t-25 -52t-29.5 -63.5t-51 -118t-73.5 -171 t-33.5 -83t-3.5 -13t-9.5 -24.5t-16 -38.5q-82 -180 -82 -199.5t-10 -29.5q-10 0 -11 -16v-6q0 -20 -32 -109q-170 -571 -170 -623.5t-3 -67t-18 -22.5q-59 -16 -80.5 49.5z" />
<glyph unicode="}" horiz-adv-x="675" d="M160 -178l12 22q14 -10 14 0q29 8 76 27q86 14 112.5 42t43 99.5t16.5 81.5l4 146q0 31 -4 113.5t-2 115.5t19 66q25 23 18 67q-16 41 -13 75t21 46q20 25 39 43t30 31.5t17 20.5t15 20q16 25 30 53q113 178 146 311v21q16 41 -29 106q-16 33 -41 48.5t-67 26.5t-46 32.5 t17 42.5q14 23 51 21.5t52.5 -18t27.5 -16.5t54 -42t58 -70q14 -12 25 -86q10 -37 7 -60.5t-44 -153.5t-65 -159q-23 -14 -23 -23.5t-38 -72t-64 -88.5l-23 -39l-14 -8q-25 -16 6 -93q4 -10 11 -22t12 -21q0 -29 -11 -28q-43 -23 -50 -56.5t-5 -183.5q8 -176 -14 -229 q-33 -143 -47 -144l-7 -8q0 -41 -59 -71.5t-127 -33.5t-104.5 11t-36.5 37z" />
<glyph unicode="~" horiz-adv-x="913" d="M211 491.5q2 18.5 54 64.5t145 81q98 14 170 -57q102 -92 163 -66q16 2 52 13.5t45 17.5l53 14q14 25 53 27q47 18 37 -37q0 -20 -33 -60l-153 -65q-37 -12 -66 -12q-76 0 -160 57q-2 2 -44 32.5t-75.5 42t-80.5 -29.5t-70 -43q-4 -14 -19.5 -28.5t-21.5 -4.5 q-23 6 -37 20.5t-12 33z" />
<glyph unicode="&#xa1;" horiz-adv-x="430" d="M2 -378q0 34 5 50.5t9 27.5t15.5 32.5t17.5 34.5q8 18 41 73q59 115 59.5 118t26.5 65q63 106 64 131q10 27 16 32q10 0 10 17v6q0 29 39 108q70 199 75 265.5t8 75t20 16.5q39 6 59 -23q43 -53 6 -213q-29 -57 -29 -86q-25 -88 -69 -172q-8 0 -17.5 -14t-9 -45 t-22.5 -49l-27 -72q-37 -61 -106.5 -231t-73.5 -201t-35 -25q-10 -8 -33 -8q-10 10 -29.5 31.5t-19.5 55.5zM435 917.5q7 47.5 83 83.5q70 29 121 -10q74 -71 -41 -149q-37 -23 -54.5 -25t-54.5 14q-61 39 -54 86.5z" />
<glyph unicode="&#xa2;" d="M375 -57.5q-8 65.5 28 178.5q31 43 35 90q10 31 86 182q-12 4 -32 21q-117 106 2 399q23 47 75 124t70 87q33 10 76 33q72 35 149 -6q154 307 158 342q12 33 41 26q12 12 33 4l28 -28q35 -59 -12 -150q-8 -14 -33.5 -57t-48 -84t-78.5 -125q27 -37 19 -61 q0 -4 -11.5 -14.5t-38 -37t-47.5 -16.5q0 -10 -66.5 -125t-68.5 -132.5t-20 -35.5q-8 0 -10 -12.5t-7 -32.5q111 20 152 39q61 39 111 29q33 -12 24.5 -38t-75 -61t-66.5 -57l-33 -8q-10 0 -63.5 -13.5t-70.5 -23.5t-46 -10q-18 -41 -66 -144q-90 -201 -96 -251t-11 -65 t-24 -20q-55 -12 -63 53.5zM551 547.5q6 -35.5 11 -40.5t20 -5l36 67q8 0 18.5 14.5t12.5 28.5q0 50 25 64l31 67q23 33 102 193l-23 14q-35 0 -104 -100q-84 -86 -127 -244q-8 -23 -2 -58.5z" />
<glyph unicode="&#xa3;" d="M49 33q0 68 98.5 77t116 15t29.5 29q31 100 46 206.5t42 227.5l-88 2q-41 0 -72 10q-43 0 -59 29q-23 31 -6 39q20 14 96 22q55 10 160 10q41 133 90 240q186 379 323 401q117 35 201 -45q4 23 41 -30.5t41 -81.5l20 -54q6 -4 7 -38q-4 -27 -52 -64q-43 -25 -74.5 -6.5 t-26.5 68t-15.5 94.5t-48.5 53q-33 12 -134 -66q-18 -33 -47 -57q-27 -45 -62.5 -113t-115.5 -301l189 -2q53 0 71.5 -5t40.5 -25q33 -31 22.5 -58.5t-55.5 -19.5l-129 -10q-27 -4 -180 4q-25 -74 -31 -101.5t-25.5 -151.5t-23.5 -177l4 -52q76 -25 105 -36q72 -31 96 -33 q53 -35 112.5 -35t99.5 12.5t44 28.5q8 0 15.5 9t7.5 20l49 10q63 0 49 -51q-16 -66 -121 -125q-61 -31 -145 -24t-148 50q-25 25 -59 25q-10 6 -52 12t-53 8q-68 14 -133 -6t-162.5 0.5t-97.5 65.5z" />
<glyph unicode="&#xa4;" d="M260.5 75q-8.5 36 3.5 48q6 8 12 8q-14 14 0.5 43t34.5 47q0 4 6.5 13.5t8.5 21.5q20 14 47 14q0 23 6 29t8 9t9 6t16.5 14.5t5.5 17.5t-8 4q-25 43 -33 47q-12 119 4 170q4 0 6 13q6 41 19 53q-2 6 6 18l20 21q6 6 6 14q8 16 27 45q18 47 20 59.5t-6 36.5 q-41 33 -71.5 77t-22.5 67l-14 22q-18 27 2 62q12 14 20 6q10 0 21 -17q18 -33 39 -53q8 0 20 -24q25 -47 80 -95q8 -8 8 -10q4 -4 20.5 9.5t34 23.5t93.5 18l57 -4q147 195 167.5 206t28 7t15.5 -18q14 -4 19 -25.5t1 -24.5t-6 -6.5t-5 -7.5t-5 -9t-6 -11t-8 -15.5 t-22.5 -41t-22.5 -41.5q-23 -6 -28 -21.5t-7 -19.5q8 -16 31 -35q41 -16 49 -80q16 -12 24 -53t2 -47l-8 -23q6 -14 -30.5 -87t-84.5 -128l-49 -51l27 -29q14 -27 55 -65.5t58 -38.5q10 -2 18 -46t0 -59q-23 -31 -78 33q-72 53 -119 147q6 23 -18 11q-8 -4 -19 -11 q-143 -63 -213 -51q-23 10 -29.5 8t-27.5 -22q-2 -12 -30.5 -49t-47.5 -53q-12 -33 -26 -46q-20 -23 -17 -34q-10 -10 -34.5 -20.5t-32.5 1.5q-18 -14 -26.5 22zM473.5 504.5q-12.5 -60.5 22.5 -82.5q33 -45 143 -35q162 82 217 205q20 43 23 92q8 104 -109 119q-15 2 -27 2 h-16q-6 0 -17.5 -4t-15.5 -6q-70 -23 -95.5 -54.5t-63.5 -103.5q-49 -72 -61.5 -132.5z" />
<glyph unicode="&#xa5;" d="M201 315q20 14 96 23q61 12 215 12q12 49 51 146l10 28q-119 4 -148.5 4t-59.5 11q-43 0 -60 28q-23 31 -6 39q41 27 262 35q-82 123 -98 242q-31 104 -19 331q0 86 35 150q6 12 6 14q33 41 60 -30q18 -53 16 -129q12 -449 103 -506q31 -8 53 8q68 49 232.5 242.5 t225 260t89.5 83.5q14 23 43 26q12 -4 19 -29.5t15.5 -41t6.5 -29.5t-45 -57q-45 -39 -143.5 -141.5t-155.5 -174.5q-125 -143 -201 -223h88q53 0 71.5 -5t41.5 -26q33 -31 22.5 -58.5t-55.5 -19.5l-129 -10q-10 -2 -135 2q-4 -14 -29 -117l-19 -55q53 -2 120 -2t85.5 -5 t40.5 -26q33 -31 22.5 -58t-55.5 -19l-241 8q-43 -143 -53.5 -175t-28 -103.5t-27.5 -92t-25.5 -16.5t-68.5 41q-23 23 -18.5 42t6.5 29q6 29 22 82q4 96 43 191q-61 -6 -122.5 -6t-92.5 10q-43 0 -59 28q-23 31 -6 39z" />
<glyph unicode="&#xa6;" horiz-adv-x="675" d="M226.5 -237.5q-21.5 65.5 2.5 180.5q23 59 23 86q6 33 59.5 199.5t87.5 267.5q2 31 58 2q63 -35 45 -62l-4 -10q-170 -571 -170 -623.5t-3 -67t-18 -22.5q-59 -16 -80.5 49.5zM500 776q2 6 32.5 76t141 360t110.5 310q0 33 33 32q10 10 33 11l33 -33q23 -20 22.5 -55 t-2.5 -46.5t-4 -20.5t-10 -27.5t-14.5 -33t-25 -52t-29.5 -63.5t-51 -118t-73.5 -171t-33.5 -83t-3.5 -13t-9.5 -26q-12 -29 -41 -94q-10 -37 -61 -11.5t-47 58.5z" />
<glyph unicode="&#xa7;" horiz-adv-x="788" d="M287 152q12 2 33.5 -9.5t31.5 -15.5q47 -29 118 -5.5t79 62.5q0 2 -15.5 28t-21.5 44q-63 63 -101 137t-38 127q-25 74 55 150q39 57 121 127q-20 47 -21 88q-23 66 52 166q117 131 239 188q96 0 114.5 -6t44.5 -40t32 -67q0 -14 -11.5 -61t-18.5 -63.5t-12 -26.5t-5 -14 q-6 -39 -42 -23t-49 45q-16 66 -6 92q35 41 13 41q-6 0 -13 -2q-25 0 -90 -49q-80 -57 -121 -123q-18 -31 -16 -54.5t2 -42t20.5 -59.5t36.5 -43q20 -45 66 -86q74 -119 54.5 -180t-140.5 -90q-86 -23 -160 8q14 -25 25 -33q27 -45 65 -75q74 -125 54.5 -185.5t-140.5 -83.5 q-80 -18 -142.5 1.5t-89 67.5t-3.5 65zM485 512l23 -6q45 -39 116.5 -17.5t80.5 66.5q-17 5 -37 66q-31 35 -56 67q-18 -14 -90 -92q-37 -47 -37 -84z" />
<glyph unicode="&#xa8;" horiz-adv-x="722" d="M506 987q18 63 41 82l12 12q33 33 58.5 19.5t35.5 -45.5q16 -31 12.5 -50.5t-32.5 -56.5q-70 -94 -121 8q-10 20 -6 31zM768 987q18 63 41 82l12 12q33 33 58.5 19.5t35.5 -45.5q16 -31 12.5 -50.5t-32.5 -56.5q-70 -94 -121 8q-10 20 -6 31z" />
<glyph unicode="&#xa9;" horiz-adv-x="1015" d="M327 605q1 40 5 46q6 12 2 23q-16 35 37 166t75 143q4 0 5 6q0 29 200 133q252 125 443 -145q6 -20 25.5 -52t19.5 -40q27 -39 40 -97.5t5 -66.5q2 -4 2 -14v-13q10 -16 1 -99t-18 -85q-10 -6 -6 -8t-6 -17q-27 -37 -53 -43q-4 -4 6 -6q6 -4 -28.5 -43t-90 -83t-96.5 -58 l-16 -16q-14 -20 -64.5 -36t-89.5 -12q-276 -6 -350 207q-25 41 -31 82t-9 49.5t-4 16.5t-3 15t-1 47zM424 613.5q-2 -29.5 25 -76.5q-4 -23 5 -51.5t10 -41t46 -67.5t80 -64q33 -29 102.5 -16.5t153.5 59.5q53 25 116.5 79t61.5 81q-4 10 0 22.5t12 14.5q29 25 38 114 t-10.5 128t-19.5 43q0 23 -77 131q-135 102 -258 51q-199 -59 -254 -283q-29 -94 -31 -123.5zM582 494q-53 82 24 239q12 51 96 156q25 14 101 33q51 -2 95 -40t34 -67q0 -2 -13.5 -17.5t-19.5 -24.5t-16.5 -10t-20.5 11t-10 29q-29 41 -58.5 34.5t-50 -31t-28.5 -50.5 q-25 -27 -32 -64t-11 -60.5t-7 -36.5t0 -34.5t9 -25.5q84 -29 211 69q18 14 27.5 -5t15.5 -21q-2 -35 -25.5 -63t-52.5 -40l-33 -6q-37 0 -79 -17.5t-113 3.5q-12 0 -43 39z" />
<glyph unicode="&#xaa;" horiz-adv-x="716" d="M367 754h2q-29 29 84 268q12 12 45 72q0 10 16 18v12q0 16 55.5 81t92 92.5t77.5 31.5t72 -22l74 -80l63 -64l-26 -90q-14 -45 -14.5 -100t40.5 -142q16 -31 64 -38q47 -12 47 -43q0 -37 -41 -48q-53 -8 -106.5 34t-90.5 118q-16 27 -24 55q-6 -8 -20.5 -24.5 t-16.5 -20.5q-180 -201 -291 -200q-41 0 -66 18l-4 2l-12 25q-14 14 -14 16q0 20 -6 29zM481 784q4 -8 38 14.5t54 41.5q119 123 199 239l35 60q-32 71 -55 71q-31 0 -99.5 -95t-113.5 -188t-58 -143z" />
<glyph unicode="&#xab;" horiz-adv-x="1323" d="M252 485q16 4 63 43q43 53 226 209q70 51 151 133q41 45 53 45q16 6 32 -4t32 -14q37 -9 39 -23q-6 -29 -23.5 -44t-54.5 -44q-74 -57 -207 -174q-119 -109 -136 -138.5t-13 -53.5q23 -53 101.5 -130t207.5 -149q113 -55 131 -104q8 -25 -23 -33q-80 -8 -159 29 q-43 25 -61.5 33t-35 17t-24.5 15t-19 15q-20 14 -36 34q-111 63 -181 191l-49 86zM662 485q16 4 63 43q43 53 225 209q70 51 152 133q41 45 53 45q16 6 31.5 -4t32.5 -14q36 -9 38 -23q-6 -29 -23 -44t-54 -44q-74 -57 -207 -174q-119 -109 -136.5 -138.5t-13.5 -53.5 q23 -53 102 -130t208 -149q113 -55 131 -104q8 -25 -23 -33q-80 -8 -160 29q-43 25 -61.5 33t-34.5 17t-24.5 15t-18.5 15q-20 14 -37 34q-111 63 -180 191l-49 86z" />
<glyph unicode="&#xac;" horiz-adv-x="952" d="M262 586q20 14 96 22q129 29 516 29q53 0 72 -5t41 -26q41 -43 17 -67q6 -68 6 -133.5t-5.5 -84t-25.5 -40.5q-31 -33 -58.5 -23t-19.5 55l-16 209q-207 -14 -486 -14q-41 0 -71 10q-43 0 -60 29q-23 31 -6 39z" />
<glyph unicode="&#xad;" horiz-adv-x="667" d="M227 442q21 15 97 23q129 29 226 29t115.5 -5.5t41.5 -25.5q33 -31 22.5 -58.5t-55.5 -19.5q-258 -20 -304 -20t-77 10q-43 0 -60 28q-23 31 -6 39z" />
<glyph unicode="&#xae;" horiz-adv-x="1015" d="M327 605q1 40 5 46q6 12 2 23q-16 35 37 166t75 143q4 0 5 6q0 29 200 133q252 125 443 -145q6 -20 25.5 -52t19.5 -40q27 -39 40 -97.5t5 -66.5q2 -4 2 -14v-13q10 -16 1 -99t-18 -85q-10 -6 -6 -8t-6 -17q-27 -37 -53 -43q-4 -4 6 -6q6 -4 -28.5 -43t-90 -83t-96.5 -58 l-16 -16q-14 -20 -64.5 -36t-89.5 -12q-276 -6 -350 207q-25 41 -31 82t-9 49.5t-4 16.5t-3 15t-1 47zM424 613.5q-2 -29.5 25 -76.5q-4 -23 5 -51.5t10 -41t46 -67.5t80 -64q33 -29 102.5 -16.5t153.5 59.5q53 25 116.5 79t61.5 81q-4 10 0 22.5t12 14.5q29 25 38 114 t-10.5 128t-19.5 43q0 23 -77 131q-135 102 -258 51q-199 -59 -254 -283q-29 -94 -31 -123.5zM552 497.5q7 32.5 36 106.5q0 45 8 45q14 90 72 166q0 23 2 31q4 14 -9.5 30t17.5 39q0 23 65.5 17t75.5 -14q27 -2 52.5 -14.5t25.5 -18.5q35 -31 39 -74q0 -43 -29 -82 q-33 -61 -102 -111l-25 -26q4 -12 32 -43t42 -37q18 8 26.5 0t2.5 -41q-14 -29 -20.5 -31t-35.5 19q-31 6 -49 23.5t-43.5 38t-37 30.5t-40.5 12l-16 -43q0 -25 -12 -67q-8 -23 -29.5 -24t-38 17.5t-9.5 51zM702 645q31 8 58.5 30.5t38.5 43.5q12 6 41 45q8 14 8 49 q8 16 -6 27q-7 8 -60 24l-26 -24q0 -12 -9.5 -30.5t-17.5 -23.5q-43 -137 -27 -141z" />
<glyph unicode="&#xaf;" horiz-adv-x="722" d="M488.5 1019q15.5 11 124 26.5t201.5 15.5t126 -25q29 -31 19.5 -56.5t-52.5 -21.5q-62 -6 -123 -6l-168 -8q-41 0 -65 8q-45 0 -61.5 28t-1 39z" />
<glyph unicode="&#xb0;" horiz-adv-x="579" d="M424 1157.5q0 26.5 18 83.5q31 106 97 164q10 10 31.5 26.5t27.5 22.5q63 29 88 29q119 0 198 -64.5t79 -185.5q0 -68 -18.5 -119t-36 -72.5t-66.5 -78.5q-76 -90 -160 -91q-111 0 -162 52q-27 27 -35 40t-21 36.5t-22 52.5q-18 78 -18 104.5zM563 1163q0 -184 96 -184 q45 0 108.5 70.5t61.5 157.5t-21.5 127t-66.5 40q-100 0 -139 -63.5t-39 -147.5z" />
<glyph unicode="&#xb1;" horiz-adv-x="913" d="M227 115q20 14 97 22q129 29 516 29q53 0 71.5 -5t40.5 -26q33 -31 23 -58.5t-55 -19.5q-258 -20 -555 -20q-41 0 -72 10q-43 0 -60 29q-23 31 -6 39zM227 586q20 14 97 22q66 14 211 21q-2 55 -2.5 116.5t5 76t25.5 32.5q31 25 58.5 18.5t19.5 -43.5l10 -104l4 -92 q147 4 192.5 4t64 -5t40.5 -26q33 -31 23 -58.5t-55 -19.5l-129 -10l-132 -4q2 -55 2.5 -108.5t-10.5 -77.5q0 -35 -28 -47q-31 -16 -42.5 -3t-19.5 74q-14 51 -20 158q-74 -2 -145.5 -2t-102.5 10q-43 0 -60 29q-23 31 -6 39z" />
<glyph unicode="&#xb2;" horiz-adv-x="655" d="M373 760q0 12 11 34.5t19 22.5q29 49 29 62l29 20h-4l43 43h-2q88 92 98 105q86 86 90 104q12 16 25 23l39 34q14 33 47 74l37 74q4 14 0 18q-18 20 -80 20.5t-119 -38.5q-23 -4 -41.5 -14.5t-44.5 -4.5l-31 37l-18 35l55 33q143 88 217 57l45 -8q25 -2 55 -33 q66 -66 66 -122t-49 -126q-12 -18 -92 -106t-96.5 -101.5t-57.5 -52.5q-117 -115 -104 -114l6 -5q66 23 153.5 34.5t108.5 4.5q43 12 135 -18q16 -6 22.5 -17.5t12.5 -17.5q68 -61 -82 -33l-119 -12h-12q-43 6 -96.5 -13.5t-136 -39t-99.5 -12.5q-41 18 -59 53z" />
<glyph unicode="&#xb3;" horiz-adv-x="655" d="M436 711.5q2 31.5 14.5 37t55.5 -0.5q74 -18 163 11t128 73.5t39 89.5q0 74 -121 110q-55 18 -92 23q-27 -8 -62 14q-2 2 -35 51q-2 14 23.5 34t120.5 77q160 96 217 147h-2q27 37 20.5 48.5t-22.5 15.5q-98 8 -109 -4q-12 4 -58 -5.5t-48 -15.5t-39 -18.5t-43 -9.5 q-12 2 -29.5 32.5t-17.5 48.5q16 27 98 66q78 20 207 14h2q145 -16 166 -135q6 -33 -4 -55q-27 -53 -82 -94l-125 -84l-58 -45l35 -27q76 -37 137 -125q21 -55 21 -90q0 -109 -123 -195q-92 -59 -211 -65q-66 0 -117 22.5t-49 54z" />
<glyph unicode="&#xb4;" horiz-adv-x="722" d="M685 992.5q3 15.5 87 105.5t113 100q35 20 84 -57q8 -20 -29 -57t-91 -81.5t-71 -66.5q-20 -35 -31.5 -39t-35.5 12q-14 12 -21.5 40t-4.5 43.5z" />
<glyph unicode="&#xb5;" horiz-adv-x="757" d="M74 -269.5q0 21.5 32 124.5q109 340 132.5 463.5t85.5 256.5q66 129 94 173q66 23 76 -41q25 -39 -56 -191q-123 -291 -55 -317q23 -14 64.5 2t104 88.5t102.5 169t46 170.5q-10 51 35 78q8 12 21.5 19t19.5 -1l33 2q6 0 12 -12.5t13 -16.5q47 -39 -46 -252 q-66 -137 -66.5 -212.5t58.5 -127.5q31 -20 27 -75q-8 -29 -45 -38t-68 11q-49 47 -73 139q-5 12 -5 47v39q-12 -31 -45 -55q-47 -47 -94 -70q-66 -41 -104.5 -46t-77.5 30l-23 -82q-113 -338 -131 -360q-23 8 -45 35.5t-22 49z" />
<glyph unicode="&#xb6;" horiz-adv-x="868" d="M340 838q2 6 11 36.5t12.5 40t13.5 36t17 40t20 33.5q23 37 57 61q86 61 138.5 88t158.5 70q66 0 166 14q139 -10 201.5 -34.5t54.5 -67.5t-15.5 -54t-35 -67.5t-43.5 -83.5q-33 -66 -72 -174q-37 -70 -55 -131q-14 -25 -27 -47q-8 -53 -63 -160q-61 -145 -70 -192 q-6 -12 -29.5 -69.5t-40.5 -86.5l-24 -86h-39q-4 2 -14 6q-25 10 -35 23q-6 23 4 80q35 66 39 67q8 6 11 35t34 76l16 53q0 12 23.5 57t31.5 78q23 62 29 62q0 4 2 12t4 21.5t6 22.5t13 26q10 25 20 53l23 33q-10 0 13.5 45t51.5 145q59 125 78 156q25 78 25 96 q-96 18 -107 -18q-8 -20 -63 -115q-10 -27 -39 -90.5t-35 -83.5q-35 -70 -57 -129q-35 -70 -48 -117q-4 -8 -57 -139t-82 -176q-4 -12 -9 -39t-7 -33t-107 -293q-14 -20 -24 -22t-45 8q-51 45 -17 92q0 2 23 65q49 174 104 263q4 12 13 45q20 74 61 129l31 98q-10 2 -51 2 t-86 8q-133 49 -109 232z" />
<glyph unicode="&#xb7;" horiz-adv-x="382" d="M297 559q-2 31 2 33q16 2 37.5 36t21 55.5t19.5 25.5q47 33 92 -39q16 -41 10 -64.5t-45 -70.5q-55 -74 -110 -27q-25 20 -27 51z" />
<glyph unicode="&#xb8;" horiz-adv-x="722" d="M90 -302q-4 26 15.5 43t37 12t39 -12t32.5 -11t30.5 -9.5t33 -5.5t27.5 2q27 0 43.5 31t-40 97.5t-68.5 78.5q-16 23 -20.5 36t1.5 36q14 45 156 113l67 -48q-115 -55 -114 -96q12 -18 39 -51q61 -72 69 -107q18 -70 -12 -114q-76 -104 -301 -31q-31 10 -35 36z" />
<glyph unicode="&#xb9;" horiz-adv-x="655" d="M475 1237q14 4 64.5 45t56.5 43t45 35h-2q16 16 55 46t45 35t15 9l43 37q125 88 155 84q39 -20 49 -49q4 -23 -24.5 -102t-70.5 -224t-46 -153.5t-4 -18.5q-16 -45 -29 -104q-35 -84 -51 -183q-33 -94 -41 -102q-23 -23 -67 27q-16 20 0 90l37 157q16 8 106 353l31 112 q-41 -27 -113 -86q-23 -14 -62.5 -49t-70.5 -53q-43 -39 -56.5 -44t-33.5 7q-53 47 -31 88z" />
<glyph unicode="&#xba;" horiz-adv-x="579" d="M385 872q4 4 4 7l12 4q-4 10 -6 16q6 68 58 162q113 201 258 242q39 14 57 11t43 -30q74 -41 82 -125q12 -141 -86 -303q-37 -59 -71 -90t-91 -72h2q-61 -47 -135 -53q-35 0 -84 49q-53 61 -41 131v37l4 -2q-10 10 -2 18zM500 801q0 -55 32 -56q47 0 121 92.5t111 209.5 q8 25 8 73.5t-8 57.5h2q-41 27 -103.5 -35t-146.5 -269q-16 -53 -16 -73z" />
<glyph unicode="&#xbb;" horiz-adv-x="1449" d="M373 879q-8 25 22 32q80 8 160 -28q43 -25 61.5 -33t35 -17.5t24.5 -15.5t18 -14q20 -14 37 -35q111 -63 180 -190l50 -86l14 -62q-16 -4 -64 -43q-43 -53 -225 -209q-70 -51 -151 -133q-41 -45 -54 -45q-16 -6 -31.5 4t-31.5 14q-37 9 -39 23q6 29 23.5 44t54.5 42 q74 59 207 176q119 109 136 138.5t13 54.5q-23 53 -101.5 129.5t-207.5 148.5q-113 55 -131 105zM782 879q-8 25 23 32q80 8 160 -28q43 -25 61 -33t34.5 -17.5t25 -15.5t18.5 -14q20 -14 37 -35q111 -63 180 -190l49 -86l14 -62q-16 -4 -63 -43q-43 -53 -225 -209 q-70 -51 -152 -133q-41 -45 -53 -45q-16 -6 -31.5 4t-32.5 14q-37 9 -39 23q6 29 23.5 44t54.5 42q74 59 207 176q119 109 136.5 138.5t13.5 54.5q-23 53 -102 129.5t-208 148.5q-113 55 -131 105z" />
<glyph unicode="&#xbc;" horiz-adv-x="1638" d="M393 1032q14 4 64.5 45t56.5 43t45 35h-2q16 16 55 46l45.5 35t14.5 9l43 37q125 88 155 84q39 -20 50 -49q4 -23 -25 -101.5t-71 -224t-46 -154t-4 -18.5q-16 -45 -29 -104q-35 -84 -51 -183q-33 -94 -41 -102q-23 -23 -67 27q-16 20 0 90l37 158q16 8 106 352l31 112 q-41 -27 -113 -86q-23 -14 -62.5 -49t-70.5 -53q-43 -39 -56.5 -44t-33.5 7q-53 47 -31 88zM495 42.5q3 63.5 68 156.5q45 37 51 57q16 27 173 203t161 184q8 -2 18.5 8.5t19.5 37t44 34.5q2 4 9.5 14.5t8.5 15.5t9 14t10 15q55 47 291.5 290t249 266.5t37.5 11.5q14 8 32 0 q2 -12 19 -43q16 -35 -33 -107q-6 -6 -20.5 -19.5t-24.5 -23.5t-39 -35.5t-48.5 -45t-85 -83t-122.5 -119t-59 -59.5q-23 -4 -41 -41q-150 -150 -153 -155t-30 -15l-8 -10q0 -25 -69 -84q-326 -391 -367 -473q-27 -63 -49 -66q-55 8 -52 71.5zM1210.5 377q-6.5 35 6.5 51 q43 109 45 114t2 13q14 33 88 145q76 121 96 142q45 31 63 2q16 -55 11 -68q-20 -47 -60 -86h2q-88 -137 -133 -233q-27 -80 -20 -86q33 -8 102 16q72 16 94 29q25 0 25 10h8q0 4 2 31l115 268q27 68 41 68q35 0 41 -29v2q29 -37 -10 -115q-190 -440 -228 -612q-6 -29 4 -59 q4 -57 -41 -78q-41 -16 -55 24v-2q-23 35 25 228q12 49 14 67l27 76q-14 -4 -45 -16q-53 -12 -97 -13q-74 0 -104 60q-12 16 -18.5 51z" />
<glyph unicode="&#xbd;" horiz-adv-x="1638" d="M393 1032q14 4 64.5 45t56.5 43t45 35h-2q16 16 55 46l45.5 35t14.5 9l43 37q125 88 155 84q39 -20 50 -49q4 -23 -25 -101.5t-71 -224t-46 -154t-4 -18.5q-16 -45 -29 -104q-35 -84 -51 -183q-33 -94 -41 -102q-23 -23 -67 27q-16 20 0 90l37 158q16 8 106 352l31 112 q-41 -27 -113 -86q-23 -14 -62.5 -49t-70.5 -53q-43 -39 -56.5 -44t-33.5 7q-53 47 -31 88zM431 42.5q3 63.5 69 156.5q45 37 51 57q16 27 173 203t161 184q8 -2 18 8.5t19.5 37t44.5 34.5q2 4 9 14.5t8 15.5t9 14t11 15q55 47 291.5 290t248.5 266.5t37 11.5q14 8 33 0 q2 -12 16 -43q18 -35 -33 -107q-4 -6 -18 -19.5t-24.5 -23.5t-39 -35.5t-48 -45t-85 -83t-123 -119t-59.5 -59.5q-23 -4 -41 -41q-150 -150 -152.5 -155t-29.5 -15l-8 -10q0 -25 -70 -84q-326 -391 -367 -473q-27 -63 -49 -66q-55 8 -52 71.5zM1016 43q0 12 11.5 34.5 t19.5 22.5q29 49 28 62l29 20h-4l43 43h-2q88 92 98 105q86 86 90 104q12 16 25 23l39 35q14 33 47 73l37 74q4 14 0 18q-18 20 -80 20.5t-119 -38.5q-23 -4 -41 -14.5t-45 -3.5l-31 36l-18 35l55 33q143 88 217 57l45 -8q25 -2 56 -33q66 -66 65.5 -122t-49.5 -125 q-12 -18 -92 -106.5t-96.5 -102t-57.5 -52.5q-117 -115 -104 -114l6 -4q66 23 154 34t108 5q43 12 135 -19q16 -6 22.5 -17.5t12.5 -17.5q68 -61 -82 -32l-119 -13h-12q-43 6 -96.5 -13t-136 -38.5t-99.5 -13.5q-41 18 -59 53z" />
<glyph unicode="&#xbe;" horiz-adv-x="1638" d="M354 507q2 32 14.5 37t55.5 -1q74 -18 163 11.5t128 73.5t39 89q0 74 -121 110q-55 18 -92 23q-27 -8 -62 14q-2 2 -35 51q-2 14 24 34t120 77q160 96 217 148h-2q27 37 20.5 48t-22.5 15q-98 8 -109 -4q-12 4 -58 -5t-48 -15.5t-39 -18.5t-43 -10q-12 2 -29.5 32.5 t-17.5 49.5q16 27 98 65q78 20 207 15h2q145 -16 166 -136q6 -33 -4 -55q-27 -53 -82 -94l-125 -84l-57 -45l34 -27q76 -37 138 -125q20 -55 20 -90q0 -109 -123 -194q-92 -59 -211 -66q-66 0 -117 22.5t-49 54.5zM523 42.5q3 63.5 69 156.5q45 37 51 57q16 27 173 203 t161 184q8 -2 18.5 8.5t19.5 37t44 34.5q2 4 9 14.5t8 15.5t9.5 14t10.5 15q55 47 291.5 290t249 266.5t36.5 11.5q14 8 33 0q2 -12 18 -43q16 -35 -32 -107q-6 -6 -20.5 -19.5t-25 -23.5t-39 -35.5t-48 -45t-85 -83t-123 -119t-59.5 -59.5q-23 -4 -41 -41 q-150 -150 -152.5 -155t-29.5 -15l-8 -10q0 -25 -70 -84q-326 -391 -366 -473q-27 -63 -50 -66q-55 8 -52 71.5zM1210.5 377q-6.5 35 6.5 51q43 109 45 114t2 13q14 33 88 145q76 121 96 142q45 31 63 2q16 -55 11 -68q-20 -47 -60 -86h2q-88 -137 -133 -233 q-27 -80 -20 -86q33 -8 102 16q72 16 94 29q25 0 25 10h8q0 4 2 31l115 268q27 68 41 68q35 0 41 -29v2q29 -37 -10 -115q-190 -440 -228 -612q-6 -29 4 -59q4 -57 -41 -78q-41 -16 -55 24v-2q-23 35 25 228q12 49 14 67l27 76q-14 -4 -45 -16q-53 -12 -97 -13 q-74 0 -104 60q-12 16 -18.5 51z" />
<glyph unicode="&#xbf;" horiz-adv-x="765" d="M55 -356q-31 92 8 253.5t119 249.5q2 2 74 68t98 94q66 37 120 112t83 157q23 49 32 57t37.5 7t44 -23.5t15.5 -48t-3 -41t-8 -29t-16.5 -38t-17.5 -42.5q-23 -39 -69 -91.5t-80 -76.5l-35 -25q0 -8 -29 -30.5t-49 -32.5q-47 -33 -68 -51q-63 -66 -83.5 -119t-47.5 -187 q-4 -70 -1 -97t26 -44q66 -35 168 21.5t147 156.5q16 49 8 80l-10 56q12 4 52 2t59 -11q29 -39 31 -54t0.5 -30.5t-1.5 -25.5q-59 -182 -192 -250l-102 -49q-18 0 -68 -6q-8 2 -18 2q-25 -4 -25 6h-59q-92 27 -140 80zM599 930q7 47 83 84q70 29 121 -10q74 -72 -41 -150 q-37 -23 -54.5 -25t-54.5 15q-61 39 -54 86z" />
<glyph unicode="&#xc0;" horiz-adv-x="1028" d="M102 -32q-6 20 11.5 62t55.5 114.5t106.5 204.5t68.5 153q-8 31 31 49q47 47 78 100q25 57 215 381q76 135 194 295q47 63 82 62.5t84 -37.5q63 -47 72 -103q2 -12 2 -34.5t-1 -45t-4 -57.5t-5 -60.5t-6.5 -68.5t-6.5 -76t-24 -248q-45 -442 -35 -628q2 -14 0 -37t-2 -25 q-18 -20 -67.5 -8t-55.5 41q-10 8 -10 17.5t8 164.5l10 332l-26 -2q-41 0 -182.5 -16.5t-176.5 -26.5q-43 0 -92 -88q-12 -31 -31.5 -64.5t-19.5 -37.5l-33 -39q0 -23 -43 -115q-39 -88 -125 -219l-33 24q-33 16 -39 36zM565 592q76 16 127 18q123 29 158 33t49 -4 q11 -14 19 -14h4q4 12 24 223q16 158 31 381q-20 0 -97 -102.5t-137 -219.5q-55 -100 -67 -100q-14 -14 -67.5 -110.5t-43.5 -104.5zM969 1731q49 42 67 38q39 -14 87 -123.5t49.5 -128t-12 -38t-30.5 -23.5q-25 -16 -34 -10t-21 43q-8 16 -47 76q-88 131 -59 166z" />
<glyph unicode="&#xc1;" horiz-adv-x="1028" d="M102 -32q-6 20 11.5 62t55.5 114.5t106.5 204.5t68.5 153q-8 31 31 49q47 47 78 100q25 57 215 381q76 135 194 295q47 63 82 62.5t84 -37.5q63 -47 72 -103q2 -12 2 -34.5t-1 -45t-4 -57.5t-5 -60.5t-6.5 -68.5t-6.5 -76t-24 -248q-45 -442 -35 -628q2 -14 0 -37t-2 -25 q-18 -20 -67.5 -8t-55.5 41q-10 8 -10 17.5t8 164.5l10 332l-26 -2q-41 0 -182.5 -16.5t-176.5 -26.5q-43 0 -92 -88q-12 -31 -31.5 -64.5t-19.5 -37.5l-33 -39q0 -23 -43 -115q-39 -88 -125 -219l-33 24q-33 16 -39 36zM565 592q76 16 127 18q123 29 158 33t49 -4 q11 -14 19 -14h4q4 12 24 223q16 158 31 381q-20 0 -97 -102.5t-137 -219.5q-55 -100 -67 -100q-14 -14 -67.5 -110.5t-43.5 -104.5zM964 1545.5q3 15.5 86.5 105.5t112.5 100q35 20 84 -57q8 -20 -28.5 -57.5t-91 -81.5t-70.5 -66q-20 -35 -31.5 -39t-36.5 12 q-14 12 -21 40t-4 43.5z" />
<glyph unicode="&#xc2;" horiz-adv-x="1028" d="M102 -32q-6 20 11.5 62t55.5 114.5t106.5 204.5t68.5 153q-8 31 31 49q47 47 78 100q25 57 215 381q76 135 194 295q47 63 82 62.5t84 -37.5q63 -47 72 -103q2 -12 2 -34.5t-1 -45t-4 -57.5t-5 -60.5t-6.5 -68.5t-6.5 -76t-24 -248q-45 -442 -35 -628q2 -14 0 -37t-2 -25 q-18 -20 -67.5 -8t-55.5 41q-10 8 -10 17.5t8 164.5l10 332l-26 -2q-41 0 -182.5 -16.5t-176.5 -26.5q-43 0 -92 -88q-12 -31 -31.5 -64.5t-19.5 -37.5l-33 -39q0 -23 -43 -115q-39 -88 -125 -219l-33 24q-33 16 -39 36zM565 592q76 16 127 18q123 29 158 33t49 -4 q11 -14 19 -14h4q4 12 24 223q16 158 31 381q-20 0 -97 -102.5t-137 -219.5q-55 -100 -67 -100q-14 -14 -67.5 -110.5t-43.5 -104.5zM795 1515.5q4 18.5 18 37t83 78t108 79.5q39 33 63 -4q33 -27 91.5 -86t76.5 -84t-8 -61q-29 -41 -84 26q-41 49 -111 109 q-35 -20 -101.5 -77.5t-85 -64t-29.5 0t-18 17.5t-3 29.5z" />
<glyph unicode="&#xc3;" horiz-adv-x="1028" d="M102 -32q-6 20 11.5 62t55.5 114.5t106.5 204.5t68.5 153q-8 31 31 49q47 47 78 100q25 57 215 381q76 135 194 295q47 63 82 62.5t84 -37.5q63 -47 72 -103q2 -12 2 -34.5t-1 -45t-4 -57.5t-5 -60.5t-6.5 -68.5t-6.5 -76t-24 -248q-45 -442 -35 -628q2 -14 0 -37t-2 -25 q-18 -20 -67.5 -8t-55.5 41q-10 8 -10 17.5t8 164.5l10 332l-26 -2q-41 0 -182.5 -16.5t-176.5 -26.5q-43 0 -92 -88q-12 -31 -31.5 -64.5t-19.5 -37.5l-33 -39q0 -23 -43 -115q-39 -88 -125 -219l-33 24q-33 16 -39 36zM565 592q76 16 127 18q123 29 158 33t49 -4 q11 -14 19 -14h4q4 12 24 223q16 158 31 381q-20 0 -97 -102.5t-137 -219.5q-55 -100 -67 -100q-14 -14 -67.5 -110.5t-43.5 -104.5zM772 1571.5q2 19.5 35 64.5t94 76q27 10 70 -1t64.5 -29.5t39 -36t23.5 -22.5t19 -14.5t22 -11.5q33 -4 97 33t88 46.5t40 -9t14 -34 t-16.5 -36t-30.5 -28.5q-135 -76 -155.5 -76t-33 2t-19.5 4t-21.5 10.5t-18.5 10.5t-22.5 15t-21.5 15t-44 37t-62.5 35t-47 -35t-45.5 -37q-4 -27 -21 -32q-20 4 -34.5 19t-12.5 34.5z" />
<glyph unicode="&#xc4;" horiz-adv-x="1028" d="M102 -32q-6 20 11.5 62t55.5 114.5t106.5 204.5t68.5 153q-8 31 31 49q47 47 78 100q25 57 215 381q76 135 194 295q47 63 82 62.5t84 -37.5q63 -47 72 -103q2 -12 2 -34.5t-1 -45t-4 -57.5t-5 -60.5t-6.5 -68.5t-6.5 -76t-24 -248q-45 -442 -35 -628q2 -14 0 -37t-2 -25 q-18 -20 -67.5 -8t-55.5 41q-10 8 -10 17.5t8 164.5l10 332l-26 -2q-41 0 -182.5 -16.5t-176.5 -26.5q-43 0 -92 -88q-12 -31 -31.5 -64.5t-19.5 -37.5l-33 -39q0 -23 -43 -115q-39 -88 -125 -219l-33 24q-33 16 -39 36zM565 592q76 16 127 18q123 29 158 33t49 -4 q11 -14 19 -14h4q4 12 24 223q16 158 31 381q-20 0 -97 -102.5t-137 -219.5q-55 -100 -67 -100q-14 -14 -67.5 -110.5t-43.5 -104.5zM883 1602q18 63 41 81l12 13q33 33 58.5 19.5t35.5 -46.5q16 -31 12 -50.5t-32 -55.5q-70 -94 -121 8q-10 20 -6 31zM1145 1602 q18 63 41 81l12 13q33 33 58.5 19.5t35.5 -46.5q16 -31 12 -50.5t-32 -55.5q-70 -94 -121 8q-10 20 -6 31z" />
<glyph unicode="&#xc5;" horiz-adv-x="1028" d="M102 -32q-6 20 11.5 62t55.5 114.5t106.5 204.5t68.5 153q-8 31 31 49q47 47 78 100q25 57 215 381q76 135 194 295q47 63 82 62.5t84 -37.5q63 -47 72 -103q2 -12 2 -34.5t-1 -45t-4 -57.5t-5 -60.5t-6.5 -68.5t-6.5 -76t-24 -248q-45 -442 -35 -628q2 -14 0 -37t-2 -25 q-18 -20 -67.5 -8t-55.5 41q-10 8 -10 17.5t8 164.5l10 332l-26 -2q-41 0 -182.5 -16.5t-176.5 -26.5q-43 0 -92 -88q-12 -31 -31.5 -64.5t-19.5 -37.5l-33 -39q0 -23 -43 -115q-39 -88 -125 -219l-33 24q-33 16 -39 36zM565 592q76 16 127 18q123 29 158 33t49 -4 q11 -14 19 -14h4q4 12 24 223q16 158 31 381q-20 0 -97 -102.5t-137 -219.5q-55 -100 -67 -100q-14 -14 -67.5 -110.5t-43.5 -104.5zM944 1556q0 66 40 130.5t105.5 64.5t108.5 -30.5t43 -100.5t-44 -138.5t-116 -68.5q-123 0 -137 143zM1022 1565q0 -23 17.5 -46.5 t33.5 -23.5q82 0 79 86t-52 86q-78 0 -78 -102z" />
<glyph unicode="&#xc6;" horiz-adv-x="1605" d="M150 -8q-72 35 30 155l31 43q4 14 72.5 116t85.5 110q43 41 6 78q-27 10 -3.5 29.5t46.5 19.5q8 4 17 8t11 6q10 6 12.5 15.5t65 104.5t90.5 126q20 37 72 115q14 10 84 112q53 47 111 119q20 35 86 104q47 45 68.5 54.5t49 -2t52 -17.5t68.5 -13t71 -13q94 35 176 41 q18 12 100 15t154 -3q47 0 125 -37q16 -16 24 -61q0 -14 -120.5 -14.5t-206.5 -12.5t-92 -12l-72 -13q-8 0 -71.5 -105.5t-65.5 -119.5q0 -25 -51.5 -95.5t-18.5 -84.5q184 29 289 28q51 14 90 -8q23 -4 35 -14q27 -25 -6 -39q-27 -27 -239 -76t-239 -43q-8 20 -12 11 t-16 -44.5t-35 -87.5q-61 -137 -92 -307q-20 -53 -8 -89t73 -64q113 -20 267 18q29 16 68.5 35.5t43.5 21.5l62 11q16 23 41 22q6 0 34.5 -32.5t26.5 -41.5q0 -18 -33.5 -35.5t-87 -39t-93.5 -38t-64 -26.5q-53 -20 -141.5 -20t-149 11t-107.5 48q-63 47 -72.5 124t29.5 222 q14 80 33 115h-25q-51 -8 -294 6q-76 -94 -117 -164q-70 -129 -113 -180q-74 -111 -94 -111q-41 0 -61 19zM610 535q197 10 281 10q10 39 20.5 48t26.5 58q0 23 12 51q31 51 31 68q31 45 39 68q113 199 141 282q-74 8 -123 8q-8 10 -87 -71.5t-94 -103t-29.5 -43t-39 -56.5 t-43.5 -61q-176 -233 -135 -258z" />
<glyph unicode="&#xc7;" horiz-adv-x="987" d="M248 -449.5q-4 25.5 15.5 43t36.5 12.5t38.5 -12.5t33 -11.5t31 -9t33 -5t27.5 2q27 0 43 30.5t-40 97t-74.5 84t-16.5 49.5t51 67q-100 39 -137 133q-37 98 -33 250q0 182 63 346q2 4 29 67.5t49.5 114.5t110.5 178q125 193 217 264q35 29 147 107q68 49 152 29.5 t119 -93.5q45 -86 4 -230t-127 -224q-31 -23 -48.5 -19t-49.5 33q-25 45 -21 47t8 2q18 23 54 87.5t49 101.5q6 41 11 58t7 32.5t3 22.5t2 16.5t0 15.5t-3 12q0 8 -13 21.5t-71 -17.5q-49 -20 -124.5 -91.5t-137.5 -155.5q-178 -233 -221 -365l-23 -53q6 -33 -24 -94 q-35 -143 -26 -291t57 -193q51 -37 223 35q29 10 102.5 41t124.5 78q53 39 86 39q27 10 32 8t5 -18q0 -59 -113 -127q-41 -41 -98 -64q-127 -96 -264 -117q-59 -33 -60 -67q12 -18 41 -51q59 -72 68 -107q18 -70 -14 -115q-74 -104 -299 -30q-31 10 -35 35.5z" />
<glyph unicode="&#xc8;" horiz-adv-x="1122" d="M221 393q20 100 51 164q45 109 199 348l12 17q0 14 60 127q51 55 28 86q-10 16 49.5 59t104.5 70q47 37 95 42t54 -20q18 -6 68.5 5.5t67.5 13.5q14 18 137 32l113 4q41 14 69 -49q14 -39 -10.5 -57t-187 -38.5t-241.5 -37t-115 -41t-81 -94.5q-18 -12 -82 -139 q-143 -195 -133 -207q43 -12 53 -12q16 8 99 22q326 84 368 90q59 35 101 -37q20 -43 -39.5 -67.5t-267 -80.5t-276 -60.5t-75.5 34.5q-14 6 -32.5 -21.5t-33 -73.5t-26.5 -99q-27 -119 -9.5 -169t45 -77t93.5 -45l82 -6q49 0 86 16q217 37 271 74q23 10 36 10q-4 -6 0 -6 q8 4 37 35q53 45 104.5 60.5t53.5 6.5q18 -33 -30 -97t-144 -118q-190 -102 -463 -106q-55 4 -90 24q-74 47 -123 86q-125 125 -78 332zM1014 1731q49 42 67 38q39 -14 87.5 -123.5t49.5 -128t-12.5 -38t-29.5 -23.5q-25 -16 -34 -10t-22 43q-8 16 -47 76q-88 131 -59 166z " />
<glyph unicode="&#xc9;" horiz-adv-x="1122" d="M221 393q20 100 51 164q45 109 199 348l12 17q0 14 60 127q51 55 28 86q-10 16 49.5 59t104.5 70q47 37 95 42t54 -20q18 -6 68.5 5.5t67.5 13.5q14 18 137 32l113 4q41 14 69 -49q14 -39 -10.5 -57t-187 -38.5t-241.5 -37t-115 -41t-81 -94.5q-18 -12 -82 -139 q-143 -195 -133 -207q43 -12 53 -12q16 8 99 22q326 84 368 90q59 35 101 -37q20 -43 -39.5 -67.5t-267 -80.5t-276 -60.5t-75.5 34.5q-14 6 -32.5 -21.5t-33 -73.5t-26.5 -99q-27 -119 -9.5 -169t45 -77t93.5 -45l82 -6q49 0 86 16q217 37 271 74q23 10 36 10q-4 -6 0 -6 q8 4 37 35q53 45 104.5 60.5t53.5 6.5q18 -33 -30 -97t-144 -118q-190 -102 -463 -106q-55 4 -90 24q-74 47 -123 86q-125 125 -78 332zM1009 1545.5q3 15.5 86.5 105.5t112.5 100q35 20 84 -57q8 -20 -28.5 -57.5t-91 -81.5t-70.5 -66q-20 -35 -31.5 -39t-36.5 12 q-14 12 -21 40t-4 43.5z" />
<glyph unicode="&#xca;" horiz-adv-x="1122" d="M221 393q20 100 51 164q45 109 199 348l12 17q0 14 60 127q51 55 28 86q-10 16 49.5 59t104.5 70q47 37 95 42t54 -20q18 -6 68.5 5.5t67.5 13.5q14 18 137 32l113 4q41 14 69 -49q14 -39 -10.5 -57t-187 -38.5t-241.5 -37t-115 -41t-81 -94.5q-18 -12 -82 -139 q-143 -195 -133 -207q43 -12 53 -12q16 8 99 22q326 84 368 90q59 35 101 -37q20 -43 -39.5 -67.5t-267 -80.5t-276 -60.5t-75.5 34.5q-14 6 -32.5 -21.5t-33 -73.5t-26.5 -99q-27 -119 -9.5 -169t45 -77t93.5 -45l82 -6q49 0 86 16q217 37 271 74q23 10 36 10q-4 -6 0 -6 q8 4 37 35q53 45 104.5 60.5t53.5 6.5q18 -33 -30 -97t-144 -118q-190 -102 -463 -106q-55 4 -90 24q-74 47 -123 86q-125 125 -78 332zM922 1515.5q4 18.5 18 37t83 78t107 79.5q39 33 64 -4q33 -27 91 -86t76.5 -84t-7.5 -61q-29 -41 -84 26q-41 49 -111 109 q-35 -20 -101.5 -77.5t-85 -64t-29.5 0t-18 17.5t-3 29.5z" />
<glyph unicode="&#xcb;" horiz-adv-x="1122" d="M221 393q20 100 51 164q45 109 199 348l12 17q0 14 60 127q51 55 28 86q-10 16 49.5 59t104.5 70q47 37 95 42t54 -20q18 -6 68.5 5.5t67.5 13.5q14 18 137 32l113 4q41 14 69 -49q14 -39 -10.5 -57t-187 -38.5t-241.5 -37t-115 -41t-81 -94.5q-18 -12 -82 -139 q-143 -195 -133 -207q43 -12 53 -12q16 8 99 22q326 84 368 90q59 35 101 -37q20 -43 -39.5 -67.5t-267 -80.5t-276 -60.5t-75.5 34.5q-14 6 -32.5 -21.5t-33 -73.5t-26.5 -99q-27 -119 -9.5 -169t45 -77t93.5 -45l82 -6q49 0 86 16q217 37 271 74q23 10 36 10q-4 -6 0 -6 q8 4 37 35q53 45 104.5 60.5t53.5 6.5q18 -33 -30 -97t-144 -118q-190 -102 -463 -106q-55 4 -90 24q-74 47 -123 86q-125 125 -78 332zM928 1602q18 63 41 81l12 13q33 33 58.5 19.5t35.5 -46.5q16 -31 12 -50.5t-32 -55.5q-70 -94 -121 8q-10 20 -6 31zM1190 1602 q18 63 41 81l12 13q33 33 58.5 19.5t35.5 -46.5q16 -31 12.5 -50.5t-32.5 -55.5q-70 -94 -121 8q-10 20 -6 31z" />
<glyph unicode="&#xcc;" horiz-adv-x="819" d="M98 25q4 53 170 55l109 2l20 41q16 47 36 112.5t46 145.5q70 213 76 237q31 66 68 220q94 295 77 301q-20 2 -111 -7.5t-102 -15.5q-10 -14 -34.5 -6t-30.5 29q-6 35 13.5 49t96 37.5t154.5 32t119 42.5q43 14 72 13q24 -16 141 -8q115 12 154.5 7t54.5 -34 q25 -86 -37 -80q-35 -8 -168 -12q-145 -12 -156 -29q-6 -6 -14 -18.5t-12 -16.5q4 -23 -20.5 -94.5t-49.5 -150.5q-66 -201 -79 -230t-19 -65q-41 -141 -87 -284.5t-65 -213.5q45 4 152.5 14.5t138.5 7t41 -29.5q53 -72 -21 -88q-37 -8 -114 -6q-170 -6 -216 -12.5 t-50 -24.5q0 -31 -58 -8q-27 37 -186 30q-43 -6 -80 12.5t-29 45.5zM807 1731q49 42 65 38q41 -14 89.5 -123.5t49.5 -128t-12.5 -38t-29.5 -23.5q-25 -16 -34 -10t-22 43q-8 16 -49 76q-86 131 -57 166z" />
<glyph unicode="&#xcd;" horiz-adv-x="819" d="M98 25q4 53 170 55l109 2l20 41q16 47 36 112.5t46 145.5q70 213 76 237q31 66 68 220q94 295 77 301q-20 2 -111 -7.5t-102 -15.5q-10 -14 -34.5 -6t-30.5 29q-6 35 13.5 49t96 37.5t154.5 32t119 42.5q43 14 72 13q24 -16 141 -8q115 12 154.5 7t54.5 -34 q25 -86 -37 -80q-35 -8 -168 -12q-145 -12 -156 -29q-6 -6 -14 -18.5t-12 -16.5q4 -23 -20.5 -94.5t-49.5 -150.5q-66 -201 -79 -230t-19 -65q-41 -141 -87 -284.5t-65 -213.5q45 4 152.5 14.5t138.5 7t41 -29.5q53 -72 -21 -88q-37 -8 -114 -6q-170 -6 -216 -12.5 t-50 -24.5q0 -31 -58 -8q-27 37 -186 30q-43 -6 -80 12.5t-29 45.5zM802 1545.5q3 15.5 86.5 105.5t112.5 100q35 20 84 -57q8 -20 -28.5 -57.5t-91 -81.5t-70.5 -66q-20 -35 -31.5 -39t-36.5 12q-14 12 -21 40t-4 43.5z" />
<glyph unicode="&#xce;" horiz-adv-x="819" d="M98 25q4 53 170 55l109 2l20 41q16 47 36 112.5t46 145.5q70 213 76 237q31 66 68 220q94 295 77 301q-20 2 -111 -7.5t-102 -15.5q-10 -14 -34.5 -6t-30.5 29q-6 35 13.5 49t96 37.5t154.5 32t119 42.5q43 14 72 13q24 -16 141 -8q115 12 154.5 7t54.5 -34 q25 -86 -37 -80q-35 -8 -168 -12q-145 -12 -156 -29q-6 -6 -14 -18.5t-12 -16.5q4 -23 -20.5 -94.5t-49.5 -150.5q-66 -201 -79 -230t-19 -65q-41 -141 -87 -284.5t-65 -213.5q45 4 152.5 14.5t138.5 7t41 -29.5q53 -72 -21 -88q-37 -8 -114 -6q-170 -6 -216 -12.5 t-50 -24.5q0 -31 -58 -8q-27 37 -186 30q-43 -6 -80 12.5t-29 45.5zM715 1515.5q4 18.5 18.5 37t83 78t107.5 79.5q39 33 63 -4q33 -27 91.5 -86t77 -84t-8.5 -61q-29 -41 -84 26q-41 49 -111 109q-35 -20 -101.5 -77.5t-84.5 -64t-29.5 0t-18.5 17.5t-3 29.5z" />
<glyph unicode="&#xcf;" horiz-adv-x="819" d="M98 25q4 53 170 55l109 2l20 41q16 47 36 112.5t46 145.5q70 213 76 237q31 66 68 220q94 295 77 301q-20 2 -111 -7.5t-102 -15.5q-10 -14 -34.5 -6t-30.5 29q-6 35 13.5 49t96 37.5t154.5 32t119 42.5q43 14 72 13q24 -16 141 -8q115 12 154.5 7t54.5 -34 q25 -86 -37 -80q-35 -8 -168 -12q-145 -12 -156 -29q-6 -6 -14 -18.5t-12 -16.5q4 -23 -20.5 -94.5t-49.5 -150.5q-66 -201 -79 -230t-19 -65q-41 -141 -87 -284.5t-65 -213.5q45 4 152.5 14.5t138.5 7t41 -29.5q53 -72 -21 -88q-37 -8 -114 -6q-170 -6 -216 -12.5 t-50 -24.5q0 -31 -58 -8q-27 37 -186 30q-43 -6 -80 12.5t-29 45.5zM721 1602q18 63 41 81l12 13q33 33 58.5 19.5t35.5 -46.5q16 -31 12.5 -50.5t-32.5 -55.5q-70 -94 -121 8q-10 20 -6 31zM983 1602q18 63 41 81l12 13q33 33 58.5 19.5t35.5 -46.5q16 -31 12.5 -50.5 t-32.5 -55.5q-70 -94 -121 8q-10 20 -6 31z" />
<glyph unicode="&#xd0;" horiz-adv-x="1183" d="M170 -2q18 31 70 -35q57 -59 178 -43q143 27 211 78l239 160q4 10 43 24q10 8 63.5 62.5t61.5 60.5q2 10 7.5 27.5t5.5 25.5q25 27 73.5 128.5t67.5 175.5q39 199 -3 320.5t-151 215.5q-43 35 -142 77t-110.5 38t-27 -38t-43 -106.5t-49 -130t-60.5 -166t-55 -153.5h37 q74 0 106 -25q29 -31 19.5 -56.5t-52.5 -21.5q-61 -6 -99 -6t-48 -2q-39 -125 -39 -129q-37 -55 -65 -282q-20 -82 -23.5 -95.5t-6.5 -20.5t-5 -13q-4 -10 -8 -11l-9 -8q0 -25 -36.5 -10.5t-51.5 29.5q-14 47 8 122q37 154 78 279t45 133h-30q-41 0 -66 8q-45 0 -61.5 28 t-1 39t87.5 19l104 15l4 12q57 195 90 256q68 193 84 231l15 68l-23 10q-37 -12 -55 0q-20 -6 -56 17.5t-40 44.5l-7 34q4 25 107.5 43.5t166 13.5t91.5 -12.5t46 -13.5t52 -19.5t51 -19.5q104 -41 213 -156.5t140 -242.5q12 -45 17 -114.5t-9 -97.5t4 -34q-4 -8 -17.5 -53 t-19.5 -62q-12 -129 -115 -303q-12 -2 -14 -8q0 -10 -22 -39q-6 -4 -25.5 -29.5t-28.5 -31.5q-2 -14 -12 -23.5t-18 -9.5q0 -6 -7 -8q-37 -53 -134 -131t-173 -111q-10 -8 -86 -43q-16 -14 -82.5 -39.5t-131 -37t-144.5 11.5q-31 6 -45.5 22.5t-17.5 19.5t-12 16t-15 19 q-53 76 -33 107z" />
<glyph unicode="&#xd1;" horiz-adv-x="1159" d="M101 -72.5q-1 23.5 15.5 79.5t55.5 149.5t55 177.5q70 162 91.5 232.5t38 104.5t45 91t48 105t43 121t35.5 110q33 104 80 172q37 61 89.5 61t72.5 -61q51 -119 41 -516q-8 -256 23 -373q16 -94 44.5 -203.5t45.5 -109.5q66 0 227 649q35 117 53 270q66 248 66 275v45 q8 0 17 26.5t9 67.5t29 69q8 23 54 11.5t57 -41.5q6 -43 -58 -314q0 -25 -25.5 -136t-33.5 -159q-20 -133 -37 -129q-84 -360 -215 -659q-104 -240 -231 -76q-68 88 -99 221q-10 49 -35 183q-41 106 -34 254q2 51 9 143t9 139q-2 145 -16.5 146.5t-51 -103t-71.5 -188.5 q-88 -207 -108.5 -250t-39.5 -119q-135 -360 -161 -467q-16 -41 -29 -61q-29 -45 -78 8q-29 31 -30 54.5zM721 1571.5q2 19.5 34.5 64.5t94.5 76q27 10 70 -1t64.5 -29.5t38.5 -36t23.5 -22.5t19.5 -14.5t19 -11.5q35 -4 99.5 33t88 46.5t40 -9t14.5 -34t-16.5 -36 t-30.5 -28.5q-135 -76 -155.5 -76t-33 2t-19.5 4t-21.5 10.5t-18.5 10.5t-22.5 15t-21.5 15t-44 37t-62.5 35t-47 -35t-46.5 -37q-4 -27 -20 -32q-20 4 -34.5 19t-12.5 34.5z" />
<glyph unicode="&#xd2;" horiz-adv-x="1015" d="M262 45q-59 86 2 397q12 12 10 32t4.5 40.5t18.5 60t20 80.5q92 279 228 457q152 158 250 203q96 57 133 43q115 -25 172 -93.5t88 -224t3 -293t-159 -352.5q-143 -283 -343 -410.5t-333 -25.5q-72 55 -94 86zM353 109.5q1 -3.5 32 -56.5q12 -20 42 -30.5t60 -4.5 q70 8 132.5 54.5t164 163t138 184t92.5 258.5q37 147 37 218t-3.5 161t-41.5 133q-55 59 -140 20q-59 -25 -186 -175t-125 -189q0 -16 -10 -31q-55 -57 -119 -266t-69 -322.5t-4 -117zM956 1731q50 42 66 38q41 -14 89 -123.5t49 -128t-12 -38t-30 -23.5q-25 -16 -34 -10 t-21 43q-8 16 -49 76q-86 131 -58 166z" />
<glyph unicode="&#xd3;" horiz-adv-x="1015" d="M262 45q-59 86 2 397q12 12 10 32t4.5 40.5t18.5 60t20 80.5q92 279 228 457q152 158 250 203q96 57 133 43q115 -25 172 -93.5t88 -224t3 -293t-159 -352.5q-143 -283 -343 -410.5t-333 -25.5q-72 55 -94 86zM353 109.5q1 -3.5 32 -56.5q12 -20 42 -30.5t60 -4.5 q70 8 132.5 54.5t164 163t138 184t92.5 258.5q37 147 37 218t-3.5 161t-41.5 133q-55 59 -140 20q-59 -25 -186 -175t-125 -189q0 -16 -10 -31q-55 -57 -119 -266t-69 -322.5t-4 -117zM951 1545.5q3 15.5 87 105.5t113 100q35 20 84 -57q8 -20 -29 -57.5t-91 -81.5t-71 -66 q-20 -35 -31.5 -39t-35.5 12q-14 12 -21.5 40t-4.5 43.5z" />
<glyph unicode="&#xd4;" horiz-adv-x="1015" d="M262 45q-59 86 2 397q12 12 10 32t4.5 40.5t18.5 60t20 80.5q92 279 228 457q152 158 250 203q96 57 133 43q115 -25 172 -93.5t88 -224t3 -293t-159 -352.5q-143 -283 -343 -410.5t-333 -25.5q-72 55 -94 86zM353 109.5q1 -3.5 32 -56.5q12 -20 42 -30.5t60 -4.5 q70 8 132.5 54.5t164 163t138 184t92.5 258.5q37 147 37 218t-3.5 161t-41.5 133q-55 59 -140 20q-59 -25 -186 -175t-125 -189q0 -16 -10 -31q-55 -57 -119 -266t-69 -322.5t-4 -117zM864 1515.5q4 18.5 18.5 37t83 78t107.5 79.5q39 33 64 -4q33 -27 91 -86t76.5 -84 t-8.5 -61q-29 -41 -84 26q-41 49 -110 109q-35 -20 -101.5 -77.5t-85 -64t-30 0t-18.5 17.5t-3 29.5z" />
<glyph unicode="&#xd5;" horiz-adv-x="1015" d="M262 45q-59 86 2 397q12 12 10 32t4.5 40.5t18.5 60t20 80.5q92 279 228 457q152 158 250 203q96 57 133 43q115 -25 172 -93.5t88 -224t3 -293t-159 -352.5q-143 -283 -343 -410.5t-333 -25.5q-72 55 -94 86zM353 109.5q1 -3.5 32 -56.5q12 -20 42 -30.5t60 -4.5 q70 8 132.5 54.5t164 163t138 184t92.5 258.5q37 147 37 218t-3.5 161t-41.5 133q-55 59 -140 20q-59 -25 -186 -175t-125 -189q0 -16 -10 -31q-55 -57 -119 -266t-69 -322.5t-4 -117zM760 1571.5q2 19.5 34.5 64.5t94.5 76q27 10 69.5 -1t64 -29.5t39 -36t24 -22.5 t19.5 -14.5t19 -11.5q35 -4 99.5 33t88 46.5t40 -9t14.5 -34t-16.5 -36t-30.5 -28.5q-135 -76 -155.5 -76t-33 2t-19.5 4t-21.5 10.5t-18.5 10.5t-22.5 15t-21.5 15t-44 37t-62.5 35t-47 -35t-46.5 -37q-4 -27 -20 -32q-20 4 -34.5 19t-12.5 34.5z" />
<glyph unicode="&#xd6;" horiz-adv-x="1015" d="M262 45q-59 86 2 397q12 12 10 32t4.5 40.5t18.5 60t20 80.5q92 279 228 457q152 158 250 203q96 57 133 43q115 -25 172 -93.5t88 -224t3 -293t-159 -352.5q-143 -283 -343 -410.5t-333 -25.5q-72 55 -94 86zM353 109.5q1 -3.5 32 -56.5q12 -20 42 -30.5t60 -4.5 q70 8 132.5 54.5t164 163t138 184t92.5 258.5q37 147 37 218t-3.5 161t-41.5 133q-55 59 -140 20q-59 -25 -186 -175t-125 -189q0 -16 -10 -31q-55 -57 -119 -266t-69 -322.5t-4 -117zM870 1602q18 63 41 81l13 13q33 33 58.5 19.5t35.5 -46.5q16 -31 12 -50.5t-33 -55.5 q-70 -94 -120 8q-10 20 -7 31zM1133 1602q18 63 41 81l12 13q33 33 58.5 19.5t35.5 -46.5q16 -31 12 -50.5t-32 -55.5q-70 -94 -121 8q-10 20 -6 31z" />
<glyph unicode="&#xd7;" horiz-adv-x="913" d="M295 152q6 20 53 79q33 51 164 193l-160 158q-39 39 -48 54t-9 53t24.5 50.5t53.5 -24.5l98 -84l125 -119q182 193 203.5 206t59.5 13t50.5 -25.5t-24.5 -52.5q-90 -104 -134 -150t-69 -73l156 -151q29 -29 43 -58q31 -31 20 -63q-2 -18 -8 -26.5t-19 -4.5q-20 4 -79 51 q-55 35 -195 166q-168 -178 -209 -199q-31 -31 -63 -20q-18 2 -26.5 8t-6.5 19z" />
<glyph unicode="&#xd8;" horiz-adv-x="1015" d="M208 -83q-5 60 42 149q-12 29 -12 59q-12 113 28 317q12 12 10 32t4.5 40.5t18.5 60t20 80.5q92 279 228 457q152 158 250 203q96 57 133 43q123 -29 182 -107q86 113 100 142q8 31 43 18q8 6 33 2q4 -12 23 -41q16 -31 -13 -98q-10 -27 -29.5 -47.5t-27.5 -29.5 t-31.5 -32.5t-40.5 -42.5q57 -209 26.5 -360.5t-161.5 -366.5q-143 -283 -342.5 -410.5t-333.5 -25.5l-20 16q-18 -33 -23 -45q-20 -72 -45 -75q-57 2 -62 62zM358 240q82 123 228.5 331.5t158.5 221.5q8 -2 18.5 9t20.5 42t35 37q0 2 43 69q55 55 168 199q-8 25 -22 41 q-55 59 -140 20q-59 -25 -186 -175t-125 -189q0 -16 -10 -31q-51 -53 -111.5 -242.5t-77.5 -332.5zM385 55l2 -2q12 -20 42 -30.5t60 -4.5q70 8 132.5 54.5t164 163t138.5 184t77.5 212t46 197t3.5 158.5q-20 -27 -25 -35q-27 -25 -86 -93t-61 -73.5t-7 -11.5 q-6 -16 -16 -18q-8 4 -14 -15l-2 -4q0 -16 -64 -94q-291 -426 -391 -588z" />
<glyph unicode="&#xd9;" horiz-adv-x="987" d="M268.5 93.5q-37.5 148.5 26.5 469.5q31 150 105.5 357.5t136 315t86 132.5t49.5 21q57 -16 67.5 -66.5t-39.5 -85.5q-25 -27 -69.5 -115t-61.5 -118q-127 -365 -159 -549q-43 -199 -43 -351q4 -8 11 -20t10 -19.5t9 -15.5q6 -10 23 -16q68 -33 166 24q12 23 43 37 q6 -8 9 -5t7 13q-2 10 19 31q30 12 112 120.5t82 123t27 45.5q37 37 180 338q125 399 137 459.5t35 126.5q12 4 82 -31q18 -23 8 -68q-53 -252 -88 -347t-60.5 -156.5t-39 -93.5t-45 -103.5t-43.5 -100.5v-12q-25 -14 -45.5 -52t-28.5 -42l-19 -47q-2 -12 -24.5 -25.5 t-27.5 -28t-7 -18.5q-74 -109 -166 -196q-162 -160 -282 -131q-145 51 -182.5 199.5zM928 1731q49 42 67 38q39 -14 87 -123.5t49.5 -128t-12 -38t-29.5 -23.5q-25 -16 -34 -10t-22 43q-8 16 -47 76q-88 131 -59 166z" />
<glyph unicode="&#xda;" horiz-adv-x="987" d="M268.5 93.5q-37.5 148.5 26.5 469.5q31 150 105.5 357.5t136 315t86 132.5t49.5 21q57 -16 67.5 -66.5t-39.5 -85.5q-25 -27 -69.5 -115t-61.5 -118q-127 -365 -159 -549q-43 -199 -43 -351q4 -8 11 -20t10 -19.5t9 -15.5q6 -10 23 -16q68 -33 166 24q12 23 43 37 q6 -8 9 -5t7 13q-2 10 19 31q30 12 112 120.5t82 123t27 45.5q37 37 180 338q125 399 137 459.5t35 126.5q12 4 82 -31q18 -23 8 -68q-53 -252 -88 -347t-60.5 -156.5t-39 -93.5t-45 -103.5t-43.5 -100.5v-12q-25 -14 -45.5 -52t-28.5 -42l-19 -47q-2 -12 -24.5 -25.5 t-27.5 -28t-7 -18.5q-74 -109 -166 -196q-162 -160 -282 -131q-145 51 -182.5 199.5zM923 1545.5q3 15.5 86.5 105.5t112.5 100q35 20 84 -57q8 -20 -28.5 -57.5t-91 -81.5t-70.5 -66q-20 -35 -31.5 -39t-36.5 12q-14 12 -21 40t-4 43.5z" />
<glyph unicode="&#xdb;" horiz-adv-x="987" d="M268.5 93.5q-37.5 148.5 26.5 469.5q31 150 105.5 357.5t136 315t86 132.5t49.5 21q57 -16 67.5 -66.5t-39.5 -85.5q-25 -27 -69.5 -115t-61.5 -118q-127 -365 -159 -549q-43 -199 -43 -351q4 -8 11 -20t10 -19.5t9 -15.5q6 -10 23 -16q68 -33 166 24q12 23 43 37 q6 -8 9 -5t7 13q-2 10 19 31q30 12 112 120.5t82 123t27 45.5q37 37 180 338q125 399 137 459.5t35 126.5q12 4 82 -31q18 -23 8 -68q-53 -252 -88 -347t-60.5 -156.5t-39 -93.5t-45 -103.5t-43.5 -100.5v-12q-25 -14 -45.5 -52t-28.5 -42l-19 -47q-2 -12 -24.5 -25.5 t-27.5 -28t-7 -18.5q-74 -109 -166 -196q-162 -160 -282 -131q-145 51 -182.5 199.5zM835.5 1515.5q4.5 18.5 18.5 37t83 78t107 79.5q39 33 64 -4q33 -27 91 -86t76.5 -84t-7.5 -61q-29 -41 -84 26q-41 49 -111 109q-35 -20 -101.5 -77.5t-85 -64t-29.5 0t-18.5 17.5 t-3 29.5z" />
<glyph unicode="&#xdc;" horiz-adv-x="987" d="M268.5 93.5q-37.5 148.5 26.5 469.5q31 150 105.5 357.5t136 315t86 132.5t49.5 21q57 -16 67.5 -66.5t-39.5 -85.5q-25 -27 -69.5 -115t-61.5 -118q-127 -365 -159 -549q-43 -199 -43 -351q4 -8 11 -20t10 -19.5t9 -15.5q6 -10 23 -16q68 -33 166 24q12 23 43 37 q6 -8 9 -5t7 13q-2 10 19 31q30 12 112 120.5t82 123t27 45.5q37 37 180 338q125 399 137 459.5t35 126.5q12 4 82 -31q18 -23 8 -68q-53 -252 -88 -347t-60.5 -156.5t-39 -93.5t-45 -103.5t-43.5 -100.5v-12q-25 -14 -45.5 -52t-28.5 -42l-19 -47q-2 -12 -24.5 -25.5 t-27.5 -28t-7 -18.5q-74 -109 -166 -196q-162 -160 -282 -131q-145 51 -182.5 199.5zM842 1602q18 63 41 81l12 13q33 33 58.5 19.5t35.5 -46.5q16 -31 12 -50.5t-32 -55.5q-70 -94 -121 8q-10 20 -6 31zM1104 1602q18 63 41 81l12 13q33 33 58.5 19.5t35.5 -46.5 q16 -31 12.5 -50.5t-32.5 -55.5q-70 -94 -121 8q-10 20 -6 31z" />
<glyph unicode="&#xdd;" horiz-adv-x="1032" d="M448.5 -58q4.5 19 6.5 29q6 29 22 82q4 123 62 228q0 63 63 215l33 98q-115 152 -133 289q-31 104 -19 331q0 86 35 150q6 12 6 14q33 41 60 -30q18 -53 16 -129q12 -449 102 -506q31 -8 54 8q68 49 232.5 242.5t225 260.5t89.5 83q14 23 43 26q12 -4 19 -29.5t15.5 -41 t6 -29.5t-45.5 -57q-45 -39 -143 -141.5t-156 -174.5q-186 -215 -247 -270l-43 -43q-10 -37 -35 -144q-12 -41 -35 -114q-31 -106 -53.5 -178t-40 -143.5t-27.5 -92t-25.5 -16.5t-68.5 41q-23 23 -18.5 42zM914.5 1547.5q3.5 15.5 87 105.5t112.5 100q35 20 84 -57 q8 -20 -28.5 -57t-91 -81.5t-70.5 -66.5q-20 -35 -31.5 -39t-36.5 12q-14 12 -21.5 40t-4 43.5z" />
<glyph unicode="&#xde;" horiz-adv-x="966" d="M160 -80q-8 12 66.5 268t84.5 254q10 55 33 84q4 31 22.5 79t36.5 65q0 23 35 100.5t41 77.5q0 14 27 51q0 37 22 53q12 51 4 58q-18 53 33 55q12 0 22.5 21.5t14.5 23.5q106 279 106.5 310.5t47.5 31.5q10 10 32 10l33 -32q23 -20 23 -54.5t-2 -45.5t-3 -20.5 t-9.5 -27.5t-14.5 -29.5t-22.5 -47.5t-28.5 -60l67 12q82 0 148 -14q70 -33 110.5 -85t47 -103.5t-35.5 -174.5t-79 -151q20 2 -29 -47.5t-67 -55.5q-20 -47 -56 -65q-78 -49 -96 -78q0 23 -37 -8q-12 -10 -16 -13q-92 -55 -178 -71q-14 -12 -74 -12l-70 10l-43 -117 q-10 -43 -31.5 -115.5t-28.5 -109.5t-17 -58q-16 -39 -39 -20q-4 2 -29 8q-51 12 -51 43zM446 397q104 -2 177 33t145 102q80 80 160 189q45 63 59 154.5t-8.5 123t-73.5 41.5q-94 16 -190 -39q-33 -14 -156 -291.5t-113 -312.5z" />
<glyph unicode="&#xdf;" horiz-adv-x="815" d="M90 -285q23 41 21 129q18 45 18 90q53 219 76 289q20 98 84 262q-4 27 20.5 94.5t55.5 112.5q12 74 53 156q-6 8 -2 51q31 18 35 45q0 6 75.5 106.5t116.5 149.5q90 86 184 111q72 14 89.5 15t58.5 -32.5t57 -66.5q61 -154 -74 -334q-31 -49 -52 -64.5t-37.5 -28 t-30.5 -48.5q-10 -10 -29 -32t-23 -22q-12 0 -28.5 -33.5t-7.5 -50.5l-11 -12q-12 0 -9 -14.5t6 -24.5t9.5 -23.5t11.5 -23.5t12 -22.5t9 -18.5q23 -2 60 -100q2 -35 7 -75t7 -67q-18 -172 -184 -184q-27 -4 -48.5 -4t-29.5 2t-38 11.5t-64.5 21.5t-54 35.5t0.5 60.5 q6 10 19 10l22 2q78 0 112 -9t46 -5t20 16l54 7q2 0 1 10t2 12t7 8q20 31 12 54q-4 63 -39 108q-35 86 -66.5 130t-41.5 54q-14 16 22 84q0 2 39 52q119 160 125 172q35 20 67.5 51t32.5 41q-10 29 29 78q57 96 31 151q-33 20 -95.5 -9.5t-113.5 -88.5q-59 -74 -68 -76 q-47 -61 -110.5 -183t-98.5 -224q8 -14 -4 -46t-32 -47v-75l-13 -35q-14 0 -14 -2q-6 -45 -34 -116t-35 -100.5t-19 -121.5q-80 -238 -60 -299q-23 -80 -22.5 -133.5t-1.5 -63.5q-4 -23 -45 -18q-57 14 -72 92v59z" />
<glyph unicode="&#xe0;" horiz-adv-x="894" d="M176 152q-35 35 111 301q12 12 31.5 42.5t25.5 34.5q0 8 6 15.5t15 7.5v12q0 18 67 90q180 188 279 111q12 -16 170 -156l-37 -102q-45 -133 26 -250q10 -23 41 -43t62 -25q45 -8 45 -47t-37 -47q-137 -18 -233 168q-29 39 -37 90q-31 -43 -66 -78q-289 -291 -426 -202 q-6 12 -19.5 25.5t-13.5 26.5t-10 26zM293 188q0 -23 52 3t87 55q176 152 254 264l45 74q-37 82 -82 82t-137 -107.5t-168 -253.5zM639 1178q50 43 66 39q41 -14 89 -124t49 -128.5t-12.5 -38t-29.5 -23.5q-25 -16 -34 -10t-22 43q-8 16 -49 76q-86 131 -57 166z" />
<glyph unicode="&#xe1;" horiz-adv-x="894" d="M176 152q-35 35 111 301q12 12 31.5 42.5t25.5 34.5q0 8 6 15.5t15 7.5v12q0 18 67 90q180 188 279 111q12 -16 170 -156l-37 -102q-45 -133 26 -250q10 -23 41 -43t62 -25q45 -8 45 -47t-37 -47q-137 -18 -233 168q-29 39 -37 90q-31 -43 -66 -78q-289 -291 -426 -202 q-6 12 -19.5 25.5t-13.5 26.5t-10 26zM293 188q0 -23 52 3t87 55q176 152 254 264l45 74q-37 82 -82 82t-137 -107.5t-168 -253.5zM771 992.5q3 15.5 87 105.5t113 100q35 20 84 -57q8 -20 -29 -57t-91 -81.5t-71 -66.5q-20 -35 -31.5 -39t-35.5 12q-14 12 -21.5 40 t-4.5 43.5z" />
<glyph unicode="&#xe2;" horiz-adv-x="894" d="M176 152q-35 35 111 301q12 12 31.5 42.5t25.5 34.5q0 8 6 15.5t15 7.5v12q0 18 67 90q180 188 279 111q12 -16 170 -156l-37 -102q-45 -133 26 -250q10 -23 41 -43t62 -25q45 -8 45 -47t-37 -47q-137 -18 -233 168q-29 39 -37 90q-31 -43 -66 -78q-289 -291 -426 -202 q-6 12 -19.5 25.5t-13.5 26.5t-10 26zM293 188q0 -23 52 3t87 55q176 152 254 264l45 74q-37 82 -82 82t-137 -107.5t-168 -253.5zM543 954.5q4 18.5 18 37t83 77.5t108 80q39 33 63 -4q33 -27 91.5 -86.5t76.5 -84t-8 -61.5q-29 -41 -84 27q-41 49 -111 109 q-35 -20 -101.5 -78t-85 -64t-29.5 0t-18 17.5t-3 30z" />
<glyph unicode="&#xe3;" horiz-adv-x="894" d="M176 152q-35 35 111 301q12 12 31.5 42.5t25.5 34.5q0 8 6 15.5t15 7.5v12q0 18 67 90q180 188 279 111q12 -16 170 -156l-37 -102q-45 -133 26 -250q10 -23 41 -43t62 -25q45 -8 45 -47t-37 -47q-137 -18 -233 168q-29 39 -37 90q-31 -43 -66 -78q-289 -291 -426 -202 q-6 12 -19.5 25.5t-13.5 26.5t-10 26zM293 188q0 -23 52 3t87 55q176 152 254 264l45 74q-37 82 -82 82t-137 -107.5t-168 -253.5zM485 957.5q2 19.5 35 64.5t94 76q27 10 70 -1.5t64.5 -29.5t39 -35.5t23.5 -22.5t19.5 -14.5t21.5 -11.5q33 -4 97.5 33t88 46t40 -9.5 t14.5 -33.5t-17 -36t-31 -29q-135 -76 -155.5 -75.5t-32.5 2.5t-19.5 4t-21.5 10t-18 10t-22.5 15.5t-21.5 15.5t-44 37t-62.5 35t-47.5 -35t-46 -37q-4 -27 -21 -33q-20 4 -34.5 19.5t-12.5 35z" />
<glyph unicode="&#xe4;" horiz-adv-x="894" d="M176 152q-35 35 111 301q12 12 31.5 42.5t25.5 34.5q0 8 6 15.5t15 7.5v12q0 18 67 90q180 188 279 111q12 -16 170 -156l-37 -102q-45 -133 26 -250q10 -23 41 -43t62 -25q45 -8 45 -47t-37 -47q-137 -18 -233 168q-29 39 -37 90q-31 -43 -66 -78q-289 -291 -426 -202 q-6 12 -19.5 25.5t-13.5 26.5t-10 26zM293 188q0 -23 52 3t87 55q176 152 254 264l45 74q-37 82 -82 82t-137 -107.5t-168 -253.5zM596 987q18 63 41 82l12 12q33 33 58.5 19.5t35.5 -45.5q16 -31 12.5 -50.5t-32.5 -56.5q-70 -94 -121 8q-10 20 -6 31zM858 987q18 63 41 82 l12 12q33 33 58.5 19.5t36.5 -45.5q16 -31 12 -50.5t-33 -56.5q-70 -94 -121 8q-10 20 -6 31z" />
<glyph unicode="&#xe5;" horiz-adv-x="894" d="M176 152q-35 35 111 301q12 12 31.5 42.5t25.5 34.5q0 8 6 15.5t15 7.5v12q0 18 67 90q180 188 279 111q12 -16 170 -156l-37 -102q-45 -133 26 -250q10 -23 41 -43t62 -25q45 -8 45 -47t-37 -47q-137 -18 -233 168q-29 39 -37 90q-31 -43 -66 -78q-289 -291 -426 -202 q-6 12 -19.5 25.5t-13.5 26.5t-10 26zM293 188q0 -23 52 3t87 55q176 152 254 264l45 74q-37 82 -82 82t-137 -107.5t-168 -253.5zM698 987q0 66 40 130.5t105.5 64.5t108.5 -31t43 -100.5t-44 -138t-115 -68.5q-123 0 -138 143zM776 995q0 -23 17.5 -46t33.5 -23 q82 0 79 86t-52 86q-78 0 -78 -103z" />
<glyph unicode="&#xe6;" horiz-adv-x="1175" d="M166 152q-35 35 110 301q12 12 32 42.5t26 34.5q0 8 6 15.5t14 7.5v12q0 18 68 90q180 188 278 111l136 -127q82 94 165 129q29 18 53.5 19t83 -7t91.5 -49q51 -51 51 -119q-8 -49 -63.5 -112.5t-133.5 -102.5q-115 -35 -186 15q-35 14 -48 -1.5t-24 -76.5l4 -8 q-6 -10 -6 -23q-16 -141 68 -156q8 -2 24.5 -5t21.5 -4t17.5 -2t20.5 1q16 4 31.5 13.5t23.5 13.5q16 8 21.5 11t6.5 3t4 2t3 4q14 12 35.5 34t32 22t21.5 -10.5t15 -12.5q33 0 -9 -53t-103 -92q-66 -57 -155 -42t-142 89q-57 72 -51 207q-8 25 -9 28q-31 -43 -65 -78 q-289 -291 -426 -202q-6 12 -19.5 25.5t-13.5 26.5t-10 26zM283 188q0 -23 52 3t87 55q176 152 254 264l45 74q-37 82 -82 82t-137 -107.5t-168 -253.5zM897 512q8 -16 65.5 -18t92.5 12t70.5 51t35.5 64.5t-28.5 45t-67.5 7.5t-80 -47t-67.5 -73t-20.5 -42z" />
<glyph unicode="&#xe7;" horiz-adv-x="727" d="M158 -302q-4 26 15.5 43t36.5 12t38.5 -12t33 -11t31 -9.5t32.5 -5.5t28 2q27 0 43 31t-40.5 97.5t-68.5 78.5q-14 20 -20 33q-12 33 28 72q-104 41 -104 168q-8 90 40 223t137 240.5t136 127t101 19.5q37 -8 72.5 -30.5t35.5 -45.5l10 -10q18 0 28.5 -55.5t-5.5 -87.5 q-8 -39 -27.5 -68t-40 -29t-20.5 -12q0 -18 -23.5 -4t-26.5 28.5t0 26.5t11 35q51 162 -47 121q-170 -96 -252 -414q-16 -57 -10 -87t10 -32q29 -8 78 -3t93 29t85 54.5t61.5 48t32.5 23.5q18 29 31.5 31t34.5 2q49 -16 51 -35q0 -4 -8 -8l-11 -11q8 -16 -71.5 -89.5 t-102 -73.5t-22.5 -13q0 -8 -49 -31.5t-92 -37.5q-53 -33 -54 -64q12 -18 41 -51q59 -72 68 -107q18 -70 -14 -114q-74 -104 -299 -31q-31 10 -35 36z" />
<glyph unicode="&#xe8;" horiz-adv-x="665" d="M221 375q8 115 98.5 234.5t190.5 158.5q29 18 53.5 19t83 -7t90.5 -49q51 -51 51 -119q-8 -49 -63 -112.5t-133 -102.5q-115 -35 -186 15q-37 14 -50.5 -6.5t-23.5 -102.5q-16 -141 67 -156q8 -2 24.5 -5l22 -4t17.5 -2t20 1q16 4 31.5 13.5t24.5 13.5q16 8 21 11t6 3 t4 2t3 4q14 12 36 34t32 22t21.5 -10.5t15.5 -12.5q33 0 -9 -53t-104 -92q-66 -57 -154.5 -42t-142.5 89q-63 80 -47 256zM406 512q8 -16 65 -18t92 12t71 51t36 64.5t-29 45t-67.5 7.5t-79.5 -47t-68 -73t-20 -42zM520 1178q50 43 66 39q41 -14 89 -124t49 -128.5 t-12.5 -38t-29.5 -23.5q-25 -16 -34 -10t-21 43q-8 16 -49 76q-86 131 -58 166z" />
<glyph unicode="&#xe9;" horiz-adv-x="665" d="M221 375q8 115 98.5 234.5t190.5 158.5q29 18 53.5 19t83 -7t90.5 -49q51 -51 51 -119q-8 -49 -63 -112.5t-133 -102.5q-115 -35 -186 15q-37 14 -50.5 -6.5t-23.5 -102.5q-16 -141 67 -156q8 -2 24.5 -5l22 -4t17.5 -2t20 1q16 4 31.5 13.5t24.5 13.5q16 8 21 11t6 3 t4 2t3 4q14 12 36 34t32 22t21.5 -10.5t15.5 -12.5q33 0 -9 -53t-104 -92q-66 -57 -154.5 -42t-142.5 89q-63 80 -47 256zM406 512q8 -16 65 -18t92 12t71 51t36 64.5t-29 45t-67.5 7.5t-79.5 -47t-68 -73t-20 -42zM652 992.5q3 15.5 87 105.5t113 100q35 20 84 -57 q8 -20 -29 -57t-91 -81.5t-71 -66.5q-20 -35 -31.5 -39t-35.5 12q-14 12 -21.5 40t-4.5 43.5z" />
<glyph unicode="&#xea;" horiz-adv-x="665" d="M221 375q8 115 98.5 234.5t190.5 158.5q29 18 53.5 19t83 -7t90.5 -49q51 -51 51 -119q-8 -49 -63 -112.5t-133 -102.5q-115 -35 -186 15q-37 14 -50.5 -6.5t-23.5 -102.5q-16 -141 67 -156q8 -2 24.5 -5l22 -4t17.5 -2t20 1q16 4 31.5 13.5t24.5 13.5q16 8 21 11t6 3 t4 2t3 4q14 12 36 34t32 22t21.5 -10.5t15.5 -12.5q33 0 -9 -53t-104 -92q-66 -57 -154.5 -42t-142.5 89q-63 80 -47 256zM406 512q8 -16 65 -18t92 12t71 51t36 64.5t-29 45t-67.5 7.5t-79.5 -47t-68 -73t-20 -42zM424 954.5q4 18.5 18.5 37t83 77.5t107.5 80q39 33 63 -4 q33 -27 91.5 -86.5t77 -84t-8.5 -61.5q-29 -41 -84 27q-41 49 -110 109q-35 -20 -101.5 -78t-85 -64t-30 0t-18.5 17.5t-3 30z" />
<glyph unicode="&#xeb;" horiz-adv-x="665" d="M221 375q8 115 98.5 234.5t190.5 158.5q29 18 53.5 19t83 -7t90.5 -49q51 -51 51 -119q-8 -49 -63 -112.5t-133 -102.5q-115 -35 -186 15q-37 14 -50.5 -6.5t-23.5 -102.5q-16 -141 67 -156q8 -2 24.5 -5l22 -4t17.5 -2t20 1q16 4 31.5 13.5t24.5 13.5q16 8 21 11t6 3 t4 2t3 4q14 12 36 34t32 22t21.5 -10.5t15.5 -12.5q33 0 -9 -53t-104 -92q-66 -57 -154.5 -42t-142.5 89q-63 80 -47 256zM406 512q8 -16 65 -18t92 12t71 51t36 64.5t-29 45t-67.5 7.5t-79.5 -47t-68 -73t-20 -42zM477 987q18 63 41 82l12 12q33 33 58.5 19.5t36.5 -45.5 q16 -31 12 -50.5t-33 -56.5q-70 -94 -121 8q-10 20 -6 31zM739 987q18 63 41 82l13 12q33 33 58.5 19.5t35.5 -45.5q16 -31 12 -50.5t-33 -56.5q-70 -94 -121 8q-10 20 -6 31z" />
<glyph unicode="&#xec;" horiz-adv-x="382" d="M199 131q-4 41 10 66l8 43q-2 12 16 67q37 82 99 289q0 25 33 27q25 8 37 0.5t32 -39.5q31 -31 -5 -111t-44 -123q-31 -68 -46 -129t-28 -82q-18 -84 -33.5 -98t-45 17.5t-33.5 72.5zM334 1178q49 43 67 39q39 -14 87.5 -124t49.5 -128.5t-12.5 -38t-29.5 -23.5 q-25 -16 -34 -10t-22 43q-8 16 -47 76q-88 131 -59 166z" />
<glyph unicode="&#xed;" horiz-adv-x="382" d="M199 131q-4 41 10 66l8 43q-2 12 16 67q37 82 99 289q0 25 33 27q25 8 37 0.5t32 -39.5q31 -31 -5 -111t-44 -123q-31 -68 -46 -129t-28 -82q-18 -84 -33.5 -98t-45 17.5t-33.5 72.5zM466 992.5q3 15.5 87 105.5t113 100q35 20 84 -57q8 -20 -29 -57t-91.5 -81.5 t-70.5 -66.5q-20 -35 -31.5 -39t-35.5 12q-14 12 -21.5 40t-4.5 43.5z" />
<glyph unicode="&#xee;" horiz-adv-x="382" d="M199 131q-4 41 10 66l8 43q-2 12 16 67q37 82 99 289q0 25 33 27q25 8 37 0.5t32 -39.5q31 -31 -5 -111t-44 -123q-31 -68 -46 -129t-28 -82q-18 -84 -33.5 -98t-45 17.5t-33.5 72.5zM237.5 954.5q4.5 18.5 18.5 37t83 77.5t107 80q39 33 64 -4q33 -27 91 -86.5t76.5 -84 t-7.5 -61.5q-29 -41 -84 27q-41 49 -111 109q-35 -20 -101.5 -78t-85 -64t-29.5 0t-18.5 17.5t-3 30z" />
<glyph unicode="&#xef;" horiz-adv-x="382" d="M199 131q-4 41 10 66l8 43q-2 12 16 67q37 82 99 289q0 25 33 27q25 8 37 0.5t32 -39.5q31 -31 -5 -111t-44 -123q-31 -68 -46 -129t-28 -82q-18 -84 -33.5 -98t-45 17.5t-33.5 72.5zM291 987q18 63 41 82l12 12q33 33 58.5 19.5t35.5 -45.5q16 -31 12 -50.5t-32 -56.5 q-70 -94 -121 8q-10 20 -6 31zM553 987q18 63 41 82l12 12q33 33 58.5 19.5t35.5 -45.5q16 -31 12.5 -50.5t-32.5 -56.5q-70 -94 -121 8q-10 20 -6 31z" />
<glyph unicode="&#xf0;" horiz-adv-x="714" d="M210 266q5 6 7 8q12 2 7 21.5t14.5 79t48.5 104.5q16 37 57 95.5t76 87.5q76 76 143.5 97t87 20t35.5 -16t21 -15q0 118 -29 206l-74 -18q-41 0 -74 2q-43 -14 -64.5 8.5t-25.5 31.5t9 19q16 14 92 39q53 12 90 27q-25 47 -62 92q-16 16 -46.5 41t-43.5 45q-2 8 17 29 q35 35 66.5 25.5t39.5 -19.5q8 8 45 -39q74 -98 92 -139q51 12 71.5 16t26 5t16.5 2t16 0t14 -3q10 -2 32 -16q37 -31 29 -58.5t-53 -19.5q-8 0 -46 -13.5t-63 -17.5q53 -170 33 -366q-27 -270 -164 -430q-31 -37 -53.5 -54.5t-88 -65.5t-140.5 -52q-35 -6 -80 32 q-84 80 -72 146q6 18 -2 47q-10 10 -5 16zM344 279q-37 -106 18 -144q57 -39 197 113q74 98 123 235q8 31 3 89.5t-21 64.5q-61 35 -129 -37q-102 -94 -191 -321z" />
<glyph unicode="&#xf1;" d="M213 193q0 16 13.5 75.5t21.5 75.5q8 0 20.5 26.5t20.5 39.5q6 31 53 141q47 80 55 164q-2 8 4.5 15t14.5 7q37 35 76.5 -18t32.5 -105.5t-66 -148.5q-29 -70 -29 -78q82 55 115 78q16 18 87.5 65.5t100.5 53.5q49 23 67.5 22.5t60.5 -37.5t50 -61q0 -23 7.5 -48.5 t5.5 -99t-17 -81.5q0 -10 11 -11v-10q-23 0 -3.5 -38t38 -56.5t14.5 -40t-37 -29.5q-80 0 -113 76q-12 43 -16 99.5t3 68.5t6 66.5t-18.5 61.5t-50.5 -13q-242 -152 -342 -238q-27 -29 -63 -90q-6 -10 -17 -10q-20 -10 -59 22q-45 49 -47 56zM498 957.5q2 19.5 34.5 64.5 t94.5 76q27 10 69.5 -1.5t64 -29.5t39 -35.5t23.5 -22.5t19.5 -14.5t21.5 -11.5q33 -4 97.5 33t88 46t40 -9.5t14.5 -33.5t-16.5 -36t-30.5 -29q-135 -76 -155.5 -75.5t-33 2.5t-19.5 4t-21.5 10t-18.5 10t-22.5 15.5t-21.5 15.5t-44 37t-62.5 35t-47 -35t-46.5 -37 q-4 -27 -20 -33q-20 4 -34.5 19.5t-12.5 35z" />
<glyph unicode="&#xf2;" horiz-adv-x="722" d="M200 284.5q5 6.5 7 8.5q12 0 8 19.5t16.5 76t51.5 103.5q137 227 319 270q43 12 62.5 10t48.5 -33q47 -20 68.5 -48.5t27.5 -84.5q16 -160 -107 -336q-47 -68 -88 -103.5t-108 -76.5q-80 -53 -160 -59q-35 0 -80 39q-78 80 -65 151l4 47q-10 10 -5 16.5zM334 289 q-43 -102 6 -144q61 -51 203 103q88 100 135 229q12 33 11 89.5t-17 64.5q-57 33 -135 -31q-102 -88 -203 -311zM551 1178q49 43 67 39q39 -14 87.5 -124t49.5 -128.5t-12.5 -38t-29.5 -23.5q-25 -16 -34 -10t-22 43q-8 16 -47 76q-88 131 -59 166z" />
<glyph unicode="&#xf3;" horiz-adv-x="722" d="M200 284.5q5 6.5 7 8.5q12 0 8 19.5t16.5 76t51.5 103.5q137 227 319 270q43 12 62.5 10t48.5 -33q47 -20 68.5 -48.5t27.5 -84.5q16 -160 -107 -336q-47 -68 -88 -103.5t-108 -76.5q-80 -53 -160 -59q-35 0 -80 39q-78 80 -65 151l4 47q-10 10 -5 16.5zM334 289 q-43 -102 6 -144q61 -51 203 103q88 100 135 229q12 33 11 89.5t-17 64.5q-57 33 -135 -31q-102 -88 -203 -311zM683 992.5q3 15.5 87 105.5t113 100q35 20 84 -57q8 -20 -29 -57t-91 -81.5t-71 -66.5q-20 -35 -31.5 -39t-35.5 12q-14 12 -21.5 40t-4.5 43.5z" />
<glyph unicode="&#xf4;" horiz-adv-x="722" d="M200 284.5q5 6.5 7 8.5q12 0 8 19.5t16.5 76t51.5 103.5q137 227 319 270q43 12 62.5 10t48.5 -33q47 -20 68.5 -48.5t27.5 -84.5q16 -160 -107 -336q-47 -68 -88 -103.5t-108 -76.5q-80 -53 -160 -59q-35 0 -80 39q-78 80 -65 151l4 47q-10 10 -5 16.5zM334 289 q-43 -102 6 -144q61 -51 203 103q88 100 135 229q12 33 11 89.5t-17 64.5q-57 33 -135 -31q-102 -88 -203 -311zM455 954.5q4 18.5 18 37t83 77.5t108 80q39 33 63 -4q33 -27 91.5 -86.5t76.5 -84t-8 -61.5q-29 -41 -84 27q-41 49 -111 109q-35 -20 -101.5 -78t-85 -64 t-29.5 0t-18 17.5t-3 30z" />
<glyph unicode="&#xf5;" horiz-adv-x="722" d="M200 284.5q5 6.5 7 8.5q12 0 8 19.5t16.5 76t51.5 103.5q137 227 319 270q43 12 62.5 10t48.5 -33q47 -20 68.5 -48.5t27.5 -84.5q16 -160 -107 -336q-47 -68 -88 -103.5t-108 -76.5q-80 -53 -160 -59q-35 0 -80 39q-78 80 -65 151l4 47q-10 10 -5 16.5zM334 289 q-43 -102 6 -144q61 -51 203 103q88 100 135 229q12 33 11 89.5t-17 64.5q-57 33 -135 -31q-102 -88 -203 -311zM397 957.5q2 19.5 35 64.5t94 76q27 10 70 -1.5t64.5 -29.5t39 -35.5t23.5 -22.5t19.5 -14.5t19.5 -11.5q35 -4 99.5 33t88 46t40 -9.5t14 -33.5t-17 -36 t-30.5 -29q-135 -76 -155.5 -75.5t-32.5 2.5t-19.5 4t-21.5 10t-18 10t-22.5 15.5t-21.5 15.5t-44 37t-62.5 35t-47.5 -35t-46 -37q-4 -27 -14.5 -32t-12.5 1q-18 6 -30.5 19.5t-10.5 33z" />
<glyph unicode="&#xf6;" horiz-adv-x="722" d="M200 284.5q5 6.5 7 8.5q12 0 8 19.5t16.5 76t51.5 103.5q137 227 319 270q43 12 62.5 10t48.5 -33q47 -20 68.5 -48.5t27.5 -84.5q16 -160 -107 -336q-47 -68 -88 -103.5t-108 -76.5q-80 -53 -160 -59q-35 0 -80 39q-78 80 -65 151l4 47q-10 10 -5 16.5zM334 289 q-43 -102 6 -144q61 -51 203 103q88 100 135 229q12 33 11 89.5t-17 64.5q-57 33 -135 -31q-102 -88 -203 -311zM508 987q18 63 41 82l12 12q33 33 58.5 19.5t35.5 -45.5q16 -31 12.5 -50.5t-32.5 -56.5q-70 -94 -121 8q-10 20 -6 31zM770 987q18 63 41 82l12 12 q33 33 58.5 19.5t36.5 -45.5q16 -31 12 -50.5t-33 -56.5q-70 -94 -121 8q-10 20 -6 31z" />
<glyph unicode="&#xf7;" horiz-adv-x="913" d="M227 442q20 14 97 23q129 29 516 29q53 0 71.5 -5.5t40.5 -25.5q33 -31 23 -58.5t-55 -19.5q-258 -20 -555 -20q-41 0 -72 10q-43 0 -60 28q-23 31 -6 39zM419.5 67q-1.5 31 2.5 33q16 2 37.5 36t21 55.5t19.5 25.5q47 33 92 -39q16 -41 10 -64.5t-45 -70.5 q-55 -74 -111 -27q-25 20 -26.5 51zM604 723q-2 31 2 33q16 2 38 35.5t21 55t19 25.5q47 33 92 -38q16 -41 10 -65t-45 -71q-55 -74 -110 -26q-25 20 -27 51z" />
<glyph unicode="&#xf8;" horiz-adv-x="722" d="M109.5 20q7.5 41 60.5 95l39 37q-14 35 -8 69l4 47q-10 10 -5 16.5t7 8.5q12 0 8 19.5t16.5 76t51.5 103.5q137 227 319 270q43 12 62.5 10t48.5 -33q57 -25 80 -67q104 86 114 102q10 23 28.5 12.5t27 -34t-14.5 -45.5q-14 -29 -33.5 -41.5t-40.5 -26.5q-49 -37 -63 -45 q12 -152 -109 -324q-47 -68 -88 -103.5t-108 -76.5q-80 -53 -160 -59q-45 0 -100 61q-59 -59 -76.5 -91t-28.5 -32q-39 10 -31.5 51zM322 168q27 -61 116 -8q49 27 121 107.5t119 209.5q4 12 4 21l-133 -115q-72 -57 -227 -215zM328 274q182 191 313 283q25 14 45 31 q-4 37 -14 43q-57 33 -135 -31q-111 -94 -209 -326z" />
<glyph unicode="&#xf9;" horiz-adv-x="757" d="M236 252q6 143 88 323q66 129 94 173q66 23 76 -41q25 -39 -56 -191q-123 -291 -55 -317q23 -14 64.5 2t104 88.5t102.5 169t46 170.5q-10 51 35 78q8 12 21.5 19t19.5 -1l33 2q6 0 12 -12.5t13 -16.5q47 -39 -46 -252q-66 -137 -66.5 -212.5t58.5 -127.5q31 -20 27 -75 q-8 -29 -45 -38t-68 11q-49 47 -73 139q-5 12 -5 47v39q-12 -31 -45 -55q-47 -47 -94 -70q-72 -45 -112.5 -47t-81.5 45q-68 55 -47 150zM508 1182q49 43 65 39q41 -14 89.5 -124t49.5 -128.5t-12.5 -38t-29.5 -23.5q-25 -16 -34 -10t-22 43q-8 16 -49 76q-86 131 -57 166z " />
<glyph unicode="&#xfa;" horiz-adv-x="757" d="M236 252q6 143 88 323q66 129 94 173q66 23 76 -41q25 -39 -56 -191q-123 -291 -55 -317q23 -14 64.5 2t104 88.5t102.5 169t46 170.5q-10 51 35 78q8 12 21.5 19t19.5 -1l33 2q6 0 12 -12.5t13 -16.5q47 -39 -46 -252q-66 -137 -66.5 -212.5t58.5 -127.5q31 -20 27 -75 q-8 -29 -45 -38t-68 11q-49 47 -73 139q-5 12 -5 47v39q-12 -31 -45 -55q-47 -47 -94 -70q-72 -45 -112.5 -47t-81.5 45q-68 55 -47 150zM611 986q3 15 87 105.5t113 100.5q35 20 84 -57q8 -20 -29 -57.5t-91 -81.5t-70 -66q-20 -35 -31.5 -39t-36.5 12q-14 12 -21.5 40 t-4.5 43z" />
<glyph unicode="&#xfb;" horiz-adv-x="757" d="M236 252q6 143 88 323q66 129 94 173q66 23 76 -41q25 -39 -56 -191q-123 -291 -55 -317q23 -14 64.5 2t104 88.5t102.5 169t46 170.5q-10 51 35 78q8 12 21.5 19t19.5 -1l33 2q6 0 12 -12.5t13 -16.5q47 -39 -46 -252q-66 -137 -66.5 -212.5t58.5 -127.5q31 -20 27 -75 q-8 -29 -45 -38t-68 11q-49 47 -73 139q-5 12 -5 47v39q-12 -31 -45 -55q-47 -47 -94 -70q-72 -45 -112.5 -47t-81.5 45q-68 55 -47 150zM475 954.5q4 18.5 18.5 37t83 77.5t107.5 80q39 33 64 -4q33 -27 91 -86.5t76.5 -84t-8.5 -61.5q-29 -41 -84 27q-41 49 -110 109 q-35 -20 -101.5 -78t-85 -64t-30 0t-18.5 17.5t-3 30z" />
<glyph unicode="&#xfc;" horiz-adv-x="757" d="M236 252q6 143 88 323q66 129 94 173q66 23 76 -41q25 -39 -56 -191q-123 -291 -55 -317q23 -14 64.5 2t104 88.5t102.5 169t46 170.5q-10 51 35 78q8 12 21.5 19t19.5 -1l33 2q6 0 12 -12.5t13 -16.5q47 -39 -46 -252q-66 -137 -66.5 -212.5t58.5 -127.5q31 -20 27 -75 q-8 -29 -45 -38t-68 11q-49 47 -73 139q-5 12 -5 47v39q-12 -31 -45 -55q-47 -47 -94 -70q-72 -45 -112.5 -47t-81.5 45q-68 55 -47 150zM528 987q18 63 41 82l13 12q33 33 58.5 19.5t35.5 -45.5q16 -31 12 -50.5t-33 -56.5q-70 -94 -120 8q-10 20 -7 31zM791 987 q18 63 40 82l13 12q33 33 58.5 19.5t35.5 -45.5q16 -31 12 -50.5t-32 -56.5q-70 -94 -121 8q-10 20 -6 31z" />
<glyph unicode="&#xfd;" horiz-adv-x="698" d="M-98 -317q-4 20 17.5 38.5t35.5 -0.5q164 -111 324 109q104 172 149 256q-41 12 -78 71.5t-31 86.5v22q-23 0 -34 107.5t-5.5 164t13.5 191.5q-2 45 22 62q74 31 86 -76q6 -55 0 -156q-20 -319 72 -387q41 96 58.5 130t19.5 45t10 26.5t41 81.5q53 154 65.5 175 t19.5 36.5t11 23.5t10.5 19.5t10.5 17.5t10 12q8 10 19 15q18 14 25 14t30 -12q37 -41 32.5 -76t-49.5 -121q-37 -109 -65 -141q-68 -156 -122 -264.5t-79 -171.5q-131 -209 -184 -273q-113 -100 -180.5 -119.5t-155.5 11t-98 82.5zM599 992.5q3 15.5 87 105.5t113 100 q35 20 84 -57q8 -20 -29 -57t-91 -81.5t-71 -66.5q-20 -35 -31.5 -39t-35.5 12q-14 12 -21.5 40t-4.5 43.5z" />
<glyph unicode="&#xfe;" horiz-adv-x="774" d="M82 -338q23 86 22 119l11 65q23 37 22 97q0 25 25 45l14 73q10 55 80 263q78 233 123 344v2q35 74 118 317.5t83 272t32 28.5q10 10 33 10l33 -32q23 -20 22 -76q-10 -27 -56 -163t-89 -251l-43 -137q164 66 251 15.5t87 -173.5q0 -37 -21.5 -89t-42.5 -70q-12 0 -32 -43 q-27 -33 -88.5 -69t-85.5 -28q-10 0 -11 -12q0 -14 -76.5 -33.5t-113.5 -19.5t-55 16q-14 -14 -14.5 -31.5t-21 -77t-32.5 -59.5q-12 -10 0 -22q0 -43 -12 -64q0 -53 -21 -98q0 -25 -7 -48.5t-15 -23.5q-12 -4 -13.5 -57t-19.5 -82t-43 -29q-2 0 -9 -1t-12 1q-45 10 -22 121 zM373 225q31 0 124 32t141 73t72 96.5t-5 116.5q-29 39 -107 12q-137 -47 -201 -186q-61 -129 -24 -144z" />
<glyph unicode="&#xff;" horiz-adv-x="698" d="M-98 -317q-4 20 17.5 38.5t35.5 -0.5q164 -111 324 109q104 172 149 256q-41 12 -78 71.5t-31 86.5v22q-23 0 -34 107.5t-5.5 164t13.5 191.5q-2 45 22 62q74 31 86 -76q6 -55 0 -156q-20 -319 72 -387q41 96 58.5 130t19.5 45t10 26.5t41 81.5q53 154 65.5 175 t19.5 36.5t11 23.5t10.5 19.5t10.5 17.5t10 12q8 10 19 15q18 14 25 14t30 -12q37 -41 32.5 -76t-49.5 -121q-37 -109 -65 -141q-68 -156 -122 -264.5t-79 -171.5q-131 -209 -184 -273q-113 -100 -180.5 -119.5t-155.5 11t-98 82.5zM424 987q18 63 41 82l12 12 q33 33 58.5 19.5t35.5 -45.5q16 -31 12.5 -50.5t-32.5 -56.5q-70 -94 -121 8q-10 20 -6 31zM686 987q18 63 41 82l12 12q33 33 58.5 19.5t36.5 -45.5q16 -31 12 -50.5t-33 -56.5q-70 -94 -121 8q-10 20 -6 31z" />
<glyph unicode="&#x152;" horiz-adv-x="1605" d="M180 184q14 18 8 47q-14 43 37 202t136 346.5t237 374.5t242 226q41 6 53 6l108 -18q82 -12 187 -160l6 -12l16 21q-8 16 47 38q104 41 195 48q18 12 100 15t154 -3q47 0 125 -37q16 -16 24 -61q0 -14 -120.5 -14.5t-206.5 -12.5t-92 -12l-72 -13q-8 0 -71.5 -105.5 t-65.5 -119.5q0 -25 -51.5 -95.5t-18.5 -84.5q184 29 289 28q51 14 90 -8q23 -4 35 -14q27 -25 -6 -39q-27 -27 -239 -76t-239 -43q-8 20 -12 11t-16 -44.5t-35 -87.5q-61 -137 -92 -307q-20 -53 -8 -89t73 -64q113 -20 267 18q29 16 68.5 35.5t43.5 21.5l62 11q16 23 41 22 q6 0 34.5 -32.5t26.5 -41.5q0 -18 -33.5 -35.5t-87 -39t-93.5 -38t-64 -26.5q-53 -20 -141.5 -20t-149 11t-107.5 48q-33 23 -47 49q-23 -10 -43 -24q-133 -82 -237 -84q-59 -18 -141.5 11.5t-145.5 84.5q-18 31 -47 103.5t-23 82.5zM315 139q4 -25 23.5 -61.5t39 -56 t62.5 -13.5q35 -6 117 13.5t102 35.5q37 14 62 15q6 4 70 32q-2 74 30 203q23 129 47 129q27 141 40.5 153.5t29.5 61.5q0 23 12 51q31 51 31 68l14 23l68 122q0 27 14 62q31 88 -22.5 189.5t-147.5 84.5q-43 -8 -76.5 -38.5t-111.5 -129.5q-209 -256 -295 -475 q-88 -250 -107 -407q10 -61 -2 -62z" />
<glyph unicode="&#x153;" horiz-adv-x="1107" d="M183 258q5 8 7 14q12 4 8.5 22.5t6.5 76t21.5 85t29.5 60.5t33 57q43 72 73 95q35 49 68 73q94 68 152 66q20 -2 49 -23q92 -33 112 -122l9 -35q82 109 176 145q29 18 53.5 20.5t65.5 -4.5q76 -8 108 -49q53 -51 53 -118q-6 -49 -60 -113t-132 -105q-113 -39 -187 11 q-37 14 -50 -6.5t-21 -102.5q-14 -141 69 -155q34 -9 54 -9h20q20 0 38.5 11.5t27 15.5t12.5 7t9 5t6 3t4 3t4.5 2t4.5 4.5t5 5.5t8 8t20.5 23.5t25.5 16.5t23.5 -10.5t16.5 -10.5q33 0 -9 -55t-102 -92q-66 -57 -155.5 -45t-143.5 86q-39 47 -51 125q-25 -41 -69 -83 t-54 -52q-100 -72 -149 -78t-90 22q-92 82 -82 148q0 20 -13 45q-10 4 -5 12zM317 289q-33 -113 21.5 -148t146.5 72q109 125 144 297q10 41 2 96.5t-25 57.5q-59 33 -135 -48q-76 -88 -154 -327zM827 514q8 -16 65.5 -17t92.5 14t70 52t35 64.5t-29 45t-68 6.5t-79 -49 t-66.5 -74t-20.5 -42z" />
<glyph unicode="&#x178;" horiz-adv-x="1032" d="M448.5 -58q4.5 19 6.5 29q6 29 22 82q4 123 62 228q0 63 63 215l33 98q-115 152 -133 289q-31 104 -19 331q0 86 35 150q6 12 6 14q33 41 60 -30q18 -53 16 -129q12 -449 102 -506q31 -8 54 8q68 49 232.5 242.5t225 260.5t89.5 83q14 23 43 26q12 -4 19 -29.5t15.5 -41 t6 -29.5t-45.5 -57q-45 -39 -143 -141.5t-156 -174.5q-186 -215 -247 -270l-43 -43q-10 -37 -35 -144q-12 -41 -35 -114q-31 -106 -53.5 -178t-40 -143.5t-27.5 -92t-25.5 -16.5t-68.5 41q-23 23 -18.5 42zM778 1602q18 63 41 81l12 13q33 33 58.5 19.5t36.5 -46.5 q16 -31 12 -50.5t-33 -55.5q-70 -94 -121 8q-10 20 -6 31zM1040 1602q18 63 41 81l13 13q33 33 58.5 19.5t35.5 -46.5q16 -31 12 -50.5t-33 -55.5q-70 -94 -120 8q-10 20 -7 31z" />
<glyph unicode="&#x2c6;" horiz-adv-x="722" d="M457 954.5q4 18.5 18 37t83 77.5t108 80q39 33 63 -4q33 -27 91.5 -86.5t76.5 -84t-8 -61.5q-29 -41 -84 27q-41 49 -111 109q-35 -20 -101.5 -78t-85 -64t-29.5 0t-18 17.5t-3 30z" />
<glyph unicode="&#x2dc;" horiz-adv-x="722" d="M395 957.5q2 19.5 35 64.5t94 76q27 10 70 -1.5t64.5 -29.5t39 -35.5t23.5 -22.5t19.5 -14.5t21.5 -11.5q33 -4 97.5 33t88 46t40 -9.5t14 -33.5t-17 -36t-30.5 -29q-135 -76 -155.5 -75.5t-32.5 2.5t-19.5 4t-21.5 10t-18.5 10t-22.5 15.5t-21.5 15.5t-44 37t-62 35 t-47.5 -35t-46 -37q-4 -27 -14.5 -32t-12.5 1q-18 6 -30.5 19.5t-10.5 33z" />
<glyph unicode="&#x2000;" horiz-adv-x="884" />
<glyph unicode="&#x2001;" horiz-adv-x="1769" />
<glyph unicode="&#x2002;" horiz-adv-x="884" />
<glyph unicode="&#x2003;" horiz-adv-x="1769" />
<glyph unicode="&#x2004;" horiz-adv-x="589" />
<glyph unicode="&#x2005;" horiz-adv-x="442" />
<glyph unicode="&#x2006;" horiz-adv-x="294" />
<glyph unicode="&#x2007;" horiz-adv-x="294" />
<glyph unicode="&#x2008;" horiz-adv-x="221" />
<glyph unicode="&#x2009;" horiz-adv-x="353" />
<glyph unicode="&#x200a;" horiz-adv-x="98" />
<glyph unicode="&#x2010;" horiz-adv-x="667" d="M227 442q21 15 97 23q129 29 226 29t115.5 -5.5t41.5 -25.5q33 -31 22.5 -58.5t-55.5 -19.5q-258 -20 -304 -20t-77 10q-43 0 -60 28q-23 31 -6 39z" />
<glyph unicode="&#x2011;" horiz-adv-x="667" d="M227 442q21 15 97 23q129 29 226 29t115.5 -5.5t41.5 -25.5q33 -31 22.5 -58.5t-55.5 -19.5q-258 -20 -304 -20t-77 10q-43 0 -60 28q-23 31 -6 39z" />
<glyph unicode="&#x2012;" horiz-adv-x="667" d="M227 442q21 15 97 23q129 29 226 29t115.5 -5.5t41.5 -25.5q33 -31 22.5 -58.5t-55.5 -19.5q-258 -20 -304 -20t-77 10q-43 0 -60 28q-23 31 -6 39z" />
<glyph unicode="&#x2013;" horiz-adv-x="913" d="M227 442q20 14 97 23q129 29 516 29q53 0 71.5 -5.5t40.5 -25.5q33 -31 23 -58.5t-55 -19.5q-258 -20 -555 -20q-41 0 -72 10q-43 0 -60 28q-23 31 -6 39z" />
<glyph unicode="&#x2014;" horiz-adv-x="1159" d="M227 442q47 31 378 41.5t432.5 10.5t120 -5.5t40.5 -25.5q33 -31 22.5 -58.5t-55.5 -19.5l-129 -10q-154 -10 -671 -10q-41 0 -72 10q-43 0 -60 28q-23 31 -6 39z" />
<glyph unicode="&#x2018;" horiz-adv-x="239" d="M362 1028q8 55 27 105.5t23 62.5q18 66 104 164q0 8 19.5 12t29.5 8q29 2 47 -14q4 -18 -47 -99t-71 -139q0 -8 -2 -14q35 6 71 -24q74 -72 -41 -150q-37 -23 -54 -25t-54 15q-70 45 -52 98z" />
<glyph unicode="&#x2019;" horiz-adv-x="239" d="M393 926q-4 18 47.5 99t71.5 138q0 8 2 15q-35 -6 -72 24q-74 72 41 150q37 23 54.5 24.5t54.5 -14.5q70 -45 51 -98q-8 -55 -26.5 -105.5t-22.5 -62.5q-18 -66 -105 -164q0 -8 -19 -12.5t-30 -8.5q-29 -2 -47 15z" />
<glyph unicode="&#x201a;" horiz-adv-x="239" d="M37 -195q-4 18 47 99.5t72 138.5q0 8 2 14q-35 -6 -72 25q-74 71 41 149q37 23 54.5 25t54.5 -14q70 -45 51 -99q-8 -55 -26.5 -105t-22.5 -63q-18 -66 -105 -163q0 -8 -19.5 -12.5t-29.5 -8.5q-29 -2 -47 14z" />
<glyph unicode="&#x201c;" horiz-adv-x="546" d="M381 1028q8 55 26.5 105.5t22.5 62.5q18 66 105 164q0 8 19 12t30 8q29 2 47 -14q4 -18 -47.5 -99t-71.5 -139q0 -8 -2 -14q35 6 72 -24q74 -72 -41 -150q-37 -23 -54.5 -25t-54.5 15q-70 45 -51 98zM688 1028q8 55 26.5 105.5t22.5 62.5q18 66 105 164q0 8 19.5 12 t29.5 8q29 2 47 -14q4 -18 -47 -99t-72 -139q0 -8 -2 -14q35 6 72 -24q74 -72 -41 -150q-37 -23 -54.5 -25t-54.5 15q-70 45 -51 98z" />
<glyph unicode="&#x201d;" horiz-adv-x="546" d="M403 932q-4 18 47.5 99t71.5 138q0 8 2 15q-35 -6 -71 24q-74 72 41 150q37 23 54 24.5t54 -14.5q70 -45 51 -98q-8 -55 -26.5 -105.5t-22.5 -62.5q-18 -66 -104 -164q0 -8 -19.5 -12t-29.5 -8q-29 -2 -48 14zM711 932q-4 18 47 99t71 138q0 8 2 15q-35 -6 -71 24 q-74 72 41 150q37 23 54 24.5t54 -14.5q70 -45 52 -98q-8 -55 -27 -105.5t-23 -62.5q-18 -66 -104 -164q0 -8 -19.5 -12t-29.5 -8q-29 -2 -47 14z" />
<glyph unicode="&#x201e;" horiz-adv-x="546" d="M57 -195q-4 18 47.5 99.5t71.5 138.5q0 8 2 14q-35 -6 -72 25q-74 71 41 149q37 23 54.5 25t54.5 -14q70 -45 51 -99q-8 -55 -26.5 -105t-22.5 -63q-18 -66 -104 -163q0 -8 -19.5 -12.5t-30.5 -8.5q-29 -2 -47 14zM365 -195q-4 18 47 99.5t71 138.5q0 8 2 14 q-35 -6 -71 25q-74 71 41 149q37 23 54 25t54 -14q70 -45 51 -99q-8 -55 -26.5 -105t-22.5 -63q-18 -66 -104 -163q0 -8 -19.5 -12.5t-29.5 -8.5q-29 -2 -47 14z" />
<glyph unicode="&#x2022;" horiz-adv-x="382" d="M302 537.5q-1 46.5 7 70t34.5 67.5t55.5 64q29 14 75 3t67 -40q25 -117 -64 -213q-53 -68 -160 -10q-14 12 -15 58.5z" />
<glyph unicode="&#x2026;" horiz-adv-x="1216" d="M193 117q-75 71 40 149q37 23 54.5 25t54.5 -15q61 -39 54 -86t-83 -84q-70 -29 -120 11zM598 117q-74 71 41 149q37 23 54.5 25t54.5 -15q61 -39 54 -86t-83 -84q-70 -29 -121 11zM1004 117q-75 71 40 149q37 23 54.5 25t54.5 -15q61 -39 54 -86t-83 -84 q-70 -29 -120 11z" />
<glyph unicode="&#x202f;" horiz-adv-x="353" />
<glyph unicode="&#x2039;" horiz-adv-x="913" d="M252 485q16 4 63 43q43 53 226 209q70 51 151 133q41 45 53 45q16 6 32 -4t32 -14q37 -9 39 -23q-6 -29 -23.5 -44t-54.5 -44q-74 -57 -207 -174q-119 -109 -136 -138.5t-13 -53.5q23 -53 101.5 -130t207.5 -149q113 -55 131 -104q8 -25 -23 -33q-80 -8 -159 29 q-43 25 -61.5 33t-35 17t-24.5 15t-19 15q-20 14 -36 34q-111 63 -181 191l-49 86z" />
<glyph unicode="&#x203a;" horiz-adv-x="913" d="M373 879q-8 25 22 32q80 8 160 -28q43 -25 61.5 -33t35 -17.5t24.5 -15.5t18 -14q20 -14 37 -35q111 -63 180 -190l50 -86l14 -62q-16 -4 -64 -43q-43 -53 -225 -209q-70 -51 -151 -133q-41 -45 -54 -45q-16 -6 -31.5 4t-31.5 14q-37 9 -39 23q6 29 23.5 44t54.5 42 q74 59 207 176q119 109 136 138.5t13 54.5q-23 53 -101.5 129.5t-207.5 148.5q-113 55 -131 105z" />
<glyph unicode="&#x205f;" horiz-adv-x="442" />
<glyph unicode="&#x20ac;" d="M78 459q31 20 182 30q23 59 76 183h-23q-41 0 -71 10q-43 0 -60 29q-23 31 -6 39q37 25 213 32q74 150 231.5 319t247.5 206q41 14 99 6q111 -14 184 -107q29 -53 39 -133q12 -96 -14 -143q-4 -8 -5.5 -11.5t-4.5 -8.5t-4 -7t-4 -5l-5 -5q-14 -6 -27 -6q-25 -10 -98 45 q2 33 12 63q29 74 14.5 138.5t-61.5 76.5q-47 2 -120.5 -46t-166 -151.5t-171.5 -228.5q184 -4 235 -4t69.5 -5t41.5 -25q33 -31 22.5 -58.5t-55.5 -19.5l-129 -10q-25 -2 -250 6q-39 -86 -70 -174l271 -5q53 0 71.5 -5t40.5 -25q33 -31 23 -58.5t-55 -19.5q-8 0 -157 6 t-173.5 3t-52.5 -3q-25 -96 -31 -154q10 -57 -2 -57q4 -23 22.5 -55.5t38 -51t62.5 -12.5q35 -4 114.5 13.5t100.5 31.5q35 12 59 13q8 4 50 23.5t61 31.5q131 51 166 41q-8 -10 -19 -37q-14 -18 -64.5 -59t-69.5 -43t-71 -35q-131 -74 -233 -76q-59 -16 -139 10.5 t-144 77.5q-18 27 -45.5 93.5t-21.5 74.5q14 20 5 46t17 118h-8q-41 0 -72 10q-43 0 -59 29q-23 31 -6 39z" />
<glyph unicode="&#x2122;" horiz-adv-x="1351" d="M358 1311q6 33 64 37l72 14l186 20l80 4q74 0 112 -16q57 -12 68 -53q2 -18 -18 -31q-57 -16 -93 -2q-16 16 -81 23q-25 -4 -46 -4q-45 -139 -51 -148q4 -10 -43 -137l-78 -225q-35 -66 -49 -140q-20 -80 -30.5 -88t-25.5 -4t-31.5 21.5t-14.5 29.5q0 61 49 191l14 53 q18 31 27.5 77t77.5 251q14 23 20 49q11 4 11 24q8 8 8 15l12 22h-2q-51 -10 -91 -10t-67 -8q-86 -4 -80 35zM702 596q-6 16 27 90t49 88h-2q8 10 15 41q12 8 57 90q86 168 90 172h-2q121 201 127 209q20 20 20 43t15.5 45.5t44 22.5t48 -31t11.5 -82q0 -47 -6 -73.5 t-6 -34.5q-33 -100 -60.5 -246t-23.5 -187q0 10 61 93v-2q166 276 256 442l31 51q41 63 66 86q35 25 67.5 -3t33.5 -97.5t-44 -229.5q-26 -109 -49 -172q-20 -111 -17 -131q-18 -29 -18 -127q-8 -86 -31 -92q-2 -10 -14 -12q-31 -8 -53 26q-10 29 -11 82v19q6 39 14.5 74.5 t22.5 117.5q23 113 82 361q-14 -14 -151 -275l-9 -6l-16 -41l-10 -16v2q-33 -57 -70 -109q0 -4 -26 -43q-113 -172 -189 -96q-35 37 -35 91.5t9 109.5q20 113 30.5 172t12.5 67l-5 -6h3q-51 -84 -99 -188l-151 -285q-18 -37 -29 -47q-37 0 -66 37z" />
<glyph unicode="&#x25fc;" horiz-adv-x="727" d="M0 0v727h727v-727h-727z" />
</font>
</defs>
</svg>
