<?xml version="1.0" standalone="no"?>
<!DOCTYPE svg PUBLIC "-//W3C//DTD SVG 1.1//EN" "http://www.w3.org/Graphics/SVG/1.1/DTD/svg11.dtd" >
<svg xmlns="http://www.w3.org/2000/svg">
<metadata></metadata>
<defs>
<font id="pendlefont-heavyregular" horiz-adv-x="968" >
<font-face units-per-em="2048" ascent="1638" descent="-410" />
<missing-glyph horiz-adv-x="694" />
<glyph horiz-adv-x="0" />
<glyph horiz-adv-x="682" />
<glyph unicode=" "  horiz-adv-x="694" />
<glyph unicode="&#x09;" horiz-adv-x="694" />
<glyph unicode="&#xa0;" horiz-adv-x="694" />
<glyph unicode="!" horiz-adv-x="735" d="M59 86v104q117 170 150 170q20 0 20 -20l43 20q226 -56 277 -104h43v-129q0 -18 -127 -127zM82 657v66q0 20 20 20q-20 39 -20 64q0 850 190 850q148 -43 170 -43h107q106 -256 106 -617v-211q0 -106 -149 -213z" />
<glyph unicode="&#x22;" horiz-adv-x="735" d="M59 1233q34 233 107 233q190 0 190 -149v-127l-61 -84q-236 21 -236 127zM379 1210v127l20 107h66q190 0 190 -191v-43q0 -29 -63 -63h-43q-158 0 -170 63z" />
<glyph unicode="#" horiz-adv-x="1265" d="M59 723v20q0 49 193 107v43l-107 20v23l170 104q65 234 127 234h23l104 -21v-127l-20 -106h20q234 0 234 170l86 84l106 -21v-43q0 -54 -43 -190h107q43 -6 43 -43q0 -49 -193 -64v-43q277 0 277 -63v-21q-32 0 -84 -43h-256q-27 0 -150 -317l-61 -43h-43q-107 0 -107 43 q0 70 64 274h-84q-21 0 -129 -233h-84q-112 0 -127 63l61 170z" />
<glyph unicode="$" horiz-adv-x="1456" d="M59 403q53 127 127 127l236 -63v276q0 30 -256 107q-84 90 -84 170q0 238 340 446v41q0 363 84 363h43q147 0 147 -256q23 -122 23 -127h43q21 247 84 319q190 0 190 -276q0 -94 236 -170l61 -86v-41q0 -32 -61 -66h-23l-170 86v-20q0 -426 127 -426q126 0 170 -277 q0 -155 -274 -297v-20q41 -314 41 -340v-43l-64 -86q-317 0 -317 236v170h-23v-300q0 -30 -84 -83q-213 21 -213 83v363q-383 64 -383 190zM719 403h43l20 213l-20 107h-43v-320zM719 913h43v361h-43v-361z" />
<glyph unicode="%" horiz-adv-x="1923" d="M59 1190v20q83 277 320 277q0 54 86 63q381 -56 381 -147v-129q-47 -318 -254 -318h-43q-490 38 -490 234zM356 190v23q349 779 916 1337h147q43 -6 43 -43v-41q-34 -139 -659 -1296q-64 0 -64 -64h-20q-363 27 -363 84zM422 1190h43v170q-43 -6 -43 -43v-127zM1059 360 v107q0 235 360 299q301 0 424 -170v-66q0 -244 -297 -360h-20q-467 89 -467 190z" />
<glyph unicode="&#x26;" horiz-adv-x="1583" d="M59 616q0 161 170 361q-84 141 -84 319v41q0 396 574 469h127q467 -65 467 -170q86 -59 86 -233q0 -221 -680 -406v-20q194 -234 213 -234q256 277 274 277q297 -21 297 -84v-23q0 -125 -254 -403q213 -189 213 -277l-63 -43q-45 0 -383 129q-217 -169 -424 -169 q-510 46 -510 317q-23 30 -23 149zM485 553q0 -158 64 -170l170 147q-19 0 -234 170v-147zM592 1233h20q340 58 340 211q-52 149 -127 149q-233 0 -233 -233v-127z" />
<glyph unicode="'" horiz-adv-x="415" d="M59 1274v149q0 29 66 64h41q170 0 170 -127v-43q0 -127 -127 -127q-150 27 -150 84z" />
<glyph unicode="(" horiz-adv-x="905" d="M59 786q0 703 467 934q170 -15 170 -43q-231 -366 -231 -721v-43q0 -355 360 -680v-43q-63 -51 -63 -84q-215 0 -447 170q-201 195 -256 510z" />
<glyph unicode=")" horiz-adv-x="905" d="M59 233v43q363 304 363 381q43 82 43 236v43q0 331 -256 614v43l63 43q310 0 531 -446q22 -119 22 -193v-147q0 -443 -530 -660q-57 0 -236 43z" />
<glyph unicode="*" horiz-adv-x="1286" d="M59 913q0 100 256 127q-106 138 -106 193l63 41q111 0 320 -84q76 147 190 147q39 -20 64 -20v-64l-21 -106q381 -49 381 -84q0 -127 -381 -127v-23q127 -171 127 -256q0 -27 -63 -61h-23q-156 0 -297 147q-15 -71 -127 -127h-63q-43 0 -43 41v43q20 87 20 150 q-297 27 -297 63z" />
<glyph unicode="+" horiz-adv-x="841" d="M59 700q104 66 150 66h106v127q41 84 64 84q213 0 213 -107v-127h63l107 -20v-43q0 -64 -150 -64v-213q0 -29 -63 -63h-84q-170 0 -170 276q-236 15 -236 84z" />
<glyph unicode="," horiz-adv-x="479" d="M59 86q0 102 170 340q164 -23 170 -23v-63q-34 -340 -233 -340h-21q-33 0 -86 86z" />
<glyph unicode="-" horiz-adv-x="798" d="M59 680q0 127 426 127q234 -15 234 -64v-20q-154 -86 -320 -86h-43q-140 0 -297 43z" />
<glyph unicode="." horiz-adv-x="501" d="M59 256v84q52 91 107 106l256 -63q0 -193 -170 -193q-193 15 -193 66z" />
<glyph unicode="/" d="M59 360q264 565 553 1043q120 147 170 147l107 -20q0 -133 -447 -1147q-86 -65 -86 -107q-297 43 -297 84z" />
<glyph unicode="0" horiz-adv-x="1562" d="M59 893v190q0 376 533 594q30 23 147 23h150q594 -209 594 -723v-21q-67 -616 -594 -616h-107q-657 82 -657 276q-54 42 -66 277zM399 997q0 -435 297 -487h43q383 46 383 340v106q0 405 -319 574h-21q-383 0 -383 -533z" />
<glyph unicode="1" horiz-adv-x="1202" d="M59 1337q170 323 340 363h150q43 -6 43 -43q21 -758 63 -1020h107q111 0 360 -21v-86q-190 -118 -487 -127q-209 19 -553 107v43q0 29 63 63h41l150 -20l-21 211v467h-86q-155 0 -170 63z" />
<glyph unicode="2" horiz-adv-x="1286" d="M59 1317v86q108 360 510 360q447 -21 447 -256v-20q0 -383 -447 -830h23q123 0 274 23q340 -49 340 -84v-43q-137 -107 -403 -107h-148q-469 58 -469 170q74 128 299 361q170 311 170 530q-20 39 -20 66q-287 0 -340 -320v-20h-86q-115 0 -150 84z" />
<glyph unicode="3" horiz-adv-x="1159" d="M59 510v20q0 54 86 66l340 -107q254 64 254 254v43q0 41 -43 41q-77 -41 -170 -41h-41q-138 0 -299 41v23q0 70 406 147l43 150v127q0 66 -66 233q-317 -105 -317 -254h-127q-54 0 -66 84q188 299 426 299q424 0 424 -340v-129q0 -54 -43 -190q192 0 213 -234 q-144 -424 -510 -424q-510 83 -510 191z" />
<glyph unicode="4" horiz-adv-x="1202" d="M59 1083v277q27 213 86 213q43 0 150 -43l-23 -43q84 -429 84 -447h109q41 0 41 43v170q0 109 -21 320l64 41q190 0 190 -191q52 -383 127 -383q113 0 256 -20v-23q-55 -104 -170 -104h-127v-43q0 -122 21 -340q-42 -98 -84 -107h-43q-193 0 -193 193q-20 249 -20 274 h-41q-406 0 -406 213z" />
<glyph unicode="5" horiz-adv-x="1075" d="M59 637q43 52 43 86q153 0 363 -66q231 95 231 279v20l-20 107l-211 -43q-363 52 -363 190l-20 256q0 191 594 191q190 -12 190 -64v-20q-424 -82 -424 -129v-21l23 -213h41q489 0 489 -233q-126 -510 -489 -510q-447 83 -447 170z" />
<glyph unicode="6" horiz-adv-x="1095" d="M59 786v21q0 563 447 807q117 -21 170 -21v-63q-182 0 -277 -533v-41h23q107 64 213 64q381 0 381 -234q0 -289 -447 -360q-510 44 -510 360zM422 723q12 -127 63 -127h64q190 0 190 170v61q0 43 -43 43q-29 0 -274 -127v-20z" />
<glyph unicode="7" horiz-adv-x="1202" d="M59 1423v64q433 86 637 86q426 0 426 -213q0 -57 -426 -764q0 -64 -127 -170q-297 40 -297 127q0 101 553 807v43q0 41 -43 41q-371 -41 -596 -41h-20z" />
<glyph unicode="8" horiz-adv-x="1181" d="M59 766v41q0 335 236 446q-129 95 -129 191v43q0 228 319 319q424 -49 424 -256v-84l-106 -149q258 0 299 -320v-127q0 -164 -363 -360h-147q-533 47 -533 256zM422 870q0 -137 84 -190q205 64 256 170q0 302 -150 360q-190 -70 -190 -233v-107zM465 1403q112 0 147 84 v43q0 112 -63 127h-64l-20 -150v-104z" />
<glyph unicode="9" horiz-adv-x="1159" d="M59 1167v43q0 262 533 426q233 0 233 -129h107q52 0 147 -870v-148q-84 -104 -84 -129q-276 0 -276 170q-29 212 -84 406q-48 -23 -66 -23q-510 47 -510 254zM356 1167q0 -27 109 -104q190 0 190 424q41 0 41 43h-41q-299 -167 -299 -340v-23z" />
<glyph unicode=":" horiz-adv-x="522" d="M59 850q56 135 107 147h43q141 0 213 -84q-53 -127 -127 -127q-236 0 -236 64zM102 489q42 98 84 107q256 -15 256 -66v-84q0 -33 -86 -86q-254 0 -254 129z" />
<glyph unicode=";" horiz-adv-x="501" d="M59 340q88 301 170 340q193 0 193 -84q0 -164 -193 -320h-104q-32 0 -66 64zM82 936v20q0 28 104 107h43q38 0 170 -66q0 -72 -84 -147q-233 37 -233 86z" />
<glyph unicode="&#x3c;" horiz-adv-x="1372" d="M59 997q369 518 936 746l107 -23v-20q0 -37 -617 -617l-43 -63q385 -191 850 -297v-86q-24 0 -106 -64q-658 127 -1084 363z" />
<glyph unicode="=" horiz-adv-x="1011" d="M59 870v86q172 41 363 41h213l211 -20v-21q0 -79 -701 -106q-36 20 -86 20zM102 596v41q0 86 660 86q164 -23 170 -23v-43q-263 -84 -703 -84z" />
<glyph unicode="&#x3e;" horiz-adv-x="1329" d="M59 1530v84h66q927 -214 1124 -404v-63q-280 -311 -680 -637l-317 63v23q58 88 530 424l170 170q-265 146 -723 254q0 21 -170 86z" />
<glyph unicode="?" horiz-adv-x="1329" d="M59 1253v84q0 220 340 383h107q547 0 743 -383v-147q0 -242 -424 -447q41 -90 41 -127q-9 -63 -104 -149v-21q-341 0 -467 191v63q0 23 20 23l-20 43q111 181 401 297l43 63v107q0 128 -147 233q-103 -51 -236 -383l-61 -43q-236 0 -236 213zM315 20v107q101 149 127 149 h64q256 -50 256 -63l41 20q33 0 86 -83q0 -106 -170 -256q-64 21 -64 43q-20 0 -20 -23q-320 59 -320 106z" />
<glyph unicode="@" horiz-adv-x="1245" d="M59 936q0 360 467 530h86q490 -44 490 -233q63 -108 63 -213v-84q-58 -340 -233 -340q-472 84 -533 84v-23q83 -124 127 -127q256 23 406 23h63v-43q-86 -127 -360 -127h-23q-553 0 -553 553zM336 997q164 129 276 129q191 -43 277 -43q-61 254 -213 254h-21 q-211 0 -319 -317v-23zM526 807q109 56 109 170h-23q-86 -35 -86 -150v-20z" />
<glyph unicode="A" horiz-adv-x="1691" d="M59 446q126 975 297 1211q187 190 279 190l231 -63q42 22 66 22q484 -502 680 -1466l-109 -150q-424 0 -424 256q0 30 -106 361l-107 -21h-41q-138 0 -299 41q0 -173 -170 -487h-20q-243 0 -277 106zM569 1040q23 0 23 -20q297 43 297 63q-193 331 -193 361h-20z" />
<glyph unicode="B" horiz-adv-x="1478" d="M59 1083q21 197 86 404q-20 36 -20 86q176 170 424 170h20q680 -50 680 -340q0 -149 -127 -297q277 -151 277 -426v-23q0 -406 -680 -594q-553 114 -553 193q-84 0 -84 63q0 151 20 361zM422 1106q360 62 360 274q0 47 -147 170q-213 -21 -213 -63v-381zM506 340 q22 0 63 -21q340 108 340 297q-45 176 -106 254q-144 -63 -211 -63q-36 20 -86 20l20 -211v-63z" />
<glyph unicode="C" horiz-adv-x="1712" d="M59 786v64q105 850 744 850h22q409 0 551 -213v-43q0 -41 -43 -41q-65 0 -338 104q-403 0 -403 -637q58 -340 274 -340h23q386 86 467 86q145 -43 256 -43h20v-20q0 -229 -530 -320h-66q-954 111 -954 467q-23 0 -23 86z" />
<glyph unicode="D" horiz-adv-x="1712" d="M59 1657q30 86 170 86q1274 -111 1274 -363q77 0 129 -424q0 -315 -319 -637q0 -101 -764 -192l-277 63v23l23 43q-129 0 -129 41q0 91 -41 809q0 221 104 508q-37 0 -170 43zM485 1550q150 -838 150 -1147v-63q508 71 508 340q63 117 63 276q-52 510 -297 510 q0 20 -424 84z" />
<glyph unicode="E" horiz-adv-x="1521" d="M59 360v680q64 574 277 574q0 40 213 43h383q274 0 274 -64q-21 -63 -127 -63h-43q-350 0 -530 -64q-21 -249 -21 -360v-66h21q180 0 573 -63h43v-64q-89 -127 -190 -127h-363l-43 21q0 -21 -20 -21q21 -451 63 -530q172 41 256 41q79 0 617 -84v-63l-129 -130l-211 23 h-23q-215 0 -424 -43q-596 59 -596 360z" />
<glyph unicode="F" horiz-adv-x="1562" d="M59 1126v107q37 297 256 297q120 42 531 63q67 0 637 -106v-64q0 -22 -150 -127q-158 41 -381 41q-99 0 -383 -20q23 -324 23 -381h20q204 61 340 61h84q208 -41 236 -41h104v-63q-74 -170 -657 -170l-107 20q62 -250 84 -637q-76 -85 -231 -106q-363 46 -363 213v233 q-43 620 -43 680z" />
<glyph unicode="G" horiz-adv-x="1712" d="M59 786v84q0 264 426 617q214 65 381 86q254 -44 363 -86v-21q0 -29 -64 -63q-20 0 -129 20q-551 -123 -551 -530v-23q0 -475 340 -551h84q194 0 277 170v148q0 106 -43 106q-101 0 -148 -127l-43 -20q-256 0 -256 147v107q0 127 363 127q573 -43 573 -277v-147 q-160 -447 -573 -447h-107q-736 58 -850 424q-43 145 -43 256z" />
<glyph unicode="H" horiz-adv-x="1648" d="M59 256v467q53 977 150 977h20q193 0 193 -510v-213h20q549 63 744 63v170q0 383 86 383q254 0 254 -213q43 0 43 -274q0 -17 -23 -916l-84 -63q-319 0 -319 129v104q0 127 22 426q-201 -20 -319 -20h-361l-43 20l43 -553q-27 -98 -106 -147q-320 0 -320 170z" />
<glyph unicode="I" horiz-adv-x="1605" d="M59 297q0 106 447 106v86q0 27 -41 508v23q0 137 84 487h-127q-123 0 -320 43v23q120 170 637 170h150q403 -27 403 -86q-55 -107 -170 -107h-213q0 -205 86 -1104h148q383 0 383 -63v-43q-131 -107 -340 -107q-87 -20 -467 -20h-234q-426 21 -426 84z" />
<glyph unicode="J" horiz-adv-x="1648" d="M59 530v23q91 340 297 340q86 -65 150 -447q69 -63 106 -63q101 0 150 340q-43 464 -43 680l-467 104v43l84 64q0 42 743 63l490 -84q-40 -190 -213 -190h-297q106 -398 106 -660q-70 -573 -469 -573q-614 99 -614 297q-23 0 -23 63z" />
<glyph unicode="K" horiz-adv-x="1626" d="M59 -20l43 380q-20 494 -20 660q27 637 127 637q233 0 233 -340q23 -3 23 -211h20q411 360 531 360q149 -15 149 -63q-43 -152 -403 -533q422 -338 741 -657q43 0 43 -63q-84 -104 -84 -130q-449 0 -807 490q-37 0 -106 63v-43q0 -616 -127 -616v-20q-306 44 -363 86z " />
<glyph unicode="L" horiz-adv-x="1456" d="M59 977q99 489 236 596q211 0 211 -170q0 -188 63 -893v-107q59 0 256 -43l211 23q340 -49 340 -86q-114 -170 -233 -170q-424 0 -424 43l-43 -20h-21q-573 52 -573 190v149q0 176 -23 488z" />
<glyph unicode="M" horiz-adv-x="2072" d="M59 170q187 1403 490 1403l317 -86l193 -424h20q102 403 254 403q363 -34 363 -129q145 -303 297 -1040q0 -37 -107 -147q-383 0 -383 210q-127 482 -127 533h-20q-111 -346 -191 -426q-469 43 -469 213q-22 0 -104 276h-23q-150 -850 -297 -850h-20q-114 0 -193 64z" />
<glyph unicode="N" horiz-adv-x="1542" d="M59 383q0 466 193 1253l63 64q424 -27 424 -150q115 -146 234 -444h22q47 467 191 467l276 -66v-63q-117 -1147 -233 -1147q-22 0 -43 -64q-490 41 -490 297l-170 553h-20q-91 -807 -211 -807h-66q-170 0 -170 107z" />
<glyph unicode="O" horiz-adv-x="1882" d="M59 743v170q0 483 680 723h127q133 0 660 -149q276 -203 276 -531q0 -493 -637 -786h-63q-1043 102 -1043 573zM506 893q0 -338 383 -467q360 170 360 487q0 447 -383 447l-127 43q-233 -211 -233 -510z" />
<glyph unicode="P" horiz-adv-x="1583" d="M59 213q23 767 23 1124q0 209 274 320q140 20 236 20h84q780 -67 827 -467q-144 -530 -530 -530q-222 -43 -361 -43q-39 20 -63 20v-338q0 -124 -150 -213h-20q-23 0 -23 21l-41 -21q-256 65 -256 107zM506 1466q43 -304 43 -553h20q426 0 426 277q0 151 -233 276h-256z " />
<glyph unicode="Q" horiz-adv-x="2222" d="M59 1063q0 253 533 530q200 84 360 84h43q721 -70 721 -211q297 -281 297 -553q-6 -164 -170 -467q93 0 299 -170v-63q-86 0 -86 -86q-414 106 -467 106q0 -45 -233 -127q-1211 102 -1211 340q-71 0 -86 617zM506 1083q0 -680 383 -680h170q112 0 147 86 q-233 143 -233 277q0 31 86 84q146 0 317 -127l23 104v23q0 304 -297 573q-222 43 -277 43q-319 -181 -319 -383z" />
<glyph unicode="R" horiz-adv-x="1648" d="M59 893q64 764 170 764q25 0 66 -21q378 64 424 64q850 -114 850 -404v-63q0 -315 -426 -467h-41q340 -475 340 -553l-109 -86h-20q-21 0 -21 23q-20 0 -20 -23q-244 0 -383 213q-132 238 -170 426q-174 0 -254 41v-21l41 -489l-107 -127q-297 34 -297 149 q-43 212 -43 574zM422 1296q0 -118 20 -319q212 -21 320 -21h41q383 0 383 234v63q0 212 -361 277q-403 -30 -403 -86v-148z" />
<glyph unicode="S" horiz-adv-x="1392" d="M59 1063q187 510 576 510q467 -44 467 -150q0 -28 -66 -63q-30 0 -233 43h-41q-241 0 -320 -340q46 -143 150 -213h63q637 -38 637 -234q21 -38 21 -86q0 -338 -340 -467l-127 -20h-21q-396 0 -680 213v41q54 103 84 106h23q171 -9 444 -147q170 56 170 104v150 q0 170 -360 170q-447 71 -447 383z" />
<glyph unicode="T" horiz-adv-x="1753" d="M59 1444q0 116 850 192q216 -21 764 -129v-63l-104 -127q-363 63 -467 63h-107v-20q84 -623 84 -1084q-3 -46 -127 -126h-43q-20 0 -20 20q-23 0 -23 -20q-340 58 -340 126v764q0 88 23 320h-23q-20 0 -20 -23q-447 47 -447 107z" />
<glyph unicode="U" horiz-adv-x="1648" d="M59 807q156 850 236 850q190 0 190 -191v-426q0 -554 254 -784q340 43 340 401v299q0 116 23 318q-23 84 -23 213q77 158 127 170q340 0 340 -170v-191q0 -68 23 -106l-23 -127v-297q0 -527 -487 -723q-90 -23 -170 -23q-685 0 -787 533q-43 168 -43 254z" />
<glyph unicode="V" horiz-adv-x="1583" d="M59 1423v84q52 107 107 107q261 0 340 -488q106 -365 106 -403q22 0 424 850q66 84 86 84h43q254 -46 254 -64l43 21q41 -6 41 -41q-598 -1446 -764 -1446q-487 52 -487 299q-193 482 -193 997z" />
<glyph unicode="W" horiz-adv-x="1902" d="M59 596q86 848 213 848q170 -12 170 -64q-20 -477 -20 -680q59 -403 127 -403q233 220 233 573v66q49 0 84 84l256 -64q40 21 64 21q0 -21 20 -21l-20 -299q0 -120 43 -338h20q106 0 150 551q-23 266 -23 467v129q89 148 127 148h43q256 0 256 -191v-446l21 -127 q0 -594 -447 -764h-84q-222 0 -426 104q-86 -127 -211 -127h-20q-576 0 -576 533z" />
<glyph unicode="X" horiz-adv-x="1542" d="M59 63l447 617q-404 559 -404 680q0 83 84 127q227 0 383 -234l213 -190q299 372 383 424h64l147 -21q0 -78 -360 -659v-21q85 -85 446 -596v-84q-86 0 -86 -86q-614 64 -614 340l-43 23q-20 0 -340 -403q-320 65 -320 83z" />
<glyph unicode="Y" horiz-adv-x="1542" d="M59 1444v22q20 0 66 64q295 0 444 -297q16 0 86 -107q450 319 551 340q256 -38 256 -86v-84q-177 -226 -510 -383q21 -249 21 -360v-193q0 -18 -127 -127q-43 0 -43 43l-41 -20q-297 55 -297 104v297l20 256q-309 0 -426 531z" />
<glyph unicode="Z" horiz-adv-x="1923" d="M59 1380q35 86 66 86q300 0 807 41q680 -71 680 -170q0 -136 -596 -741h20q251 20 277 20q530 -64 530 -106v-43q-71 -148 -401 -148q-583 -86 -639 -106q-464 106 -488 106v21q0 144 381 467q313 313 426 467h-276q-136 0 -277 -21q-510 65 -510 127z" />
<glyph unicode="[" horiz-adv-x="1011" d="M59 997v150q0 277 150 360q657 0 657 -84q-160 -86 -211 -86l-213 23v-23q-20 -207 -20 -254q0 -94 63 -616q0 -48 -20 -84q20 -39 20 -64h84q81 0 363 -43v-43q0 -127 -467 -127q-89 0 -363 64v319q-43 470 -43 508z" />
<glyph unicode="\" horiz-adv-x="1052" d="M59 1550l43 23q216 0 533 -576q338 -409 338 -487q-70 -64 -107 -64q-302 0 -530 467q-170 218 -277 637z" />
<glyph unicode="]" horiz-adv-x="1011" d="M59 1423v21q0 108 383 129q447 -53 447 -129v-127q43 -753 43 -850v-277q0 -28 -107 -104h-256q-383 27 -383 84q34 106 150 106q137 -20 233 -20v170q0 63 -43 741v236l-211 -23q-88 0 -256 43z" />
<glyph unicode="^" horiz-adv-x="14647" />
<glyph unicode="_" horiz-adv-x="1521" d="M59 106q0 107 426 107h64q893 0 893 -86v-21q-151 -86 -363 -86h-510q-306 0 -510 86z" />
<glyph unicode="`" horiz-adv-x="600" d="M59 1364q0 31 21 50.5t53 19.5q20 0 40.5 -12.5t55.5 -47.5l291 -295h-67l-330 201q-64 40 -64 84z" />
<glyph unicode="a" horiz-adv-x="1372" d="M59 657q114 363 406 363h20l150 -23l20 43q404 -47 404 -233q233 -306 233 -404l-86 -63q-360 27 -360 127h-21q-121 -127 -299 -127q-444 58 -444 213zM442 657l23 -104h20q127 86 127 213v20l-20 107h-43q-31 0 -107 -107v-129z" />
<glyph unicode="b" horiz-adv-x="1011" d="M59 340q50 946 86 1190l64 43q190 0 190 -193q43 -334 43 -424h23q424 -27 424 -170q43 -76 43 -170v-63q0 -243 -363 -320q-112 0 -510 107zM442 446h23q55 0 104 107q-20 33 -20 104h-23q0 -23 -84 -211z" />
<glyph unicode="c" horiz-adv-x="1181" d="M59 571v43q156 381 490 381q207 -20 254 -20v-43l-254 -170q-23 -122 -23 -127l23 -107h190q81 0 363 -43v-41q-89 -170 -490 -170q-553 70 -553 297z" />
<glyph unicode="d" horiz-adv-x="1052" d="M59 446q0 289 533 381q-43 270 -43 510v86q0 32 106 107h64q54 0 190 -43v-21q0 -192 64 -786v-43q-76 -424 -424 -424q-490 65 -490 233zM422 446q0 -43 63 -43q107 0 107 254q-170 -56 -170 -190v-21z" />
<glyph unicode="e" d="M59 616q0 277 320 447q360 0 510 -193v-84q-175 -233 -510 -233q0 -158 360 -170q-35 -86 -147 -86h-43q-490 47 -490 319zM379 723h20l193 63v41q0 33 -86 86q-38 0 -127 -147v-43z" />
<glyph unicode="f" horiz-adv-x="1181" d="M59 700v66q88 63 256 84q-43 279 -43 467q88 319 320 319q444 -52 444 -192q66 -12 66 -170v-41q0 -33 -86 -86h-21q-299 50 -299 190q-41 -6 -41 -41q12 -469 41 -469q236 -30 236 -84v-20q0 -31 -107 -107l-129 21h-20v-21q-35 -403 -127 -403h-43q-170 0 -170 403 q0 46 -277 84z" />
<glyph unicode="g" horiz-adv-x="1181" d="M59 -127q0 146 150 254h43q138 -70 233 -383l107 -84h43q89 0 127 596l-23 104l-127 -20q-383 0 -383 213q95 360 363 360q424 0 424 -233q86 -312 86 -467v-23q0 -556 -299 -720h-84q-660 64 -660 403zM569 553h43q0 68 84 190v43h-20q-107 -49 -107 -213v-20z" />
<glyph unicode="h" d="M59 340q55 1360 107 1360q20 0 20 20q236 0 236 -340v-383q381 -21 381 -254q28 0 86 -424l-86 -63q-297 0 -297 190q0 100 -21 211h-20q-70 -342 -129 -401q-277 27 -277 84z" />
<glyph unicode="i" horiz-adv-x="522" d="M59 1253q35 150 107 150q213 -9 213 -43l43 20h20v-127q-60 -106 -127 -106q-256 30 -256 106zM82 233v617q0 33 84 86q256 -44 256 -109q20 -137 20 -231v-320q-3 -29 -106 -86q-57 0 -254 43z" />
<glyph unicode="j" horiz-adv-x="1116" d="M59 -63q43 106 150 106q174 0 233 -213q43 -6 43 -43q163 0 234 639q0 85 -64 381q52 43 84 43q256 0 256 -150q41 -205 41 -317q-83 -766 -424 -766q-390 0 -553 233v87zM549 1167v66l127 84q249 -43 319 -43v-84q-129 -147 -129 -170q-317 35 -317 147z" />
<glyph unicode="k" horiz-adv-x="1181" d="M59 213v977q0 573 107 573q213 0 213 -360q20 -226 20 -426q105 63 150 63q179 -20 233 -20v-43q-190 -227 -190 -277q74 -65 381 -170q129 -129 129 -211v-22q0 -31 -86 -84q-257 0 -551 254h-43v-254q-47 -86 -107 -86q-256 38 -256 86z" />
<glyph unicode="l" horiz-adv-x="585" d="M59 680v63q0 914 127 914q236 0 236 -107q43 -125 43 -614l-23 -129l64 -680q-84 -84 -127 -84q-102 0 -297 63q-23 430 -23 574z" />
<glyph unicode="m" horiz-adv-x="1478" d="M59 467v129q64 530 363 530q340 -64 340 -106l127 20q487 0 487 -340q23 -164 23 -381q-53 -129 -127 -129q-236 0 -236 236q0 252 -41 401h-43q-35 -274 -149 -274q-254 0 -254 147q0 213 -64 213h-20q-85 -187 -129 -573q-41 -6 -41 -43q-236 0 -236 170z" />
<glyph unicode="n" horiz-adv-x="1116" d="M59 467q34 553 107 553h86q43 0 84 -23l149 66q424 -49 424 -213q44 -56 127 -447q-53 -127 -127 -127q-274 0 -274 277q-55 254 -109 254q-84 -128 -84 -234v-147l-86 -107q-297 27 -297 148z" />
<glyph unicode="o" horiz-adv-x="1052" d="M59 596q79 257 256 340q89 23 150 61q487 -34 487 -254q21 0 21 -63v-107q0 -229 -338 -276h-66q-510 0 -510 299zM422 596l63 -129q85 43 127 43v86q-27 211 -86 211h-41q-63 -135 -63 -211z" />
<glyph unicode="p" horiz-adv-x="989" d="M59 -43q108 979 170 979l213 20q380 0 447 -233q20 -39 20 -86q0 -214 -444 -340q0 22 -23 22v-382l23 -256l-109 -84q-274 0 -274 147q0 132 -23 213zM399 807q27 -277 66 -277q147 64 147 127q-71 170 -147 170q-41 -20 -66 -20z" />
<glyph unicode="q" horiz-adv-x="1181" d="M59 596v20q0 243 383 381h23q231 0 231 -104h107q86 0 86 -510q-23 -199 -23 -277q109 44 150 44q86 -21 86 -87q-68 -100 -277 -360q-340 0 -340 234q41 289 41 360v106q-22 0 -61 -20q-406 44 -406 213zM379 553h20q127 50 127 84v190h-20q-127 -74 -127 -190v-84z" />
<glyph unicode="r" horiz-adv-x="1011" d="M59 616q0 383 340 447h23q510 -53 510 -150v-63l-43 -64l-340 64q-127 -151 -127 -297v-127q-66 0 -66 -43q-297 0 -297 233z" />
<glyph unicode="s" horiz-adv-x="1052" d="M59 426q43 52 43 84h23q86 0 274 -43q193 21 193 86q0 94 -383 170l-43 63q108 320 403 320q277 -44 277 -86v-43l-43 -64l-107 23q-93 -53 -104 -109q381 -108 381 -190v-127q-135 -234 -381 -234h-66q-467 53 -467 150z" />
<glyph unicode="t" horiz-adv-x="1181" d="M59 977v20q0 94 340 109q38 508 127 508q236 0 236 -107q41 -172 41 -401v-23q299 0 299 -63q0 -98 -299 -107v-20q22 -393 22 -447q0 -185 -149 -276q-277 0 -277 256v467q0 35 -340 84z" />
<glyph unicode="u" d="M59 723q0 200 86 444h127q30 0 64 -61v-256q21 -297 86 -297q104 94 104 233q0 26 -20 277l86 84h43q254 0 254 -211v-129q0 -304 -383 -467q-447 0 -447 383z" />
<glyph unicode="v" horiz-adv-x="1095" d="M59 870q44 127 86 127h127q39 -9 170 -360q71 35 234 383l86 63q42 0 254 -43v-20q0 -223 -490 -764h-20q-320 35 -320 147z" />
<glyph unicode="w" horiz-adv-x="1413" d="M59 786q34 340 170 340q60 -104 127 -530l43 -23l127 340h23q297 0 297 -127q0 -81 20 -190q47 0 129 424q69 63 107 63q231 -34 231 -86q0 -495 -381 -700h-43q-187 0 -340 106q-64 -43 -147 -43q-340 0 -340 297q-23 38 -23 129z" />
<glyph unicode="x" horiz-adv-x="1052" d="M59 997v23l43 63q199 0 340 -170h23q0 65 211 234h127q43 -6 43 -41q-191 -338 -191 -383q102 -18 318 -234v-63l-41 -66q-178 0 -426 193h-21q0 -68 -129 -150q-231 30 -231 64q0 15 170 256q-114 81 -236 274z" />
<glyph unicode="y" d="M59 936v41q0 28 66 63q239 0 297 -147q103 -127 127 -127h20q0 190 170 340q150 -21 150 -66v-63q0 -226 -424 -1444q0 -33 -86 -86q-234 0 -234 64q111 406 297 956h-20q-363 276 -363 469z" />
<glyph unicode="z" horiz-adv-x="1116" d="M59 807q0 106 406 106h61q363 -21 363 -86q0 -97 -297 -381l43 21h61q314 -41 340 -41v-86q-213 -127 -551 -127q-36 0 -403 84v63q0 25 403 383h-106q-268 0 -320 64z" />
<glyph unicode="{" horiz-adv-x="1286" d="M59 1063q44 127 236 127l20 43v41q-170 135 -170 233v43q111 340 381 340l109 23q28 0 231 -43q0 -74 -297 -150q-84 -96 -84 -190q6 -67 170 -193v-63q0 -82 -129 -211v-23q86 -9 86 -63q0 -25 -127 -170v-107q0 -317 447 -317q274 -38 274 -86q0 -40 -127 -84 q-870 83 -870 317q-43 70 -43 127v86q0 78 106 213q-100 0 -213 107z" />
<glyph unicode="|" horiz-adv-x="522" d="M59 1380q27 404 107 404h63q127 0 127 -191q86 -1091 86 -1190q-53 -127 -127 -127q-213 15 -213 84q-43 823 -43 1020z" />
<glyph unicode="}" horiz-adv-x="1032" d="M59 1847v43q0 72 320 107q340 0 340 -234q0 -180 -277 -510l150 21q317 -35 317 -84q-65 -141 -213 -193v-20q256 0 256 -297q-43 -211 -553 -490h-63q-211 0 -211 43q22 79 467 340l20 43v107q0 170 -297 170l-20 43q0 76 147 147v23q-30 0 -317 84v63q317 341 317 574 v20l-43 23q-151 0 -233 -43q-33 20 -107 20z" />
<glyph unicode="~" horiz-adv-x="1052" d="M59 1274v22q0 169 236 277q197 0 274 -170q0 -23 23 -23q77 0 233 193l107 20l41 -63q0 -206 -338 -256h-66q-146 0 -254 129q-108 -193 -129 -193q-109 0 -127 64z" />
<glyph unicode="&#xa1;" horiz-adv-x="735" d="M59 881v104l406 86q127 -109 127 -127v-129h-43q-51 -48 -277 -104l-43 20q0 -20 -20 -20q-33 0 -150 170zM82 264q0 25 20 64q-20 0 -20 20v66l424 84q149 -107 149 -213v-211q0 -361 -106 -617h-107q-22 0 -170 -43q-190 0 -190 850z" />
<glyph unicode="&#xa2;" horiz-adv-x="989" d="M59 870q77 467 426 467q21 193 84 193q80 0 107 -234q149 -64 149 -190h-22q-107 61 -148 61v-510h148l106 -20q-35 -84 -147 -84h-107v-43q0 -182 -63 -254q-80 0 -150 340q-333 0 -383 274zM315 893q0 -106 107 -170h20q0 117 23 467q-74 0 -150 -297z" />
<glyph unicode="&#xa3;" horiz-adv-x="1562" d="M59 360v43l127 86q216 0 299 318q-20 33 -20 106q-304 43 -320 43q0 127 127 127h84l-20 150q138 403 383 403q446 -15 446 -106v-23q0 -41 -63 -41q-93 0 -193 41q-192 0 -233 -274l20 -107q252 41 426 41q297 0 297 -61q0 -143 -594 -170v-109q0 -176 -190 -381l190 21 q658 -71 658 -127l-150 -150l-211 23h-487q-576 65 -576 147z" />
<glyph unicode="&#xa4;" horiz-adv-x="2859" d="M59 -616q0 572 533 766q933 233 1677 233q0 33 510 106v-213q-636 -126 -1190 -126q-1063 -202 -1063 -383q-52 0 -61 -256v-84q0 -129 147 -234q31 0 84 84v23q0 56 -61 254v20q0 200 1591 363q190 20 553 20v-190h-233q-420 0 -1510 -234q43 -76 43 -170v-63 q0 -118 -147 -213h-576q-190 0 -297 297zM125 1550v234q147 489 360 489q424 -73 424 -170q49 -226 127 -319q1190 129 1340 129h403v-193h-190q-183 0 -1467 -147q-573 64 -573 254q-43 -6 -43 -43v-64q0 -240 129 -317q445 0 891 -150q494 0 1253 -127v-190l-1806 254 q-848 59 -848 360z" />
<glyph unicode="&#xa7;" horiz-adv-x="3686" />
<glyph unicode="&#xa8;" horiz-adv-x="720" d="M59 1264q0 12 15 24l71 74q13 10 25 10t27 -12l69 -74q10 -17 10 -24q0 -15 -12 -27l-69 -76q-16 -16 -25 -16q-15 0 -25 10l-75 86q-11 15 -11 25zM426 1264q0 12 12 24l72 74q13 10 25 10q11 0 26 -12l70 -74q10 -17 10 -24q0 -15 -12 -27l-70 -76q-16 -16 -24 -16 q-15 0 -25 10l-76 88q-8 8 -8 23z" />
<glyph unicode="&#xa9;" horiz-adv-x="1392" d="M59 997q148 295 576 469h41q637 -89 637 -510v-149q0 -363 -488 -424h-22q-538 0 -701 424q-43 76 -43 190zM336 913q211 254 360 254h107q129 -12 129 -61v-23q-154 0 -236 -147v-66h23q140 0 297 -43q20 41 20 66q0 243 -254 424h-127q-200 -124 -319 -297v-107z M442 723q0 -96 277 -213q297 64 297 233q-145 -86 -254 -86z" />
<glyph unicode="&#xad;" horiz-adv-x="798" d="M59 680q0 127 426 127q234 -15 234 -64v-20q-154 -86 -320 -86h-43q-140 0 -297 43z" />
<glyph unicode="&#xae;" horiz-adv-x="1542" d="M59 807v129q0 345 596 594q744 -123 744 -424q48 0 63 -236q0 -390 -616 -510h-43q-744 68 -744 447zM315 827q12 -127 64 -127l-23 43v170q0 152 43 234h-20q-64 -107 -64 -211v-109zM399 637q201 -127 297 -127q320 44 320 127q-49 0 -340 149v-20q-21 -129 -107 -129 l-147 20h-23v-20zM569 1337q344 -73 467 -170v23q-165 213 -424 213zM676 956q86 30 86 64v63q0 29 -86 64v-191zM973 870q53 0 170 -63v20q0 107 -41 256h-23q0 -92 -106 -213z" />
<glyph unicode="&#xb0;" horiz-adv-x="3665" />
<glyph unicode="&#xb1;" horiz-adv-x="1392" d="M59 1274v22q0 84 363 84q9 256 63 256h107q45 -23 104 -233q71 0 299 -43v-64l-106 -22h-193v-338h66q71 0 104 20q447 -59 447 -106q-35 -84 -148 -84h-63q-50 0 -86 20q-540 -106 -660 -106q-254 27 -254 63q0 77 297 107l23 43v340q-191 0 -363 41z" />
<glyph unicode="&#xb4;" horiz-adv-x="600" d="M59 1077l291 297q35 35 55.5 47.5t40.5 12.5q32 0 53 -19.5t21 -50.5q0 -44 -61 -84l-330 -203h-70z" />
<glyph unicode="&#xb6;" horiz-adv-x="2838" d="M59 -297q0 30 320 107q213 145 213 276v104q-107 247 -107 277v63q61 107 127 107q180 0 340 -318q207 -213 297 -213h23q556 0 934 531q141 343 170 510v170q-38 306 -340 596q-251 127 -297 127h-127q-464 0 -916 -467q0 -86 -127 -213q-9 58 -190 233 q-76 232 -320 574v190h23q228 0 510 -614h20q441 444 977 444q557 0 934 -444q236 -435 236 -576q0 -59 -150 -467q-132 -382 -700 -680q-236 -106 -553 -106h-43q-95 0 -447 86q-214 -426 -807 -426v129zM803 956v64q41 317 299 317q6 43 41 43q383 0 383 -383 q-102 -211 -254 -211h-23q-357 0 -446 170zM1122 1040l21 -104h22q41 0 41 41v86l-20 104h-21q-43 -6 -43 -41v-86zM1546 1530v43q0 116 127 190q299 -59 299 -127q-33 -96 -129 -149q-69 0 -297 43zM1673 680q0 99 150 213h43q149 0 213 -107l-107 -190q-299 47 -299 84z " />
<glyph unicode="&#xb8;" horiz-adv-x="548" d="M111 -238q9 26 36.5 32.5t88.5 6.5h16q33 11 33 25l4 4v14q-21 21 -49 29h-11q-3 0 -6 2t-6 2l-2 4q-36 14 -48 44t5 65l16 26v9q5 5 5 6l22 47q15 43 70 43h6h6q3 0 7 -1t7 -1l4 -4l27 -17l20 -12q15 -3 15 -16q4 -12 -4 -23l-29 -37l-16 -39q51 -26 98 -73l4 -7 q6 -6 6 -10l2 -4q12 -48 -2 -98l-4 -15q0 -6 -2 -6l-4 -2q-49 -76 -166 -88h-6l-2 -2h-4q-2 0 -2 2h-6h-2q-2 1 -5.5 1.5t-9 1t-16 1t-23.5 0.5h-4q-2 0 -4 2q-2 0 -2 2h-2q-19 3 -37 21q-33 26 -24 59v6z" />
<glyph unicode="&#xbf;" horiz-adv-x="1329" d="M59 -229q0 241 424 446q-41 90 -41 127q9 63 105 150v20q341 0 467 -190v-64q0 -22 -21 -22l21 -43q-110 -180 -402 -297l-43 -64v-106q0 -128 148 -234q101 51 235 383l62 43q235 0 235 -213v-84q0 -220 -340 -383h-106q-548 0 -744 383v148zM420 811q0 106 170 256 q63 -21 63 -43q21 0 21 23q319 -58 319 -107v-106q-102 -150 -127 -150h-63q-256 50 -256 64l-41 -21q-33 0 -86 84z" />
<glyph unicode="&#xc0;" horiz-adv-x="1691" d="M78 449q129 975 297 1204q182 188 274 188l232 -61q44 18 65 18q479 -491 674 -1458l-107 -145q-421 0 -421 254q0 33 -105 358l-106 -23h-43q-138 0 -295 43q0 -173 -168 -487h-25q-237 0 -272 109zM530 2140q0 24 17 41t43 17q13 0 31 -11q20 -12 45 -37l227 -233h-51 l-260 160q-32 17 -39 30q-13 16 -13 33zM588 1038q18 0 18 -20q295 46 295 63q-190 331 -190 359h-19z" />
<glyph unicode="&#xc1;" horiz-adv-x="1691" d="M78 451q129 974 297 1200q181 190 272 190l232 -63q39 20 65 20q480 -492 674 -1456l-107 -145q-421 0 -421 254q0 34 -105 356l-106 -23h-41q-147 0 -295 45q0 -179 -168 -487h-25q-237 0 -272 109zM528 1913l230 235q33 32 43 37q13 8 33 8q29 0 43 -14q12 -15 12 -39 q0 -22 -10 -35q-15 -19 -37 -30l-258 -162h-56zM586 1040q20 0 20 -20q295 43 295 61q-190 331 -190 359h-21z" />
<glyph unicode="&#xc2;" horiz-adv-x="1691" d="M72 451q129 969 295 1202q184 190 276 190l231 -63q34 20 64 20q479 -496 676 -1458l-109 -145q-420 0 -420 254q0 27 -104 358l-107 -23h-45q-129 0 -290 41q0 -166 -172 -485h-23q-237 0 -272 109zM494 1958v16q37 80 88 135q60 60 125 89h6q69 -35 114 -89 q62 -56 91 -135l8 -16h-17q-9 0 -22 -8q-51 64 -86 94q-46 42 -78 63q-8 3 -8 13q-2 2 -8 2l-5 -2h-2l-10 -13q-13 -9 -37 -30.5t-37 -32.5q-37 -28 -90 -94q-8 8 -18 8h-14zM580 1040q18 0 18 -18q299 41 299 61q-195 334 -195 359h-18z" />
<glyph unicode="&#xc3;" horiz-adv-x="1691" d="M80 449q126 966 295 1202q177 186 274 186l232 -59q44 18 63 18q480 -492 674 -1456l-107 -145q-421 0 -421 254q0 40 -103 356l-106 -21h-43q-155 0 -293 41q0 -168 -170 -485h-23q-237 0 -272 109zM463 2034v16q0 55 14 80q15 28 53 39h86q90 -12 129 -51 q41 -36 41 -101h35q11 66 35 115q24 37 35 37h18q49 -21 49 -103q-12 -75 -47 -116q-37 -37 -90 -37q-100 31 -139 65q-47 44 -47 105h-37l-16 -119v-35h-70q-49 24 -49 105zM586 1036q20 0 20 -18q297 40 297 63q-192 329 -192 357h-21z" />
<glyph unicode="&#xc4;" horiz-adv-x="1691" d="M80 451q126 970 295 1200q182 188 274 188l230 -63q39 20 65 20q477 -494 672 -1452l-107 -145q-419 0 -419 252q0 36 -105 358l-106 -23h-43q-137 0 -291 43q0 -168 -170 -485h-21q-240 0 -274 107zM508 2042q0 58 16 90q22 31 41 31q4 1 8.5 2t7 1.5t3.5 0.5h6 q22 0 45 -10q20 -12 33 -37q-1 -22 -17 -82q-13 -29 -33 -29h-75q-5 0 -17 12q-3 9 -18 21zM586 1038q20 0 20 -18q295 43 295 63q-190 328 -190 357h-21zM764 2042q0 50 14 90q16 31 41 31q4 4 10 4h17q24 0 41 -10q19 -12 37 -37q-8 -33 -25 -82q-10 -29 -22 -29h-82 q-6 0 -15 12q-4 3 -9 11t-7 10z" />
<glyph unicode="&#xc5;" horiz-adv-x="1691" d="M82 453q126 961 295 1194q179 188 272 188l230 -63q35 18 63 18q477 -490 670 -1444l-107 -145q-418 0 -418 252q0 40 -102 356l-106 -25h-43q-137 0 -291 43q0 -170 -168 -481h-23q-238 0 -272 107zM586 1038q20 0 20 -20q293 44 293 61q-169 300 -185 339q-5 13 -5 18 h-19zM586 2017h6l-6 8q0 16 6 58q14 32 16 35q0 27 45 47q0 1 1 1.5t2.5 2t2.5 4.5q3 1 6.5 4t6.5 4h26q32 0 54 -12q24 -5 47 -35q5 0 14 -18q3 -6 5 -14.5t4.5 -20.5t4.5 -21q-12 -63 -39 -98q-26 -29 -65 -29h-51q-74 0 -86 84zM631 2036q3 -39 22 -58q22 -16 45 -16 q74 21 74 74q4 0 4 20q-3 47 -24 62q-16 22 -47 22q-70 -21 -70 -59q-4 0 -4 -45z" />
<glyph unicode="&#xc6;" horiz-adv-x="2613" d="M82 449q126 974 297 1208q184 190 276 190l234 -63q39 20 63 20q91 -91 217 -266q76 258 217 258q0 40 216 43h383q280 0 280 -65q-21 -62 -127 -62h-43q-350 0 -536 -65q-21 -258 -21 -363v-65h21q162 0 579 -66h41v-63q-89 -127 -194 -127h-361l-45 18q0 -18 -20 -18 q21 -456 65 -537q178 41 254 41q95 0 623 -84v-66l-129 -129l-215 23h-19q-216 0 -430 -41q-98 9 -180 25l-6 -2q-422 0 -422 256q0 35 -103 360l-108 -23h-45q-149 0 -293 43q0 -174 -172 -487h-23q-240 0 -274 107zM594 1040q18 0 18 -18q297 40 297 63q-192 329 -192 359 h-19z" />
<glyph unicode="&#xc7;" horiz-adv-x="1712" d="M53 772v68q108 862 756 862h25q419 0 561 -215v-43q0 -41 -43 -41q-80 0 -346 106q-410 0 -410 -649q62 -344 281 -344h18q419 88 475 88q145 -45 262 -45h19v-22q0 -231 -537 -322h-67q-15 2 -59 7.5t-66 8.5l-17 -22l-14 -33q39 -20 76 -57l2 -2q4 -4 4 -11l2 -2 q9 -34 -2 -71l-2 -10q0 -9 -2 -11l-2 -2q-41 -53 -129 -65h-2h-2h-7h-2q-1 1 -43 4h-2h-8l-2 4q-14 3 -27 14q-11 8 -17 20.5t-3 24.5l6 2q4 24 24.5 29.5t65.5 5.5h15q10 1 16 5.5t6 8.5l4 7v10q-1 0 -5 4t-11.5 9t-18.5 9h-12q-4 0 -6 2h-4q-26 12 -35 35.5t2 48.5l14 25 q0 2 2 2v6l13 27q-721 126 -721 442q-25 0 -25 82z" />
<glyph unicode="&#xc8;" horiz-adv-x="1521" d="M74 360v680q64 574 276 574q0 37 211 43h383q277 0 277 -66q-21 -61 -127 -61h-45q-342 0 -531 -66q-22 -261 -22 -360v-64h22q200 0 576 -65h43v-62q-95 -127 -193 -127h-360l-45 19q0 -19 -21 -19q21 -452 66 -532q149 41 254 41q94 0 616 -84v-64l-129 -127l-211 19 h-20q-249 0 -426 -39q-594 59 -594 360zM500 1964q0 25 14 39q16 16 41 16q18 0 31 -10q20 -12 45 -37l229 -231h-53l-260 157q-6 5 -19 15t-18 16q-10 17 -10 35z" />
<glyph unicode="&#xc9;" horiz-adv-x="1521" d="M70 352v684q65 578 278 578q0 37 211 43h387q277 0 277 -66q-21 -63 -127 -63h-45q-341 0 -533 -64q-22 -267 -22 -364v-64h22q202 0 578 -65h43v-64q-95 -127 -193 -127h-364l-45 21q0 -21 -19 -21q21 -458 64 -534q172 41 256 41q73 0 620 -84v-66l-131 -127l-211 19 h-20q-251 0 -428 -39q-598 58 -598 362zM440 1739l230 235q39 34 43 37q19 8 35 8q26 0 40 -14q15 -15 15 -41q0 -20 -10 -33q-11 -17 -37 -30l-260 -162h-56z" />
<glyph unicode="&#xca;" horiz-adv-x="1521" d="M78 360v680q65 576 276 576q0 38 211 41h383q277 0 277 -64q-21 -63 -127 -63h-45q-339 0 -531 -64q-22 -267 -22 -360v-66h22q200 0 576 -65h43v-62q-92 -127 -193 -127h-360l-45 21q0 -21 -21 -21q21 -452 66 -532q165 43 254 43q85 0 616 -86v-64l-129 -127l-211 19 h-20q-249 0 -426 -39q-594 59 -594 360zM469 1782v16q40 81 94 135q42 49 121 88h8q77 -45 113 -88q53 -53 90 -135l8 -16h-16q-10 0 -23 -8q-44 55 -84 92l-80 65q-8 3 -8 11q-4 4 -8 4l-1 -2q-1 -2 -5 -2l-10 -11q-11 -9 -34.5 -30.5t-39.5 -34.5q-41 -31 -90 -92 q-13 8 -21 8h-14z" />
<glyph unicode="&#xcb;" horiz-adv-x="1521" d="M63 358v684q64 580 279 580q0 38 213 41h385q279 0 279 -66q-21 -61 -129 -61h-46q-343 0 -532 -66q-23 -279 -23 -362v-66h23q202 0 578 -65h43v-62q-91 -129 -193 -129h-362l-46 21q0 -21 -20 -21q21 -460 66 -534q172 41 253 41q95 0 623 -84v-66l-131 -127l-213 19 h-20q-251 0 -428 -39q-599 59 -599 362zM469 1876q0 52 14 92q22 31 39 31q6 1 11 2.5t7 2.5t3 1h6q24 0 45 -12q17 -9 35 -37q-6 -48 -19 -82q-13 -29 -28 -29h-82q-5 0 -15 13q-1 3 -16 18zM725 1876q0 67 14 92q15 31 41 31q3 1 5.5 2.5t4.5 2.5t3 1h14q25 0 43 -12 q15 -9 37 -37l-23 -82q-16 -29 -26 -29h-82q-5 0 -15 13q-7 2 -16 18z" />
<glyph unicode="&#xcc;" horiz-adv-x="669" d="M119 815v57q0 871 121 871q223 0 223 -101q43 -131 43 -585l-23 -121l62 -649q-83 -80 -121 -80q-99 0 -285 61q-20 360 -20 547zM125 2015q0 25 12 37q16 16 39 16q19 0 29 -10q20 -12 43 -35l213 -215h-49l-244 148q-24 17 -33 29q-10 13 -10 30z" />
<glyph unicode="&#xcd;" horiz-adv-x="636" d="M119 815v57q0 871 121 871q223 0 223 -101q43 -131 43 -585l-23 -121l62 -649q-83 -80 -121 -80q-99 0 -285 61q-20 360 -20 547zM141 1808l213 215q23 23 43 35q10 10 29 10q23 0 39 -16q12 -12 12 -37q0 -17 -10 -30q-9 -12 -33 -29l-244 -148h-49z" />
<glyph unicode="&#xce;" horiz-adv-x="686" d="M106 1843v17q36 74 87 125q36 39 112 81h8q70 -41 105 -81q59 -59 84 -125l8 -17h-14q-15 0 -23 -8q-27 35 -78 86q-44 41 -73 61q-9 3 -9 11q-2 2 -8 2q-1 0 -2 -1t-2 -1l-10 -11l-70 -61q-42 -39 -84 -86q-8 8 -18 8h-13zM133 815v57q0 869 121 869q223 0 223 -101 q41 -131 41 -583l-20 -121l59 -649q-84 -78 -121 -78q-93 0 -282 59q-21 378 -21 547z" />
<glyph unicode="&#xcf;" horiz-adv-x="782" d="M178 1939q0 48 12 84q19 29 39 29q15 6 19 6h4q23 0 43 -10q18 -9 31 -35q-2 -40 -15 -78q-9 -24 -26 -24h-78q-9 0 -12 10zM195 819v60q0 874 120 874q226 0 226 -100q43 -131 43 -590l-23 -121l62 -653q-83 -80 -121 -80q-101 0 -287 61q-20 360 -20 549zM416 1939 q0 52 14 84q13 29 39 29q9 6 10 6h15q26 0 38 -10q17 -10 35 -35q-16 -66 -20 -78q-9 -24 -25 -24h-78q-2 0 -12 10z" />
<glyph unicode="&#xd1;" horiz-adv-x="1542" d="M74 379q0 468 190 1255l64 64q428 -27 428 -148q109 -142 233 -448h21q46 469 192 469l275 -66v-61q-114 -1149 -234 -1149q-23 0 -41 -64q-491 37 -491 297l-170 553h-21q-95 -809 -213 -809h-63q-170 0 -170 107zM541 1913v14q0 53 12 74q16 26 51 37h80 q90 -13 121 -47q37 -30 37 -95h32q12 60 33 109q20 33 33 33h14q47 -18 47 -94q-12 -74 -45 -107q-34 -37 -82 -37q-88 29 -129 62q-45 39 -45 98h-34l-15 -111v-34h-63q-47 24 -47 98z" />
<glyph unicode="&#xd2;" horiz-adv-x="1882" d="M78 743v170q0 482 678 721h125q125 0 659 -147q275 -207 275 -531q0 -492 -635 -784h-64q-1038 99 -1038 571zM522 891q0 -334 381 -463q361 167 361 485q0 445 -383 445l-125 43q-234 -211 -234 -510zM729 1911q0 25 12 37q16 16 41 16q16 0 29 -10q5 -3 41 -35 l215 -215h-51l-242 147q-28 18 -35 29q-10 13 -10 31z" />
<glyph unicode="&#xd3;" horiz-adv-x="1882" d="M80 743v168q0 478 676 721h127q126 0 657 -147q275 -204 275 -529q0 -492 -635 -784h-64q-1036 99 -1036 571zM524 891q0 -334 379 -463q361 164 361 483q0 445 -381 445l-127 43q-232 -206 -232 -508zM727 1698l213 219q17 17 41 35q19 8 31 8q25 0 39 -14 q14 -17 14 -37q0 -14 -10 -31q-18 -22 -35 -29l-242 -151h-51z" />
<glyph unicode="&#xd4;" horiz-adv-x="1882" d="M66 743v170q0 480 679 723h127q126 0 660 -147q274 -206 274 -531q0 -495 -637 -788h-63q-1040 99 -1040 573zM512 891q0 -333 381 -465q362 163 362 487q0 447 -383 447l-127 41q-233 -205 -233 -510zM686 1743v14q43 85 88 127q33 37 113 82h8q65 -38 106 -82 q54 -51 84 -127l9 -14h-17q-7 0 -20 -8q-40 52 -80 86q-41 38 -74 61q-8 3 -8 10q-4 4 -8 4q-1 0 -2 -2t-2 -2l-11 -10l-69 -61q-32 -27 -84 -86q-13 8 -19 8h-14z" />
<glyph unicode="&#xd5;" horiz-adv-x="1882" d="M74 743v170q0 483 680 723h127q125 0 659 -147q277 -206 277 -531q0 -492 -637 -788h-64q-1042 99 -1042 573zM520 891q0 -333 381 -465q363 164 363 487q0 447 -383 447l-127 43q-234 -211 -234 -512zM692 1823v12q0 41 15 68q10 19 41 30h69q77 -12 105 -43 q34 -27 34 -82h27q14 76 29 95q13 30 26 30h17q39 -17 39 -82q-6 -61 -39 -94q-26 -33 -72 -33q-75 26 -111 56q-41 30 -41 84h-28l-12 -97v-26h-56q-43 18 -43 82z" />
<glyph unicode="&#xd6;" horiz-adv-x="1882" d="M70 743v168q0 484 680 727h127q116 0 663 -149q275 -207 275 -533q0 -495 -639 -788h-64q-1042 99 -1042 575zM516 891q0 -335 383 -467q363 169 363 487q0 449 -385 449l-127 41q-234 -209 -234 -510zM702 1825q0 47 13 86q19 28 39 28q5 1 10 4t8 3h4q20 0 43 -13 q21 -9 31 -32q-3 -48 -14 -78q-12 -27 -27 -27h-78q-9 0 -12 10q-10 17 -17 19zM940 1825q0 54 14 86q12 28 39 28q3 1 6.5 4t4.5 3h14q23 0 39 -13q19 -9 35 -32q-13 -55 -21 -78q-12 -27 -24 -27h-76q-5 0 -15 10q-10 17 -16 19z" />
<glyph unicode="&#xd8;" horiz-adv-x="1882" d="M74 741v168q0 484 682 727h127q111 0 485 -100q211 158 279 205q153 -128 98 -217q-20 -19 -54 -57t-53 -58q185 -188 185 -453q0 -497 -641 -792h-64q-331 34 -565 104q-223 -219 -279 -241l-28 16q-201 171 -156 250q20 25 63 73t64 72q-143 128 -143 303zM522 889 q0 -70 10 -111q321 321 564 533q-83 47 -213 47l-127 43q-234 -209 -234 -512zM766 483q53 -31 137 -61q365 169 365 487q0 76 -4 97q-323 -343 -498 -523z" />
<glyph unicode="&#xd9;" horiz-adv-x="1648" d="M72 803q156 850 235 850q191 0 191 -191v-428q0 -552 256 -784q340 43 340 403v299q0 157 18 318q-18 66 -18 213q81 158 127 170q340 0 340 -170v-193q0 -67 20 -106l-20 -127v-295q0 -527 -490 -727q-87 -19 -172 -19q-681 0 -786 533q-41 172 -41 254zM645 1946 q0 22 17 39q16 16 40 16q18 0 31 -10q20 -12 45 -37l223 -228h-53l-254 156q-26 16 -35 31q-14 14 -14 33z" />
<glyph unicode="&#xda;" horiz-adv-x="1648" d="M35 850q167 895 248 895q202 0 202 -201v-448q0 -587 269 -832q356 49 356 426v318q0 103 25 333q-25 95 -25 226q85 166 135 178q361 0 361 -178v-203q0 -74 20 -113l-20 -135v-311q0 -551 -516 -764q-89 -21 -179 -21q-721 0 -831 562q-45 173 -45 268zM639 1817 l242 245q15 16 45 39q15 10 37 10q30 0 43 -16q16 -16 16 -43q0 -17 -12 -35l-14 -13q-14 -12 -25 -19l-275 -168h-57z" />
<glyph unicode="&#xdb;" horiz-adv-x="1648" d="M66 803q159 850 235 850q191 0 191 -191v-426q0 -554 253 -786q340 46 340 403v299q0 133 21 318q-21 74 -21 213q44 82 74 123t55 47q340 0 340 -170v-193q0 -70 19 -104l-19 -127v-297q0 -526 -489 -725q-87 -19 -172 -19q-682 0 -784 531q-43 165 -43 254zM608 1765 v17q28 63 88 133q46 46 121 86h10q72 -42 111 -86q61 -68 88 -133l8 -17h-16q-15 0 -23 -8q-50 63 -84 92q-51 48 -75 64q-9 3 -9 10q-2 2 -10 2q-1 0 -2 -1t-2 -1l-12 -10q-5 -5 -18.5 -17t-26.5 -24t-27 -23q-36 -31 -88 -92q-8 8 -18 8h-15z" />
<glyph unicode="&#xdc;" horiz-adv-x="1648" d="M76 805q159 852 235 852q193 0 193 -191v-428q0 -558 256 -788q340 46 340 405v299q0 141 20 320q-20 70 -20 215q84 159 129 168q342 0 342 -168v-195q0 -74 18 -106l-18 -127v-297q0 -526 -492 -729q-90 -19 -174 -19q-683 0 -788 533q-41 178 -41 256zM631 1858 q0 63 14 88q15 30 39 30q15 6 18 6h7q25 0 45 -10q19 -11 32 -37q-3 -47 -16 -80q-12 -28 -31 -28h-77q-6 0 -15 12q-1 4 -16 19zM881 1858q0 56 14 88q12 30 41 30q6 6 12 6h15q21 0 41 -10q12 -10 36 -37q-20 -68 -26 -80q-6 -28 -23 -28h-80q-5 0 -14 12z" />
<glyph unicode="&#xdf;" horiz-adv-x="1118" d="M96 74q0 48 10 211l7 192q0 69 14 223l-31 291q15 139 62 287q-15 24 -15 59q123 123 303 123h15q487 -37 487 -241q0 -104 -92 -213q197 -105 197 -306v-14q0 -275 -430 -407q-2 -2 -11 -5q-1 -1 -45 -16q-8 -3 -15.5 -3t-13.5 1.5t-12.5 6.5t-11 9.5t-10 13.5t-9 15 t-8.5 17.5t-8 18t-8 19.5q-16 45 6 80q8 11 25 21l55 24q148 71 148 174q-37 131 -76 183q-12 -7 -27 -11l-57 -20q-2 0 -4 -2q-36 -14 -63 20t-48 95q-18 56 8 90q7 12 27 24l53 25q94 52 94 143q0 36 -104 121q-152 -12 -152 -45v-272q3 -33 14.5 -233t16.5 -265v-35 q-2 -43 -9.5 -228t-10.5 -225q-7 -58 -57.5 -84.5t-116.5 -15.5q-29 3 -50 23.5t-30.5 48t-13 48t-3.5 34.5z" />
<glyph unicode="&#xe0;" horiz-adv-x="1372" d="M63 639q117 367 408 367h23l149 -23l23 43q405 -50 405 -235q238 -312 238 -408l-86 -66q-365 27 -365 129h-22q-120 -129 -301 -129q-451 58 -451 215zM449 639l22 -107h23q127 86 127 216v20l-21 109h-43q-28 0 -108 -109v-129zM555 1221q0 19 12 28q13 13 31 13 q9 0 23 -7q16 -12 32 -28l166 -168h-41l-188 115l-27 22q-8 13 -8 25z" />
<glyph unicode="&#xe1;" horiz-adv-x="1372" d="M59 600q117 367 408 367h22l150 -23l23 43q405 -50 405 -235q238 -312 238 -408l-86 -65q-365 27 -365 129h-23q-120 -129 -301 -129q-450 58 -450 215zM444 600l23 -106h22q127 86 127 215v20l-20 109h-43q-29 0 -109 -109v-129zM549 1020l168 168q14 19 31 26q9 9 22 9 q18 0 31 -13q12 -12 12 -28q0 -17 -8 -25l-27 -22l-188 -115h-41z" />
<glyph unicode="&#xe2;" horiz-adv-x="1372" d="M63 553q117 367 408 367h23l149 -23l23 43q405 -49 405 -235q238 -312 238 -408l-86 -66q-365 27 -365 129h-22q-120 -129 -301 -129q-451 58 -451 215zM449 553l22 -107h23q127 86 127 216v20l-21 109h-43q-28 0 -108 -109v-129zM532 1001v13q29 63 66 100q41 41 88 62 h6q46 -21 84 -62q37 -37 66 -100l6 -13h-12q-5 0 -17 -4q-44 51 -63 68q-19 19 -58 45l-6 8q0 4 -6 4q0 -1 -1 -2t-1 -2l-8 -8l-53 -45q-30 -27 -68 -68q-3 1 -6.5 2t-5 1.5t-2.5 0.5h-9z" />
<glyph unicode="&#xe3;" horiz-adv-x="1372" d="M63 647q117 367 408 367h23l149 -23l23 43q405 -50 405 -235q238 -312 238 -408l-86 -65q-365 27 -365 129h-22q-120 -129 -301 -129q-451 58 -451 215zM449 647l22 -106h23q127 86 127 215v20l-21 109h-43q-28 0 -108 -109v-129zM530 1159v10q0 35 9 50q9 18 32 24h56 q57 -6 82 -31q24 -24 24 -65h23q10 53 20 74q16 22 23 22h10q33 -14 33 -63q-9 -49 -31 -74q-23 -23 -55 -23q-54 15 -88 41q-31 25 -31 66h-21l-12 -76v-20h-43q-31 16 -31 65z" />
<glyph unicode="&#xe4;" horiz-adv-x="1372" d="M66 641q117 367 407 367h23l149 -23l23 43q405 -50 405 -235q238 -312 238 -408l-86 -66q-365 27 -365 130h-22q-121 -130 -301 -130q-451 58 -451 216zM451 641l22 -106h23q127 86 127 215v20l-21 109h-43q-28 0 -108 -109v-129zM535 1155q0 42 12 66q11 20 28 20 q3 3 8 4t5 2h4q16 0 35 -8q12 -7 24 -27q-6 -41 -12 -59q-9 -20 -23 -20h-57q-4 0 -10 6zM721 1155q0 47 8 66q11 20 33 20q1 4 4 5l4 1h8q20 0 33 -8q12 -9 27 -27q-8 -38 -19 -59q-9 -20 -16 -20h-60q-4 0 -10 6q-9 6 -12 16z" />
<glyph unicode="&#xe5;" horiz-adv-x="1372" d="M61 639q117 367 408 367h23l149 -23l23 43q405 -50 405 -235q238 -312 238 -408l-86 -66q-365 27 -365 129h-22q-120 -129 -302 -129q-450 58 -450 215zM446 639l23 -107h23q126 86 126 216v20l-20 109h-43q-29 0 -109 -109v-129zM594 1141h2l-2 6q0 11 4 39q8 20 12 26 q0 19 33 33q0 1 1 3t1 3q4 4 10 6h21q21 0 39 -6q22 -9 35 -26q4 0 10 -15q6 -28 10 -41q-9 -45 -29 -71q-20 -23 -49 -23h-37q-52 0 -61 66zM627 1153q2 -25 14 -41q11 -14 35 -14q53 18 53 55q2 0 2 12q-3 36 -16 49q-15 15 -35 15q-49 -15 -49 -45q-4 0 -4 -31z" />
<glyph unicode="&#xe6;" horiz-adv-x="1650" d="M88 668q119 376 420 376h20l156 -24l23 45q164 -17 274 -66q57 42 104 64q339 0 482 -180v-80q-167 -221 -482 -221q0 -148 342 -162q-35 -80 -141 -80h-4l-2 -2q-5 0 -14.5 1t-14.5 1h-6l-39 4q-209 21 -276 76q-29 15 -58 37q-122 -119 -299 -119q-462 58 -462 221z M485 668l23 -109h20q134 84 134 219v23l-23 110h-43q-29 0 -111 -110v-133zM1085 741h21l180 62v39q0 33 -80 80q-38 0 -121 -138v-43z" />
<glyph unicode="&#xe7;" horiz-adv-x="1181" d="M82 569v43q153 381 487 381q210 -20 252 -20v-43l-252 -170q-22 -119 -22 -127l22 -105h191q84 0 360 -45v-41q-82 -156 -424 -168l-10 -14l-10 -24q29 -16 59 -46l2 -2q4 -4 4 -8l2 -2q6 -29 -2 -61l-2 -8q0 -5 -2 -5l-2 -2q-30 -47 -104 -53h-2l-2 -2q-2 0 -4 2h-2 l-3 1q-4 0 -12 0.5t-20 0.5h-2q-2 0 -4 2h-2q-10 3 -23 13q-20 14 -14 36v4q4 12 15 17.5t22.5 6.5t37.5 1h11q22 9 22 16l2 3v8q-4 11 -30 18h-9q-1 0 -3 1t-3 1l-2 2q-47 21 -26 68l10 16v4q2 2 2 4l2 7q-510 73 -510 290z" />
<glyph unicode="&#xe8;" d="M70 639q0 277 319 446q368 0 514 -192v-84q-175 -236 -514 -236q0 -160 367 -172q-38 -86 -152 -86h-41q-493 46 -493 324zM350 1303q0 23 12 32q16 13 35 13q7 0 25 -7q25 -20 35 -30l182 -185h-45l-207 125q-5 6 -15.5 14.5t-13.5 10.5q-8 13 -8 27zM389 743h23l192 66 v41q0 36 -86 86q-37 0 -129 -148v-45z" />
<glyph unicode="&#xe9;" d="M39 575q0 257 293 410q331 0 469 -176v-78q-159 -215 -469 -215q0 -146 334 -158q-35 -77 -138 -77h-39q-450 43 -450 294zM293 1022l168 168q15 20 31 27q8 8 22 8q18 0 31 -13q12 -12 12 -28q0 -17 -8 -25l-27 -22l-188 -115h-41zM332 672h20l176 59v39q0 32 -79 78 q-35 0 -117 -135v-41z" />
<glyph unicode="&#xea;" d="M100 600q0 267 303 422q346 0 484 -182v-80q-167 -221 -484 -221q0 -152 345 -164q-35 -80 -142 -80h-41q-465 44 -465 305zM342 1090v12q32 72 68 104q43 43 90 64h6q42 -18 88 -64q22 -22 68 -104l6 -12h-13q-3 0 -18 -5q-31 42 -66 70q-29 29 -59 47l-6 8q0 4 -6 4 q0 -1 -1 -2t-1 -2l-9 -8q-2 -2 -21.5 -17.5t-33.5 -29.5q-34 -27 -69 -70q-3 1 -6.5 2t-5.5 2t-3 1h-8zM403 698h21l182 62v41q0 34 -82 80q-34 0 -121 -140v-43z" />
<glyph unicode="&#xeb;" d="M96 598q0 261 297 416q339 0 477 -178v-80q-163 -217 -477 -217q0 -148 340 -160q-35 -80 -139 -80h-41q-457 43 -457 299zM334 1147q0 43 12 67q12 21 29 21q3 3 7 4t5 2h4q16 0 35 -8q18 -9 27 -27q-5 -42 -13 -61q-9 -21 -24 -21h-58q-4 0 -10 6zM393 696h21l180 60 v41q0 31 -82 77q-34 0 -119 -137v-41zM522 1147q0 48 8 67q12 21 33 21q1 4 5 5l5 1h9q19 0 32 -8q12 -9 27 -27q-9 -46 -18 -61q-9 -21 -17 -21h-61q-4 0 -10 6q-9 6 -13 17z" />
<glyph unicode="&#xec;" horiz-adv-x="413" d="M66 223v475q0 25 65 66q197 -30 197 -82q16 -122 16 -180v-246q0 -20 -82 -66q-53 0 -196 33zM68 1092q0 19 12 28q13 13 31 13q8 0 22 -7q20 -15 33 -28l166 -168h-41l-189 114l-26 23q-8 13 -8 25z" />
<glyph unicode="&#xed;" horiz-adv-x="421" d="M74 225v475q0 25 65 66q197 -30 197 -82q16 -122 16 -180v-246q0 -19 -82 -65q-57 0 -196 32zM74 932l168 168q14 20 30 26q9 9 23 9q18 0 31 -13q12 -12 12 -28q0 -17 -8 -25l-27 -22l-188 -115h-41z" />
<glyph unicode="&#xee;" horiz-adv-x="407" d="M49 956v13q29 63 66 100q39 39 88 61h6q47 -21 84 -61q35 -35 65 -100l7 -13h-13q-4 0 -16 -4q-41 48 -64 68q-21 21 -57 45l-6 8q0 4 -6 4q0 -1 -1 -2t-1 -2l-8 -8l-54 -45q-24 -22 -67 -68q-3 1 -6.5 2t-5.5 1.5t-3 0.5h-8zM70 221v475q0 25 65 66q197 -30 197 -82 q16 -122 16 -180v-246q0 -20 -82 -66q-53 0 -196 33z" />
<glyph unicode="&#xef;" horiz-adv-x="434" d="M70 948q0 45 12 66q13 22 29 22l12 4h4q22 0 35 -8t24 -26l-12 -60q-9 -20 -22 -20h-58q-4 0 -10 6q-2 4 -14 16zM84 221v475q0 25 66 66q196 -30 196 -82q16 -122 16 -180v-246q0 -20 -81 -66q-54 0 -197 33zM256 948q0 50 8 66q13 22 33 22q4 4 8 4h8q20 0 33 -8 q14 -11 27 -26l-19 -60q-9 -20 -16 -20h-59q-5 0 -11 6q-8 8 -12 16z" />
<glyph unicode="&#xf1;" horiz-adv-x="1116" d="M106 455q27 510 99 510h78q43 0 77 -21l138 60q393 -43 393 -197q41 -53 117 -412q-46 -116 -117 -116q-256 0 -256 253q-49 236 -98 236q-78 -122 -78 -215v-137l-78 -99q-275 24 -275 138zM379 1141v12q0 39 10 59q10 19 39 29h61q66 -9 97 -37q28 -28 28 -76h25 q9 55 25 84t26 29h12q37 -18 37 -74q-9 -61 -34 -86q-26 -26 -66 -26q-62 17 -100 47q-35 27 -35 78h-27l-12 -88v-25h-49q-37 18 -37 74z" />
<glyph unicode="&#xf2;" horiz-adv-x="1052" d="M70 594q77 261 256 344q88 22 151 63q490 -38 490 -258q22 0 22 -63v-107q0 -234 -342 -278h-63q-514 0 -514 299zM401 1198q0 19 13 29q12 12 30 12q11 0 23 -6q16 -12 33 -29l166 -168h-41l-189 115l-26 23q-9 15 -9 24zM432 594l66 -127q85 43 127 43v84 q-24 215 -86 215h-41q-66 -144 -66 -215z" />
<glyph unicode="&#xf3;" horiz-adv-x="1052" d="M68 596q77 261 256 344q86 21 151 64q490 -38 490 -259q22 0 22 -63v-107q0 -234 -342 -278h-63q-514 0 -514 299zM397 1038l168 168q15 20 31 27q8 8 22 8q19 0 31 -12q13 -13 13 -29q0 -15 -9 -24l-26 -23l-189 -115h-41zM430 596l66 -127q85 43 127 43v84 q-24 215 -86 215h-41q-66 -144 -66 -215z" />
<glyph unicode="&#xf4;" horiz-adv-x="1052" d="M70 598q77 261 256 344q86 21 151 64q490 -38 490 -258q22 0 22 -64v-106q0 -235 -342 -279h-63q-514 0 -514 299zM379 1069v12q31 67 65 101q39 39 88 61h7q47 -21 84 -61q34 -34 65 -101l6 -12h-12q-4 0 -16 -4q-41 48 -64 68q-21 21 -57 45l-6 8q0 4 -7 4q0 -1 -1 -2 t-1 -2l-8 -8l-53 -45q-30 -27 -68 -68q-3 1 -6.5 2t-5 1.5t-2.5 0.5h-8zM432 598l66 -127q85 43 127 43v84q-24 215 -86 215h-41q-66 -144 -66 -215z" />
<glyph unicode="&#xf5;" horiz-adv-x="1052" d="M66 594q77 261 256 344q88 22 151 63q490 -38 490 -258q22 0 22 -63v-107q0 -234 -342 -278h-63q-514 0 -514 299zM348 1122v13q0 39 10 59q10 19 39 29h62q65 -9 96 -37q29 -29 29 -76h24q9 55 25 84t26 29h13q37 -18 37 -74q-9 -60 -35 -86q-27 -27 -66 -27 q-62 17 -100 47q-35 27 -35 78h-27l-12 -88v-24h-49q-37 18 -37 73zM428 594l66 -127q85 43 127 43v84q-24 215 -86 215h-41q-66 -144 -66 -215z" />
<glyph unicode="&#xf6;" horiz-adv-x="1052" d="M70 590q77 261 256 344q88 22 151 63q490 -38 490 -258q22 0 22 -63v-107q0 -234 -342 -278h-63q-514 0 -514 299zM379 1126q0 42 12 66q11 20 29 20q4 4 8 5t4 2h4q14 0 35 -9q15 -9 25 -26q-6 -38 -13 -60q-9 -20 -22 -20h-58q-4 0 -10 6zM432 590l66 -127 q85 43 127 43v84q-24 215 -86 215h-41q-66 -144 -66 -215zM565 1126q0 47 8 66q11 20 33 20q1 4 4 6l4 1h9q17 0 32 -9q14 -11 27 -26q-10 -43 -18 -60q-9 -20 -17 -20h-59q-4 0 -10 6q-10 7 -13 16z" />
<glyph unicode="&#xf8;" horiz-adv-x="1052" d="M72 596q77 261 256 344q86 21 151 64q151 -12 264 -43q108 71 134 59l59 -39q-8 -23 -51 -84q84 -60 84 -152q22 0 22 -63v-107q0 -234 -342 -278h-63q-104 0 -187 12q-13 -17 -34 -39q-68 -26 -78 -57q-83 46 -124 79t-36 48l45 49q-100 75 -100 207zM383 612 q143 147 235 234q-30 61 -71 61h-66q-86 -183 -98 -295zM471 391l10 -20q137 67 201 67v135q-1 13 -4 32t-4 26q-78 -95 -203 -240z" />
<glyph unicode="&#xf9;" d="M90 705q0 198 82 428h121q31 0 61 -62v-244q21 -286 82 -286q103 92 103 225q0 9 -21 264l82 82h41q244 0 244 -205v-121q0 -295 -367 -448q-428 0 -428 367zM356 1317q0 19 13 29q12 12 30 12q11 0 23 -6q16 -12 33 -29l166 -168h-41l-189 115l-26 22q-9 15 -9 25z" />
<glyph unicode="&#xfa;" d="M86 707q0 198 82 428h121q31 0 61 -62v-244q21 -286 82 -286q103 92 103 225q0 9 -21 264l82 82h41q244 0 244 -205v-121q0 -295 -367 -448q-428 0 -428 367zM350 1157l168 168q15 20 31 27q8 8 22 8q19 0 31 -12t12 -29t-8 -25l-26 -22l-189 -115h-41z" />
<glyph unicode="&#xfb;" d="M88 705q0 198 82 428h121q31 0 61 -62v-244q21 -286 82 -286q103 92 103 225q0 9 -21 264l82 82h41q244 0 244 -205v-121q0 -295 -367 -448q-428 0 -428 367zM332 1184v12q30 65 65 100q41 41 88 62h7q44 -20 83 -62q37 -37 66 -100l6 -12h-12q-5 0 -17 -4q-41 47 -63 67 q-21 21 -57 45l-6 8q0 5 -7 5q0 -1 -1 -2.5t-1 -2.5l-8 -8l-53 -45q-36 -32 -68 -67q-3 1 -6.5 2t-5 1.5t-2.5 0.5h-8z" />
<glyph unicode="&#xfc;" d="M86 639q0 198 82 428h121q31 0 61 -61v-244q21 -287 82 -287q103 92 103 225q0 10 -21 265l82 82h41q244 0 244 -205v-121q0 -296 -367 -449q-428 0 -428 367zM336 1184q0 41 12 65q12 21 29 21q3 4 7 5t5 1h4q16 0 35 -8q14 -8 25 -27q-5 -36 -13 -59q-9 -21 -22 -21 h-58q-4 0 -10 6zM522 1184q0 46 8 65q12 21 33 21q1 4 5 5l3 1h9q19 0 32 -8q12 -9 27 -27q-9 -41 -18 -59q-9 -21 -17 -21h-59q-4 0 -10 6q-9 6 -13 17z" />
<glyph unicode="&#xff;" d="M59 936v41q0 28 66 63q239 0 297 -147q103 -127 127 -127h20q0 190 170 340q150 -21 150 -66v-63q0 -226 -424 -1444q0 -33 -86 -86q-234 0 -234 64q111 406 297 956h-20q-363 276 -363 469zM229 1176q0 73 15 98q18 35 43 35q8 1 13.5 3.5t8.5 2.5h6q26 0 50 -12 q19 -13 36 -41q-6 -58 -18 -88q-15 -31 -35 -31h-86q-5 0 -14 12zM506 1176q0 58 14 98q15 35 47 35q6 6 13 6h14q23 0 47 -12q16 -11 39 -41q-5 -25 -27 -88q-9 -31 -24 -31h-90q-6 0 -15 12z" />
<glyph unicode="&#x152;" horiz-adv-x="2676" d="M92 735v170q0 478 676 715h125q115 0 567 -123q58 105 148 105q0 35 188 38h340q246 0 246 -57q-18 -55 -113 -55h-39q-309 0 -471 -58q-20 -214 -20 -321v-55h20q153 0 510 -58h37v-57q-79 -113 -170 -113h-321l-37 19q0 -19 -19 -19q15 -389 56 -473q139 39 227 39 q62 0 547 -76v-57l-113 -113l-188 19h-19q-178 0 -379 -37q-323 30 -448 143q-85 -60 -254 -143h-66q-1030 102 -1030 567zM535 885q0 -334 378 -463q359 169 359 483q0 441 -379 441l-125 45q-233 -208 -233 -506z" />
<glyph unicode="&#x153;" horiz-adv-x="1572" d="M63 598q80 262 256 342q90 22 152 64q290 -21 410 -109q61 55 155 106q328 0 469 -176v-77q-159 -218 -469 -218q0 -143 332 -155q-31 -78 -137 -78h-39q-198 18 -313 80q-85 -60 -238 -78h-63q-515 0 -515 299zM428 598l64 -129q87 43 126 43v86q-24 213 -83 213h-43 q-64 -134 -64 -213zM1036 688h19l176 60v38q0 31 -78 78q-38 0 -117 -137v-39z" />
<glyph unicode="&#x178;" horiz-adv-x="1542" d="M59 1444v22q20 0 66 64q295 0 444 -297q16 0 86 -107q450 319 551 340q256 -38 256 -86v-84q-177 -226 -510 -383q21 -249 21 -360v-193q0 -18 -127 -127q-43 0 -43 43l-41 -20q-297 55 -297 104v297l20 256q-309 0 -426 531zM469 1784q0 93 20 127q20 45 56 45 q21 8 26 8h9q37 0 63 -16q32 -19 49 -52q-6 -72 -24 -116q-17 -39 -43 -39h-113q-8 0 -18 16q-6 8 -25 27zM825 1784q0 80 21 127q17 45 59 45q8 8 17 8h20q30 0 59 -16q40 -35 52 -52q-19 -66 -35 -116q-12 -39 -33 -39h-115q-10 0 -20 16z" />
<glyph unicode="&#x2c6;" horiz-adv-x="722" d="M61 1120v25q58 120 119 178q71 71 160 113h10q87 -40 154 -113q71 -71 117 -178l12 -25h-23q-15 0 -26 -8q-82 94 -119 123q-69 58 -105 82q-1 3 -5 7t-5 7q0 8 -10 8q0 -3 -2 -4t-2 -4l-14 -14q-14 -10 -28.5 -22.5t-34.5 -30t-34 -29.5q-19 -14 -36.5 -31t-46.5 -48.5 t-40 -43.5q-13 8 -26 8h-15z" />
<glyph unicode="&#x2dc;" horiz-adv-x="714" d="M86 1274v18q0 63 14 88q16 28 58 43h92q101 -15 141 -55q43 -43 43 -113h37q9 68 35 125q27 43 41 43h18q53 -27 53 -108q-12 -86 -51 -127q-41 -41 -96 -41q-94 27 -149 70q-52 43 -52 114h-39l-18 -129v-37h-72q-55 27 -55 109z" />
<glyph unicode="&#x2000;" horiz-adv-x="1178" />
<glyph unicode="&#x2001;" horiz-adv-x="2357" />
<glyph unicode="&#x2002;" horiz-adv-x="1178" />
<glyph unicode="&#x2003;" horiz-adv-x="2357" />
<glyph unicode="&#x2004;" horiz-adv-x="785" />
<glyph unicode="&#x2005;" horiz-adv-x="589" />
<glyph unicode="&#x2006;" horiz-adv-x="392" />
<glyph unicode="&#x2007;" horiz-adv-x="392" />
<glyph unicode="&#x2008;" horiz-adv-x="294" />
<glyph unicode="&#x2009;" horiz-adv-x="471" />
<glyph unicode="&#x200a;" horiz-adv-x="130" />
<glyph unicode="&#x2010;" horiz-adv-x="798" d="M59 680q0 127 426 127q234 -15 234 -64v-20q-154 -86 -320 -86h-43q-140 0 -297 43z" />
<glyph unicode="&#x2011;" horiz-adv-x="798" d="M59 680q0 127 426 127q234 -15 234 -64v-20q-154 -86 -320 -86h-43q-140 0 -297 43z" />
<glyph unicode="&#x2012;" horiz-adv-x="798" d="M59 680q0 127 426 127q234 -15 234 -64v-20q-154 -86 -320 -86h-43q-140 0 -297 43z" />
<glyph unicode="&#x2013;" horiz-adv-x="1162" d="M59 680q0 127 661 127q363 -15 363 -64v-20q-239 -86 -496 -86h-67q-217 0 -461 43z" />
<glyph unicode="&#x2014;" horiz-adv-x="2186" d="M59 680q0 127 1322 127q726 -15 726 -64v-20q-478 -86 -993 -86h-133q-435 0 -922 43z" />
<glyph unicode="&#x2018;" horiz-adv-x="479" d="M59 1380v64q37 340 236 340h20q31 0 84 -84q0 -105 -170 -340q-143 20 -170 20z" />
<glyph unicode="&#x2019;" horiz-adv-x="479" d="M59 1444q0 102 170 340q150 -21 170 -21v-63q-34 -340 -233 -340h-21q-33 0 -86 84z" />
<glyph unicode="&#x201c;" horiz-adv-x="956" d="M59 1380v64q37 340 236 340h20q31 0 84 -84q0 -105 -170 -340q-143 20 -170 20zM537 1380v64q34 340 233 340h21q33 0 86 -84q0 -105 -170 -340q-143 20 -170 20z" />
<glyph unicode="&#x201d;" horiz-adv-x="956" d="M59 1444q0 102 170 340q150 -21 170 -21v-63q-34 -340 -233 -340h-21q-33 0 -86 84zM537 1444q0 102 170 340q150 -21 170 -21v-63q-37 -340 -236 -340h-20q-31 0 -84 84z" />
<glyph unicode="&#x2022;" horiz-adv-x="714" d="M59 723v84q145 213 236 213q340 0 340 -297q-49 -137 -170 -193h-23q-383 0 -383 193z" />
<glyph unicode="&#x2026;" horiz-adv-x="1665" d="M86 354l43 72q89 56 143 41l191 -184q-95 -164 -244 -80q-158 107 -133 151zM647 354l43 72q90 56 146 41l188 -184q-95 -164 -244 -80q-79 55 -112 91.5t-21 59.5zM1210 354l43 72q89 56 144 41l188 -184q-94 -163 -242 -80q-79 55 -112 91.5t-21 59.5z" />
<glyph unicode="&#x202f;" horiz-adv-x="471" />
<glyph unicode="&#x205f;" horiz-adv-x="589" />
<glyph unicode="&#x20ac;" horiz-adv-x="1605" d="M59 766q0 66 170 104q0 37 43 107q-170 12 -170 63v23q6 43 43 43h191q296 302 573 317h43q348 0 424 -149v-41h-20q-198 63 -254 63h-23q-191 0 -317 -170l190 -20v-66q-88 -43 -317 -84l-23 -43v-43l277 -43v-61q-136 -86 -297 -86h-23v-23q0 -228 297 -274h340 q88 0 320 -23v-84q-154 -86 -320 -86h-233q-744 86 -744 277q-54 0 -63 256q-107 0 -107 43z" />
<glyph unicode="&#x2122;" horiz-adv-x="2306" d="M59 1274v43q0 106 490 106h573q57 0 127 43q871 -120 871 -233q39 -163 106 -680l-106 -86q-277 0 -277 170q-20 79 -20 170h-21q-53 -170 -106 -170h-23q-274 65 -274 340h-23q0 -306 -127 -424q-317 27 -317 84q0 144 63 573l-106 23h-170l43 -617q-86 -103 -86 -127 q-361 27 -361 168v43q0 269 41 533q-63 0 -297 41z" />
<glyph unicode="&#x25fc;" horiz-adv-x="1146" d="M0 0v1147h1147v-1147h-1147z" />
</font>
</defs>
</svg>
