<?xml version="1.0" standalone="no"?>
<!DOCTYPE svg PUBLIC "-//W3C//DTD SVG 1.1//EN" "http://www.w3.org/Graphics/SVG/1.1/DTD/svg11.dtd" >
<svg xmlns="http://www.w3.org/2000/svg">
<metadata></metadata>
<defs>
<font id="pendlefont-mediumregular" horiz-adv-x="1542" >
<font-face units-per-em="2048" ascent="1638" descent="-410" />
<missing-glyph horiz-adv-x="722" />
<glyph horiz-adv-x="0" />
<glyph horiz-adv-x="682" />
<glyph unicode=" "  horiz-adv-x="722" />
<glyph unicode="&#x09;" horiz-adv-x="722" />
<glyph unicode="&#xa0;" horiz-adv-x="722" />
<glyph unicode="!" horiz-adv-x="501" d="M60 42q62 107 127 107q202 0 234 -107v-42q0 -153 -149 -191q-212 48 -212 127v106zM60 680v1083q0 31 64 64q233 0 233 -361q0 -210 -42 -574q42 -267 42 -297q-31 -85 -63 -85h-22q-170 0 -170 127q-42 0 -42 43z" />
<glyph unicode="&#x22;" horiz-adv-x="565" d="M60 1232v212q7 43 42 43q128 0 128 -191v-106h-128q-42 0 -42 42zM294 1338v170h21q170 0 170 -297l-43 -21h-63q-85 34 -85 148z" />
<glyph unicode="#" horiz-adv-x="1075" d="M60 658v22q0 29 127 63q43 135 43 170h-128q-42 0 -42 43q0 42 234 64q57 254 106 254h21q43 -6 43 -42q-43 -219 -43 -234l43 22h148l64 233h85q42 -6 42 -42v-170l-21 -43l106 -21v-42q-148 0 -148 -149q0 -48 -22 -85q138 0 277 -21v-43q-319 -34 -319 -106 q-53 -212 -106 -212l-149 21v21q0 28 43 234v21h-170q-16 -106 -64 -106h-64q-42 0 -42 64v63q-40 21 -64 21zM336 701h149q41 0 85 212h-149q-47 0 -85 -212z" />
<glyph unicode="$" horiz-adv-x="1181" d="M15 221v69q7 46 46 46q88 0 277 -138h46v368l23 162q-162 0 -300 277v47q0 212 323 322v277q7 46 47 46h23q70 0 92 -300h69v277q8 47 46 47h23q77 0 92 -369q124 0 254 -139v-23h-22l-232 69q14 -531 47 -531q277 -100 277 -277v-46q0 -162 -347 -416v-322 q0 -33 -69 -70h-23q-92 0 -92 392h-46l-23 -276v-92q0 -36 -92 -92q-92 30 -92 207l22 277q-352 124 -369 208zM338 1075q24 -140 69 -140q23 210 23 255q-47 -11 -92 -115zM569 128q46 23 70 23v369l22 116l-46 22h-23l-23 -115v-415zM592 798h69v507h-69v-507zM822 290h24 l23 115v115h-47v-230z" />
<glyph unicode="%" horiz-adv-x="1606" d="M60 1083v170q100 340 276 340q0 21 21 21q319 0 319 -233v-64q-74 -404 -319 -404q-226 0 -297 170zM124 191v43q299 406 743 913q209 379 404 574h21l149 -22v-85q-137 -225 -638 -871q0 -44 -467 -658q-154 0 -191 106h-21zM315 1105q7 -43 42 -43q107 170 107 255v21 q0 106 -43 106q-106 -39 -106 -170v-169zM952 255v212q150 255 361 255q143 0 213 -255v-170q-76 -276 -255 -276q-319 51 -319 234zM1186 234q0 -31 64 -64q63 78 63 149v148q0 43 -42 43h-64l-21 -106v-170z" />
<glyph unicode="&#x26;" horiz-adv-x="1372" d="M60 297v107q0 104 212 382q-43 9 -85 106q0 43 22 43l-22 212v106q119 468 319 468h64q347 0 488 -319l22 -149q0 -273 -489 -510v-21q0 -24 191 -212q130 106 191 106h85l43 -21q0 21 21 21v-21q0 -21 -21 -21q21 -42 21 -64l-127 -213q297 -187 297 -233 q-21 -40 -21 -64h-106q-110 0 -298 106q-327 -148 -361 -148q-334 0 -446 339zM357 361q43 -150 43 -170h21l191 149q-191 227 -191 255q-64 -21 -64 -128v-106zM421 1168q21 -186 21 -212q383 96 383 191v106q-36 255 -149 255q-255 -50 -255 -340z" />
<glyph unicode="'" horiz-adv-x="374" d="M60 1168v106q0 157 64 170q170 0 170 -212v-85q0 -42 -43 -42h-21q-156 0 -170 63z" />
<glyph unicode="(" horiz-adv-x="629" d="M70 769q0 415 359 860h43v-22q-191 -504 -191 -725v-136q0 -278 275 -679v-45l-43 -23q-443 239 -443 770z" />
<glyph unicode=")" horiz-adv-x="565" d="M95 49q238 398 238 787q0 192 -199 764h120q238 -343 238 -764v-24q-44 -718 -318 -813h-40q-39 0 -39 50z" />
<glyph unicode="*" horiz-adv-x="1202" d="M60 828v64l319 64v21q-90 0 -149 191l42 22q44 0 149 -43q0 234 64 234q149 0 149 -149q21 -152 21 -170l191 170h85q0 -59 -106 -234l233 -42v-43q-190 -42 -276 -42q1 -22 340 -297q0 -31 -64 -64q-177 0 -403 191v-212q0 -43 -43 -43h-127q-64 0 -64 149l-106 -21h-43 q-30 0 -63 63q212 144 212 170v21h-85q-72 0 -106 -21l-128 21h-42z" />
<glyph unicode="+" horiz-adv-x="841" d="M60 765v21l42 85l107 -21h106q27 276 85 276q127 0 127 -149q0 -170 128 -170h106v-64q-33 0 -85 -42h-127v-212q0 -31 -64 -64h-43q-111 0 -127 64v191q0 42 -255 85z" />
<glyph unicode="," horiz-adv-x="522" d="M60 -42q101 446 212 446q170 -23 170 -64v-21q-112 -553 -255 -553q0 -21 -21 -21q-26 0 -106 128v85z" />
<glyph unicode="-" horiz-adv-x="650" d="M60 722v21q0 31 64 64h170q276 0 276 -64v-21q-170 -42 -255 -42q-55 0 -255 42z" />
<glyph unicode="." horiz-adv-x="586" d="M60 64v106q0 117 149 212h106q127 -13 127 -63v-22l-21 -42q85 0 85 -43v-63q-114 -191 -212 -191q-234 48 -234 106z" />
<glyph unicode="/" horiz-adv-x="671" d="M76 90q146 765 392 1291q123 -19 123 -88q-269 -1217 -330 -1291h-20q-165 30 -165 88z" />
<glyph unicode="0" horiz-adv-x="1627" d="M60 722q27 289 276 637q231 192 340 192h106q392 -53 510 -192q255 -288 255 -573q0 -484 -510 -701q-115 -21 -234 -21q-415 0 -658 382q-85 148 -85 276zM357 680q0 -242 383 -446h42q311 0 446 488q-156 595 -318 595q0 54 -85 64q-468 -119 -468 -616v-85z" />
<glyph unicode="1" horiz-adv-x="947" d="M60 24v21q7 43 42 43h255l22 106v786l-43 -21h-85q-58 0 -127 42q58 143 318 340h22q191 0 191 -510q21 -517 21 -573q-21 -117 -21 -170q212 0 212 -64v-21q-145 -43 -255 -43q-259 0 -552 64z" />
<glyph unicode="2" horiz-adv-x="1223" d="M60 913q134 488 404 488h63q425 0 425 -340q-14 -301 -361 -849v-64h191q112 0 361 -21v-43q0 -33 -85 -85h-191q-71 0 -106 -21q-489 38 -489 106l383 722q42 160 42 298v63q-74 128 -106 128h-21q-197 0 -383 -446l-42 -21q-33 0 -85 85z" />
<glyph unicode="3" horiz-adv-x="1308" d="M60 251q21 64 42 64q513 -191 574 -191h42q170 0 170 170v106l-63 85l-191 -22q-55 0 -234 43q0 149 255 149q233 101 233 361v21q0 166 -212 297q-117 0 -404 -212q-34 21 -106 21v85q186 234 425 234q372 0 510 -234q64 -73 64 -212q0 -209 -192 -404q255 -48 255 -234 q0 -424 -382 -424h-43q-658 63 -743 297z" />
<glyph unicode="4" horiz-adv-x="1202" d="M60 633v170q27 515 127 531q144 -12 192 -85q-22 -207 -22 -319v-85l22 -148h212v21q0 685 85 743q191 0 191 -297q9 -510 43 -510q147 -64 212 -64v-42q0 -33 -85 -85l-149 21q0 -446 -106 -488h-42q-156 0 -170 63q21 319 21 468h-106q-425 0 -425 106z" />
<glyph unicode="5" horiz-adv-x="1202" d="M60 231v85q8 42 42 42q356 -233 425 -233q298 73 298 276q0 181 -128 276q-210 -85 -233 -85q-362 0 -362 340v127q0 234 362 234q14 0 276 21l127 -21v-21q0 -69 -467 -128v-149q0 -53 42 -191q31 0 213 22q467 0 467 -404q-135 -425 -446 -425q-48 0 -85 -21 q-531 76 -531 255z" />
<glyph unicode="6" horiz-adv-x="1266" d="M60 477q0 633 765 934h21v-42q-489 -424 -489 -722v-192l22 -148h21q228 233 425 233q361 -34 361 -127v-85q0 -266 -383 -340q-639 0 -722 404zM612 137h149q149 81 149 234l-43 21q-129 -44 -255 -213v-42z" />
<glyph unicode="7" horiz-adv-x="1308" d="M60 1097q42 0 42 43l255 -22h404q467 -17 467 -127q0 -174 -637 -998l-255 42v64q443 591 616 871l-42 21h-361q-319 0 -319 42q-41 -21 -64 -21q-97 40 -106 85z" />
<glyph unicode="8" horiz-adv-x="1436" d="M60 339v63q0 284 361 489h21v21q-212 29 -212 191v64q0 151 255 319h42q595 0 595 -234v-106q0 -93 -170 -255q404 -77 404 -404q0 -465 -595 -531q-379 0 -680 276zM357 424q79 -319 319 -319q361 55 361 361q0 252 -361 382q-319 -145 -319 -424zM570 1103 q0 -30 64 -63q148 0 148 148q-29 149 -85 149h-63q-64 -21 -64 -128v-106z" />
<glyph unicode="9" horiz-adv-x="1096" d="M60 913q0 311 425 383h170q49 -43 297 -106q43 -179 43 -319l-22 -85q22 0 22 -21h-22l22 -43v-361q0 -21 -22 -21q22 -20 43 -255l-106 -85h-22q-212 0 -212 170q-21 134 -21 297v255q-77 -42 -191 -42q-404 0 -404 233zM336 935l21 -106h22q255 49 255 254 q-22 37 -22 85q22 41 22 64q-298 -76 -298 -255v-42z" />
<glyph unicode=":" horiz-adv-x="650" d="M60 871v64q109 148 212 148q222 -42 234 -42v-85q0 -72 -191 -191q-182 0 -255 106zM145 127v213q0 33 85 85q319 0 319 -149q21 -41 21 -64q0 -126 -128 -212q-297 55 -297 127z" />
<glyph unicode=";" horiz-adv-x="607" d="M60 -21q17 258 212 616h192q42 -7 42 -43l-255 -616h-64q-57 0 -127 43zM81 1062q4 52 170 191q234 0 276 -212v-21q0 -116 -106 -170h-85q-116 0 -234 63z" />
<glyph unicode="&#x3c;" horiz-adv-x="990" d="M60 956q11 71 340 212q218 170 318 170h22q42 -6 42 -42q-265 -240 -446 -319v-42q574 -283 574 -319v-42h-85q-486 100 -765 382z" />
<glyph unicode="=" horiz-adv-x="947" d="M60 595l21 42q286 -21 425 -21q53 0 170 21q79 -21 191 -21v-64q-189 -42 -340 -42q-467 12 -467 85zM81 786v42l21 43l149 -21h85q88 0 234 21q129 -43 170 -43v-63h-22q-144 0 -361 -22z" />
<glyph unicode="&#x3e;" horiz-adv-x="947" d="M60 1168q21 40 21 64h43q503 -86 743 -297v-43q-292 -382 -552 -382l-149 21v21q0 30 361 234q64 58 64 149q-171 101 -531 233z" />
<glyph unicode="?" horiz-adv-x="1088" d="M83 1162q41 204 119 288q118 136 252 151h135q305 0 305 -151q58 0 84 -186v-203q-122 -153 -321 -254l-17 -84v-270q0 -25 -51 -51h-16q-169 0 -169 136v151q0 184 354 439l17 84v35q-39 185 -186 185q-270 -38 -270 -203q0 -236 -68 -236h-67q-50 5 -101 169zM454 149 q68 84 119 84q219 -45 219 -118q0 -16 17 -50q0 -90 -152 -119q-203 21 -203 203z" />
<glyph unicode="@" horiz-adv-x="1627" d="M60 722v21q0 637 807 744h21q638 0 638 -510q21 0 21 -191q-88 -319 -255 -319h-64q-211 0 -276 191q-176 -84 -191 -84q-276 0 -276 276q0 224 255 340q38 21 85 21h42l106 -21v-64l-42 21h-21q-196 0 -234 -276v-64l21 -106h43q233 143 233 425q192 0 192 -128v-212 q0 -53 42 -191q64 0 106 191v127q0 468 -340 468h-63q-595 -114 -595 -553v-21q0 -399 382 -637h64q561 149 680 149q-232 -277 -659 -277q-576 0 -722 680z" />
<glyph unicode="A" d="M60 0q390 1614 510 1614q31 85 64 85q254 0 254 -148q191 -600 446 -1211q0 -47 128 -425v-21q0 -43 -43 -43h-106q-55 0 -255 723l-42 42q-544 -21 -616 -21q-61 -185 -170 -659l-43 -21q-127 0 -127 85zM464 765h170q106 0 318 21v21q-190 430 -255 722h-21 q0 -74 -212 -722v-42z" />
<glyph unicode="B" horiz-adv-x="1606" d="M60 1190v127q55 361 170 361q41 21 64 21q701 0 701 -170q191 -102 191 -318v-149q-73 -127 -128 -127v-22q362 0 468 -339q0 -234 -468 -553l-233 -127q-189 21 -234 42l-127 -42q-319 60 -319 191q0 81 -64 828l21 43q-42 82 -42 234zM272 1147q16 -297 64 -297 q637 61 637 297q0 368 -488 425q-191 0 -191 -85q0 -127 -22 -340zM336 701q43 -298 43 -425v-234h42q435 0 722 255q47 0 128 213q-97 297 -298 297h-42q-49 0 -467 -127h-22z" />
<glyph unicode="C" horiz-adv-x="1563" d="M60 574v127q0 338 382 786q292 170 595 170q117 -21 170 -21v-43q0 -36 -319 -106q-573 -264 -573 -637v-149q0 -207 340 -531q219 -64 446 -64h21q28 0 234 43h85q42 -7 42 -43q-70 -148 -276 -148h-64q-1019 129 -1019 424q-48 0 -64 192z" />
<glyph unicode="D" horiz-adv-x="1457" d="M60 510q42 214 42 255l-21 42q43 218 43 383q-43 193 -43 233q39 143 191 191q619 -63 786 -191q319 -270 319 -658v-64q-185 -531 -425 -531q-296 -212 -531 -212l-127 21q-41 -21 -64 -21q-105 0 -149 212l21 42q-21 42 -21 64l21 43q-42 97 -42 191zM315 106 q481 0 722 510l-21 42l21 107q0 312 -403 637q-229 64 -277 64h-42v-22q0 -414 21 -1274q-21 -40 -21 -64z" />
<glyph unicode="E" horiz-adv-x="1245" d="M60 1359l42 107q-42 0 -42 42q21 40 21 64l701 42q319 -34 319 -85q-40 -97 -85 -106h-680l-42 21q0 -21 -22 -21l22 -106v-467q462 0 764 -64v-128q-415 22 -637 22q-16 0 -127 21q0 -181 21 -574q-21 0 -21 -21q42 0 42 -42q829 -28 829 -106q0 -93 -404 -107 q-221 0 -659 85v722q0 310 -42 701z" />
<glyph unicode="F" horiz-adv-x="1372" d="M60 1126l21 42q-21 40 -21 64q21 340 85 340h106q479 42 510 42h21q510 -14 510 -63q0 -92 -276 -128h-446q-276 -15 -276 -85v-318h21q147 0 552 21q234 0 234 -191q-294 -128 -722 -128q-37 21 -85 21l42 -254q-21 -42 -21 -64l21 -43l-21 -42q0 -21 21 -21l-21 -107 q21 -187 21 -233q-42 0 -42 -64h-43q-170 0 -170 297q-21 688 -21 914z" />
<glyph unicode="G" horiz-adv-x="1499" d="M60 701q0 620 680 892h106q289 0 319 -191l-43 -21h-191q-418 0 -637 -574q0 -376 382 -637h149q297 68 297 297q0 190 -170 276h-64v-127q0 -110 -63 -127q-213 0 -213 339q14 128 64 128q139 0 191 -85q531 -43 531 -340q21 0 21 -85v-85q0 -253 -552 -403h-170 q-435 0 -595 552q-42 138 -42 191z" />
<glyph unicode="H" horiz-adv-x="1393" d="M60 361v340q34 913 127 913q170 0 170 -212v-361l680 21v149q0 315 106 425q40 21 64 21l106 -21v-553q0 -539 -42 -871q42 -85 42 -148l-63 -43q-213 0 -213 361v468h-127q-150 0 -553 -64v-170q0 -48 22 -85l-22 -42l22 -43l-22 -42q22 -41 22 -64h-22l22 -43v-63 q-39 -48 -64 -213l-43 -21q-170 0 -170 170z" />
<glyph unicode="I" horiz-adv-x="1266" d="M60 1487q21 41 21 64h659q135 0 297 -64v-85q0 -31 -64 -64l-255 21v-1168h107q184 0 361 -85v-42q0 -85 -595 -85q-299 0 -510 106v21q0 56 170 85h170q21 0 21 -21q40 21 64 21q0 85 -42 276h21q-21 41 -21 64q0 121 -22 297q43 386 43 574h-106q-319 0 -319 85z" />
<glyph unicode="J" horiz-adv-x="1436" d="M60 552l64 43q212 0 212 -255q82 -118 191 -170q298 163 298 595v63q0 583 -128 616q-235 23 -403 64v64q0 33 85 64q183 -22 233 -22q149 0 446 43q249 -44 298 -85q0 -73 -64 -170l-106 21h-106q-43 -6 -43 -42q0 -88 43 -276q-67 -1084 -425 -1084h-43 q-488 74 -488 298q-64 198 -64 233z" />
<glyph unicode="K" horiz-adv-x="1308" d="M60 404q21 40 21 63l-21 43q0 21 21 21l-21 106q0 23 21 64l-21 42q0 22 21 22l-21 106l21 106l-21 43q21 38 21 85l-21 42l21 43q-21 40 -21 63h21l-21 43l21 106q0 21 -21 21q21 298 85 298h127q43 -7 43 -43v-127h64l-22 -213v-276h22q0 60 488 531h64l106 -21v-21 q-383 -489 -403 -489q317 -641 552 -956q0 -79 42 -127v-43q0 -42 -42 -42h-85q-67 0 -659 871v21h-21q-64 -21 -64 -128v-573l-21 -106q-191 0 -191 148q-48 0 -85 277z" />
<glyph unicode="L" horiz-adv-x="1436" d="M60 1317v191q0 33 85 85h64l42 -21q7 42 43 42q127 -21 127 -63v-765q70 -574 149 -574q365 22 446 22q340 -22 340 -85v-22q-175 -148 -468 -148h-254q-468 0 -468 340h-21l21 106v64l-21 127q21 38 21 85q-66 453 -106 616z" />
<glyph unicode="M" horiz-adv-x="1797" d="M60 42v43q0 249 42 340q-21 180 -21 297v21q64 746 255 808q262 0 319 -192q170 -227 170 -276q36 0 127 340q158 137 213 276q276 0 276 -191l233 -1402q43 -6 43 -42v-22q0 -30 -64 -63h-21q-255 0 -255 340l-64 297l21 42l-127 701h-21q-163 -637 -234 -637h-106 q-170 0 -319 425l-85 85q0 -76 -85 -637q22 -232 22 -425v-149q0 -114 -107 -170q-212 51 -212 191z" />
<glyph unicode="N" horiz-adv-x="1436" d="M60 21v1275q93 340 170 340q282 0 404 -425q283 -700 403 -892h21v892q14 318 149 318q135 -42 149 -42q-22 -207 -22 -319v-1104q0 -106 -106 -191q-252 0 -488 467q-166 216 -340 807q-43 -7 -43 -42v-213q-42 -478 -42 -510v-255q0 -114 -85 -148q-78 42 -170 42z" />
<glyph unicode="O" horiz-adv-x="1754" d="M60 552h21l-21 43q0 428 149 616q0 135 297 318q0 32 128 107h169q388 0 680 -319q99 0 191 -510q-160 -871 -701 -871h-339q-474 0 -574 616zM357 637q42 -488 446 -488q489 163 489 488q21 0 42 149q-80 573 -488 573q-446 -147 -446 -403q-37 0 -43 -319z" />
<glyph unicode="P" horiz-adv-x="1436" d="M60 149v849q0 404 64 468v106q323 191 361 191q709 -33 871 -446q-115 -331 -234 -382q-9 -68 -425 -170h-297v-276q0 -135 21 -319q-21 -224 -85 -276q-276 0 -276 255zM400 998q6 -42 42 -42h128q425 134 425 234q0 231 -510 276h-21q-31 0 -64 -64v-404z" />
<glyph unicode="Q" horiz-adv-x="1712" d="M60 765q116 701 361 701q277 191 425 191h85q490 0 658 -552q43 0 43 -277q0 -302 -234 -552q170 -242 170 -276q-21 -40 -21 -64q-297 14 -297 170l-64 43h-21q-112 -85 -234 -85h-43q-544 0 -743 382q-64 107 -85 319zM442 828q0 -406 404 -552h85q72 0 149 64 q-63 109 -107 340l85 63q213 -42 213 -212h42q64 189 64 319q0 436 -425 594q-488 -86 -488 -467q-22 0 -22 -149z" />
<glyph unicode="R" d="M60 1444v43q88 234 361 234q0 21 85 21h21q659 -56 659 -361v-340q-196 -238 -383 -276v-43q186 0 659 -467v-64l-64 -42h-85q-111 0 -340 276q-271 105 -509 297h-43v-42q0 -175 64 -574v-64l-64 -84q-212 0 -212 276q-149 849 -149 1210zM336 1402l43 -425h339 q107 0 149 106v107q-90 361 -297 361q-142 0 -234 -149z" />
<glyph unicode="S" horiz-adv-x="1436" d="M60 998h21l-21 43v21q0 416 510 616l127 21q21 0 21 -21l107 21q330 0 531 -276v-42l-64 -43q-120 0 -404 191q-362 0 -531 -276q0 -196 255 -403q553 -234 553 -510v-128q-228 -276 -447 -276h-84q-218 0 -404 191v85h42v43l-42 64v21q211 -169 446 -213q196 0 276 192 q0 181 -595 382q-297 193 -297 297z" />
<glyph unicode="T" horiz-adv-x="1521" d="M60 1551v21q0 74 531 106h234q594 -36 594 -170v-64q22 0 22 -21q-31 -85 -64 -85h-64q-54 0 -255 64h-170v-489q0 -21 -21 -21l21 -42v-404q0 -72 22 -106l-22 -128v-254l-42 -64q-212 0 -212 170v127q0 21 21 21l-21 43q0 21 21 21l-21 43v488q0 181 21 574h-255 q-136 0 -170 85q-170 38 -170 85z" />
<glyph unicode="U" d="M60 1062v489q0 31 127 106h64q64 -13 64 -170v-191q0 -64 -21 -64l21 -106v-298q0 -500 340 -807q41 -21 63 -21q404 83 404 637q21 0 21 170l-21 85q37 56 64 616q16 0 64 64q169 -13 169 -64v-85q43 -307 43 -340v-212q0 -775 -531 -1020h-191q-638 167 -638 489v42 q0 53 -42 680z" />
<glyph unicode="V" horiz-adv-x="1393" d="M60 1593q0 33 85 85h42q107 0 107 -106q128 -637 403 -1275h21q295 886 362 1190l63 42h128q42 -6 42 -42q0 -218 -488 -1508q-91 -64 -170 -64q-178 0 -361 765q-234 687 -234 913z" />
<glyph unicode="W" horiz-adv-x="2052" d="M60 1551l64 42l106 -21q41 21 64 21l21 -42l-21 -43q69 0 127 -573q213 -380 213 -553q36 0 191 468q69 63 106 63q32 0 191 -42v-106q0 -62 170 -531h21q168 563 446 1295q213 -12 213 -63q-64 -293 -255 -808q-187 -632 -340 -785q-231 0 -297 191q-128 206 -128 255 h-42q-108 -188 -149 -340q-43 0 -43 -21q-300 0 -382 318q-79 0 -234 935q0 70 -42 340z" />
<glyph unicode="X" horiz-adv-x="1287" d="M60 1487q0 112 106 170q191 0 191 -170h-21q207 -361 319 -446q40 182 382 510q77 -43 170 -43v-64l-404 -679v-22q164 -333 404 -594v-43q0 -30 -64 -64h-85q-239 0 -382 425h-42q-133 -403 -213 -403h-21q-191 0 -191 170q152 251 233 531q-195 310 -382 722z" />
<glyph unicode="Y" horiz-adv-x="1372" d="M60 1678l42 21h22q183 0 255 -170q246 -290 297 -467h21v43q-21 0 -21 21q252 243 382 573q40 22 64 22q148 -22 170 -22q0 -194 -425 -871q-64 -107 -64 -212v-510q0 -114 -85 -148h-21q-120 0 -148 106q21 443 21 722q-510 606 -510 892z" />
<glyph unicode="Z" horiz-adv-x="1606" d="M60 1487v64q8 42 42 42h404q258 0 807 -85l43 21q148 -42 148 -63q0 -137 -977 -1275v-42h43l764 63q192 -16 192 -63q-44 -191 -107 -191q-169 42 -276 42q-411 -42 -446 -42q-21 0 -361 42l-42 -21q-130 42 -170 42v21q0 78 255 340q701 830 786 999q-47 0 -85 21 q-168 -43 -425 -43q-130 0 -595 128z" />
<glyph unicode="[" horiz-adv-x="714" d="M11 258v677q0 678 198 678h175l153 -28v-57q-263 0 -263 -197q-13 -65 -44 -736q23 -110 23 -226v-168l21 -57l110 29h220v-58q0 -92 -286 -113q-307 0 -307 256z" />
<glyph unicode="\" horiz-adv-x="671" d="M60 1444l42 22q177 0 255 -510l234 -531l-64 -43q-288 0 -467 1062z" />
<glyph unicode="]" horiz-adv-x="820" d="M108 109v26l19 52l296 -52q79 748 79 896q0 474 -98 474q-94 0 -237 80q20 51 20 79q551 0 551 -211v-317q-78 -1132 -177 -1133h-119q-334 25 -334 106z" />
<glyph unicode="^" horiz-adv-x="1561" />
<glyph unicode="_" horiz-adv-x="1499" d="M60 64v21q0 42 64 42q406 0 1232 22q40 -22 63 -22v-42q-227 -43 -488 -43h-659z" />
<glyph unicode="`" horiz-adv-x="601" d="M60 1363q0 31 20.5 51t53.5 20q21 0 41.5 -12.5t54.5 -46.5l291 -296h-69l-330 202q-62 41 -62 82z" />
<glyph unicode="a" horiz-adv-x="1351" d="M60 340q0 322 446 658q106 64 170 64q203 0 340 -64q0 22 21 22q0 -374 234 -999q0 -30 -64 -63q-191 0 -255 169q-42 161 -42 192q-250 -298 -383 -298q-467 75 -467 319zM315 361q36 -191 191 -191q255 274 255 595v170h-21q-266 -122 -361 -383q-38 0 -64 -191z" />
<glyph unicode="b" horiz-adv-x="990" d="M60 1020v212q0 506 127 552q85 -42 149 -42q-21 -458 -21 -680v-276l64 42h85q339 0 446 -297v-255q-111 -340 -468 -340q-46 0 -233 -21q-38 0 -128 43q-21 735 -21 1062zM357 85h128l170 170v191q0 118 -149 234q-149 -191 -149 -595z" />
<glyph unicode="c" horiz-adv-x="1011" d="M60 489v42q100 262 467 404q41 0 255 42q149 -21 149 -64v-21q0 -34 -382 -127q-234 -127 -234 -298v-21q0 -319 531 -319v-21l-128 -106q-282 28 -594 212q-64 103 -64 277z" />
<glyph unicode="d" horiz-adv-x="990" d="M60 340q0 289 595 446v170l-43 149h22l-22 42q0 64 22 64l-22 106q16 234 85 234h21q170 0 170 -128q22 -573 22 -956q-169 -418 -446 -531q-404 38 -404 404zM336 297q0 -157 64 -170q121 0 255 425v64q-256 -85 -319 -212v-107z" />
<glyph unicode="e" horiz-adv-x="1117" d="M60 340v234q80 339 446 339q0 22 170 22q255 0 255 -170v-128q0 -21 -21 -21l21 -42q0 -113 -574 -192q89 -233 319 -233h21q136 85 213 85h21l106 -22v-21q0 -129 -170 -191h-212q-468 0 -595 340zM357 574l255 63v106q-255 -29 -255 -169z" />
<glyph unicode="f" horiz-adv-x="1308" d="M60 701v42q21 64 127 64h85q22 0 22 -21q35 21 106 21q21 212 21 319v233q43 234 234 234h63q374 0 510 -297v-85q0 -31 -63 -64h-22q-117 0 -361 319q-61 -3 -106 -128l21 -42v-170q0 -120 -42 -319l106 21h127q340 0 340 -63q0 -80 -573 -107v-191q0 -58 63 -403 l-63 -43h-43q-211 0 -233 553q21 40 21 63z" />
<glyph unicode="g" horiz-adv-x="1105" d="M-165 -63h42q229 -91 447 -234q211 -106 233 -106q170 81 170 213q0 110 -21 361q-140 -124 -297 -170q-319 40 -319 255q0 504 467 573h21q298 0 298 -233q21 0 21 -43h-21q100 -237 149 -701q0 -267 -425 -446q-276 65 -701 340q0 64 -64 64v42q0 21 21 21l-21 43v21z M345 234q6 -42 42 -42q155 100 213 276q-27 213 -85 213q-115 -68 -170 -319v-128z" />
<glyph unicode="h" horiz-adv-x="1075" d="M60 1168q29 446 106 446h128q0 -48 21 -85q-21 -276 -21 -446v-85q0 -150 42 -233q40 21 64 21q312 0 425 -149q126 -262 170 -616h-22l22 -42l-64 -106q-191 0 -191 127q-85 521 -234 637q-106 -242 -106 -403l21 -255l-64 -43q-212 0 -212 149q-85 571 -85 1083z" />
<glyph unicode="i" horiz-adv-x="522" d="M101 1196v53q0 137 88 176q183 0 248 -141v-140q0 -24 -89 -89q-247 34 -247 141zM135 212v85h20q-9 18 -14 34t-5 23l-1 6q0 15 2.5 17.5t17.5 2.5l-20 107v297q0 63 28.5 108t76.5 62q48 0 101.5 -11t68.5 -11l-21 -148v-404q0 -168 21 -317l-106 -63q-78 0 -123.5 58 t-45.5 154z" />
<glyph unicode="j" horiz-adv-x="905" d="M60 -191q0 74 170 127q202 -403 340 -403v21l21 127v213q-64 388 -64 743v21q14 128 64 128h127q43 -7 43 -43v-233q64 -390 64 -744v-127q0 -190 -170 -276h-43q-425 107 -425 233q-127 100 -127 213zM421 1168v64q0 166 106 212q220 0 298 -170v-169q0 -29 -107 -107 q-297 40 -297 170z" />
<glyph unicode="k" horiz-adv-x="1138" d="M60 1636q49 127 85 127h127l43 -21l-21 -106v-43q42 -360 42 -403v-192h21q0 54 277 340h63l106 -21v-21q0 -90 -424 -595v-64q112 0 297 -233q346 -148 382 -192q-31 -85 -63 -85q-195 0 -616 255q42 -170 42 -361v-21q0 -31 -64 -64h-148q-31 0 -64 64q-21 429 -21 595 q-43 0 -43 42v340q0 267 -21 659z" />
<glyph unicode="l" horiz-adv-x="459" d="M60 64v318q42 362 42 404v637q0 255 85 255q170 0 170 -127v-595l22 -106h-22q0 -22 22 -22q-43 -227 -43 -488v-213q0 -114 -85 -148h-42q-115 0 -149 85z" />
<glyph unicode="m" horiz-adv-x="1436" d="M60 234v297q0 361 85 361q170 0 170 -106h21q6 85 85 85q276 0 276 -106h43q0 106 148 106q300 0 383 -425l85 -297q-22 -85 -85 -85q-200 0 -255 361q-35 0 -64 149h-64q-51 -468 -106 -468q-212 0 -212 255q0 38 -64 276h-21q-102 0 -191 -573q-234 0 -234 170z" />
<glyph unicode="n" horiz-adv-x="1096" d="M60 489v382q0 115 85 149l616 -85q255 -358 255 -659q0 -55 -64 -234h-64q-191 0 -191 447q-97 241 -191 339q-191 -462 -191 -722h-21q-213 0 -213 149q0 22 21 64q-42 76 -42 170z" />
<glyph unicode="o" horiz-adv-x="1202" d="M60 319v233q0 164 361 425q101 64 191 64q322 0 468 -255l42 -191q-67 -574 -488 -574h-43q-368 0 -531 298zM357 467q0 -203 192 -276q201 0 276 383q-87 265 -170 297q-298 -186 -298 -340v-64z" />
<glyph unicode="p" horiz-adv-x="1011" d="M60 382q21 321 21 446q174 213 298 213h63q412 0 489 -446v-64q0 -186 -446 -489q-69 -42 -106 -42v-276q42 -310 42 -340q0 -33 -85 -85q-212 0 -212 255q-43 188 -64 828zM379 255q139 89 233 234v106q0 135 -170 255q-63 -144 -63 -234v-361z" />
<glyph unicode="q" horiz-adv-x="1414" d="M60 255v85q77 207 340 425q292 148 425 148q212 0 212 -170v-21q0 -162 -85 -764l43 -22q125 234 255 234q0 -43 84 -43v-21q0 -51 -276 -595q0 -100 -148 -233v-21q-298 28 -298 106v255l22 127l-22 43q43 145 43 254v22h-21q-109 -64 -213 -64q-361 43 -361 255z M336 276l64 -106q207 82 297 255v276q-361 -226 -361 -425z" />
<glyph unicode="r" horiz-adv-x="883" d="M60 212q42 723 276 744q467 -15 467 -298q-184 0 -339 85q-60 -157 -85 -169l21 -43v-319l21 -127q-64 -82 -64 -106q-276 0 -276 233h-21z" />
<glyph unicode="s" horiz-adv-x="1075" d="M60 42v22q0 66 404 170q106 61 106 85v21q0 36 -361 85q-149 92 -149 276q133 340 552 340q122 0 383 -85v-21l-22 -107l-318 64q-276 -63 -276 -149v-85q13 -127 63 -127h85q276 0 340 -127v-22q0 -284 -531 -382h-64q-194 42 -212 42z" />
<glyph unicode="t" horiz-adv-x="1266" d="M60 913q43 85 106 85l149 -42q0 21 21 21v-42l170 42l-21 43q21 40 21 63l-21 43q0 21 21 21l-21 106q0 23 21 64l-21 127v43q26 212 85 212q191 0 191 -63l21 -128h-21l21 -42v-425q19 0 170 21q52 0 234 -42v-43q-43 -52 -43 -85l-85 21q-276 -36 -276 -85v-594 q0 -48 -21 -85q21 -41 21 -64q0 -122 -127 -191q-170 21 -170 64q21 40 21 63l-21 43q21 40 21 63l-21 107l21 42q-21 37 -21 85h21l-21 43v21q0 47 21 85q0 21 -21 21l21 85q0 170 -85 170q-361 58 -361 127z" />
<glyph unicode="u" horiz-adv-x="1266" d="M60 531l21 149v212q0 119 106 149q117 -21 170 -21q0 -64 -21 -64l21 -106v-234q0 -281 277 -510h21q233 149 233 361l-21 85l21 43q-21 41 -21 63h21q0 22 -21 22q21 382 106 382q213 0 213 -170v-234q0 -21 -21 -21l21 -42v-85q0 -21 -21 -21l21 -43q0 -241 -425 -510 h-43q-616 102 -616 574z" />
<glyph unicode="v" horiz-adv-x="1308" d="M60 998l85 64q212 0 212 -212q12 -187 255 -680h22q106 210 297 871q70 64 106 64q34 0 191 -43q-201 -860 -382 -1020q0 -31 -128 -106q-359 0 -467 361q-191 335 -191 701z" />
<glyph unicode="w" horiz-adv-x="1563" d="M60 850q40 97 85 106h21q213 0 213 -213q55 -382 106 -382q112 377 191 382h21q340 0 340 -276q21 0 21 -63h22q69 722 233 722h21q149 -51 149 -85q-121 -881 -255 -892q0 -43 -42 -43q-330 0 -383 213q-21 0 -21 42h-21q-39 -361 -170 -361q-423 0 -489 616 q0 172 -42 234z" />
<glyph unicode="x" horiz-adv-x="1266" d="M60 1020v42q42 0 42 64h22q311 0 403 -191q63 -85 85 -85h22q184 531 339 531q107 -43 149 -43v-42q-165 -299 -319 -744l383 -403v-43q0 -42 -43 -42h-21q-186 0 -446 212q-100 -297 -170 -297h-21q-157 0 -170 63q0 143 170 489v21q-218 310 -425 468z" />
<glyph unicode="y" horiz-adv-x="1223" d="M60 828q40 96 85 107q255 -49 255 -107v-21q0 -21 -21 -21q106 -291 212 -340h21q131 397 383 616h148v-64l-425 -1019q-146 -621 -361 -765l-212 21q340 780 340 977q-141 0 -383 468z" />
<glyph unicode="z" horiz-adv-x="1563" d="M60 892v43q42 85 127 85q182 -22 213 -22q202 43 297 43q637 -72 637 -170v-64q-425 -396 -637 -467l-63 -85v-21h403q123 0 340 21q106 -27 106 -64v-42q-34 -85 -149 -85h-743q-340 13 -340 85v21q178 280 574 488q149 149 191 149v43l-149 21h-42q-193 0 -361 -43 q-250 23 -404 64z" />
<glyph unicode="{" horiz-adv-x="1096" d="M60 935q0 57 276 148q0 22 21 22q-42 147 -42 254v85q0 215 319 255h84v-63q-212 -30 -212 -192v-85l43 -254q0 -47 -170 -170q148 -52 148 -128q-42 -138 -42 -191v-85q41 -255 233 -255l298 -21v-43l-149 -42h-85q-531 0 -531 361v106q0 22 43 170q-4 30 -234 128z" />
<glyph unicode="|" horiz-adv-x="374" d="M60 276v213q0 892 106 892q128 0 128 -128v-998l-43 -64q-191 26 -191 85z" />
<glyph unicode="}" horiz-adv-x="905" d="M60 127v64h21l255 -21q112 0 213 149v85q-78 142 -192 233q0 107 213 234v21q-276 21 -276 85v64l85 297q0 130 -149 234h-128v42q7 43 43 43q333 0 404 -234q21 -37 21 -85v-21q-64 -274 -64 -297v-22q319 -42 319 -106q0 -32 -234 -212v-43q105 0 191 -255v-21 q0 -239 -361 -297h-42q-129 0 -319 63z" />
<glyph unicode="~" horiz-adv-x="756" d="M60 1423v21q0 115 85 149h106q213 -29 213 -191h42q44 191 85 191h21q64 -21 64 -127q-33 -192 -170 -192q-234 50 -234 213h-42l-21 -149v-42h-85q-64 21 -64 127z" />
<glyph unicode="&#xa1;" horiz-adv-x="501" d="M109 230q0 39 38 39q0 115 154 115h20q28 0 57 -77q0 -24 -38 -269q38 -336 38 -520q0 -327 -211 -327q-58 30 -58 58v981zM109 808v96q0 72 192 115q135 -33 135 -173v-38q-28 -97 -212 -97q-60 0 -115 97z" />
<glyph unicode="&#xa2;" horiz-adv-x="947" d="M60 828q0 215 361 383q28 127 64 127h64q29 0 63 -127l85 -21v-43q-106 -15 -106 -64q0 -63 21 -63l-21 -107v-255h276v-21q0 -57 -255 -127q0 -115 -85 -149q-74 0 -127 191q-260 0 -340 276zM336 871q14 -149 64 -149v191l21 107q-85 -34 -85 -149z" />
<glyph unicode="&#xa3;" horiz-adv-x="1436" d="M60 340q11 66 212 170l22 148v213q-18 0 -170 21v64q0 64 170 64v85q0 214 340 446q107 42 148 42q383 -47 383 -149q0 -30 -64 -63q-88 85 -213 85h-21q-255 -128 -255 -468q302 -64 404 -106q-13 -64 -170 -64h-191l-43 -21l22 -42v-85q0 -164 -128 -298 q637 -21 850 -63v-22q-73 -127 -213 -127q-1083 64 -1083 170z" />
<glyph unicode="&#xa4;" horiz-adv-x="883" d="M60 1041v64h42q73 0 149 -64q7 42 43 42h127q43 -6 43 -42q-31 0 -64 -64h42q176 128 255 128h64q42 -7 42 -43q-12 -49 -169 -127q42 -69 42 -107q0 -56 -64 -148q149 -300 149 -361h-85q-178 0 -212 276h-107q0 -80 -148 -213l-128 22v63q83 128 149 128v42 q-94 0 -128 85v43l22 148q-64 22 -64 128zM336 722h21q34 0 85 85v21q0 33 -85 64l-21 -42v-128z" />
<glyph unicode="&#xa7;" horiz-adv-x="1011" d="M60 -106q0 42 64 42q233 -59 233 -85q277 90 277 255q0 150 -319 213q-131 106 -170 106q0 190 212 446v21q-297 28 -297 255v127q0 218 404 298h21q157 0 170 -64v-42h-21q-70 42 -128 42q-195 -84 -234 -170v-42q0 -319 234 -319q425 -74 425 -170v-42 q0 -245 -425 -361v-22q404 -74 404 -255v-21q0 -251 -446 -382q-404 47 -404 127v43zM400 531q238 0 297 234q-21 85 -127 85h-43q-127 -218 -127 -276v-43z" />
<glyph unicode="&#xa8;" horiz-adv-x="721" d="M87 1216q0 73 20 113t51 40l30 9q72 0 102 -61q-15 -141 -60 -141h-101q-5 0 -10.5 5t-15 16.5t-16.5 18.5zM412 1216q0 153 71 153q10 9 31 9q56 0 102 -61q-32 -141 -61 -141h-103q-7 0 -19.5 12.5t-20.5 27.5z" />
<glyph unicode="&#xa9;" horiz-adv-x="1393" d="M60 807v21q102 510 297 510q133 106 446 106q85 -31 85 -63v-22l-42 22h-85q-467 -63 -467 -468q-22 0 -22 -63q73 -361 489 -361h21q298 85 298 297v85q0 279 -319 382q-64 0 -64 43v21h64q431 0 531 -319l21 -127v-64q-96 -425 -382 -425h-149q-608 0 -722 425z M442 828q84 213 255 213h64q42 -7 42 -43v-21q-148 0 -148 -149v-42q0 -72 318 -106v-43l-106 -21h-42q-383 0 -383 212z" />
<glyph unicode="&#xad;" horiz-adv-x="650" d="M60 722v21q0 31 64 64h170q276 0 276 -64v-21q-170 -42 -255 -42q-55 0 -255 42z" />
<glyph unicode="&#xae;" horiz-adv-x="1563" d="M60 935q0 459 637 616h85q128 -14 128 -64v-21l-107 21h-21q-488 -126 -488 -467v-107q0 -249 297 -361q82 -21 170 -21q364 0 467 319l22 148q0 240 -489 340l-127 21v64q22 0 63 21q744 -114 744 -339q21 0 42 -128q0 -487 -680 -573q-722 84 -722 467q-21 0 -21 64z M506 807v255q0 190 170 255q214 0 297 -149v-21q0 -82 -106 -191q165 -213 234 -213v-42q0 -43 -43 -43h-21q-297 51 -297 170h-22q0 -212 -42 -212h-42q-128 0 -128 191zM718 1041q31 0 64 64l-21 106h-43v-170z" />
<glyph unicode="&#xb0;" horiz-adv-x="841" d="M60 998q86 276 340 276q319 0 361 -233q-127 -319 -340 -319q-361 0 -361 276zM315 998q13 -127 64 -127q106 54 106 191q-40 97 -85 106h-43q0 -32 -42 -85v-85z" />
<glyph unicode="&#xb1;" horiz-adv-x="1096" d="M60 191v64h340v21q0 34 21 255h-212l-107 21v22q0 48 319 63v21q0 214 43 574h106q42 -8 42 -42v-553h128q42 -6 42 -42v-21q-114 -22 -170 -22v-191l-21 -106l255 21q19 0 170 -21v-21q0 -85 -531 -85q-191 0 -425 42z" />
<glyph unicode="&#xb4;" horiz-adv-x="601" d="M60 1078l291 297q34 34 54.5 46.5t41.5 12.5q33 0 53.5 -20t20.5 -51q0 -41 -62 -82l-330 -203h-69z" />
<glyph unicode="&#xb6;" horiz-adv-x="1308" d="M60 1062h42l-21 43v42h43v21h-43q0 201 383 255h63q287 0 701 -127v-128q-24 -998 -127 -998h-21q-18 0 -170 21v21q0 251 106 978q-70 42 -128 42h-21l21 -212v-170h43v-22q-54 0 -85 -616l-106 -21q-136 0 -149 106l43 425q-574 136 -574 340zM442 1126 q50 -213 213 -213l21 43v255l21 42h-42q-213 -25 -213 -85v-42z" />
<glyph unicode="&#xb8;" horiz-adv-x="548" d="M117 -314q4 13 24 18t77 5h22q51 7 59 44l5 5v5q1 5 0.5 8t-1.5 9.5t-4 12t-8.5 12.5t-13.5 12.5t-20.5 12t-28.5 11.5h-17q-52 25 -33 77l17 32h6v12l22 50q16 27 49 27h5h5v-5q9 -4 17 -8.5t11.5 -6.5t5.5 -2l22 -10l-27 -40l-29 -59q-5 -7 -5 -12q66 -25 123 -84l5 -5 v-5q7 -33 0 -83l-5 -10v-6q-55 -71 -160 -78l-7 -5v5q-10 0 -67 5h-5q-1 1 -11.5 7t-17 10.5t-12 14t-3.5 19.5v5z" />
<glyph unicode="&#xbf;" horiz-adv-x="1113" d="M71 -201q135 170 352 279l19 92v297q0 27 56 56h18q185 0 185 -150v-165q0 -201 -389 -482l-18 -93v-38q44 -203 204 -203q297 41 297 223q0 259 74 259h74q55 -6 111 -186q-43 -221 -131 -316q-131 -149 -277 -166h-148q-335 0 -335 166q-63 0 -92 204v223zM256 893 q0 98 167 130q223 -22 223 -223q-74 -92 -130 -92q-241 49 -241 130q0 18 -19 55z" />
<glyph unicode="&#xc0;" d="M60 0q390 1614 510 1614q31 85 64 85q254 0 254 -148q191 -600 446 -1211q0 -47 128 -425v-21q0 -43 -43 -43h-106q-55 0 -255 723l-42 42q-544 -21 -616 -21q-61 -185 -170 -659l-43 -21q-127 0 -127 85zM457 2004q0 31 20.5 51t53.5 20q21 0 41.5 -12.5t54.5 -46.5 l291 -296h-69l-330 202q-62 41 -62 82zM464 765h170q106 0 318 21v21q-190 430 -255 722h-21q0 -74 -212 -722v-42z" />
<glyph unicode="&#xc1;" d="M60 0q390 1614 510 1614q31 85 64 85q254 0 254 -148q191 -600 446 -1211q0 -47 128 -425v-21q0 -43 -43 -43h-106q-55 0 -255 723l-42 42q-544 -21 -616 -21q-61 -185 -170 -659l-43 -21q-127 0 -127 85zM464 765h170q106 0 318 21v21q-190 430 -255 722h-21 q0 -74 -212 -722v-42zM540 1792l291 297q34 34 54.5 46.5t41.5 12.5q33 0 53.5 -20t20.5 -51q0 -41 -62 -82l-330 -203h-69z" />
<glyph unicode="&#xc2;" d="M60 0q0 -85 127 -85l43 21q109 474 170 659q72 0 616 21l42 -42q200 -723 255 -723h106q43 0 43 43v21q-128 378 -128 425q-255 611 -446 1211q0 148 -254 148q-33 0 -64 -85q-120 0 -510 -1614zM409 1774v21q93 201 272 282h10q171 -85 261 -282l11 -21q-32 0 -52 -10 q-97 123 -209 199q-4 4 -7.5 9.5t-6.5 8t-7 2.5q-11 -10 -21 -20q-116 -94 -209 -199q-21 10 -42 10zM464 765v42q212 648 212 722h21q65 -292 255 -722v-21q-212 -21 -318 -21h-170z" />
<glyph unicode="&#xc3;" d="M60 0q390 1614 510 1614q31 85 64 85q254 0 254 -148q191 -600 446 -1211q0 -47 128 -425v-21q0 -43 -43 -43h-106q-55 0 -255 723l-42 42q-544 -21 -616 -21q-61 -185 -170 -659l-43 -21q-127 0 -127 85zM393 1866v20q0 63 18 95.5t63 47.5h103q106 -15 155 -60.5 t49 -123.5h40q10 58 26 101.5t31 63t26 19.5h20q61 -30 61 -122q-15 -91 -58 -137.5t-106 -46.5q-111 32 -167 81t-56 124h-42l-20 -144v-41h-82q-61 31 -61 123zM464 765h170q106 0 318 21v21q-190 430 -255 722h-21q0 -74 -212 -722v-42z" />
<glyph unicode="&#xc4;" d="M60 0q0 -85 127 -85l43 21q109 474 170 659q72 0 616 21l42 -42q200 -723 255 -723h106q43 0 43 43v21q-128 378 -128 425q-255 611 -446 1211q0 148 -254 148q-33 0 -64 -85q-120 0 -510 -1614zM425 1796q0 73 20 113t51 40l30 9q72 0 102 -61q-15 -141 -60 -141h-101 q-5 0 -10.5 5t-15 16.5t-16.5 18.5zM464 765v42q212 648 212 722h21q65 -292 255 -722v-21q-212 -21 -318 -21h-170zM750 1796q0 153 71 153q10 9 31 9q56 0 102 -61q-32 -141 -61 -141h-103q-7 0 -19.5 12.5t-20.5 27.5z" />
<glyph unicode="&#xc5;" d="M60 0q390 1614 510 1614q31 85 64 85q254 0 254 -148q191 -600 446 -1211q0 -47 128 -425v-21q0 -43 -43 -43h-106q-55 0 -255 723l-42 42q-544 -21 -616 -21q-61 -185 -170 -659l-43 -21q-127 0 -127 85zM464 765h170q106 0 318 21v21q-190 430 -255 722h-21 q0 -74 -212 -722v-42zM556 1892h4l-4 9q0 74 25 104q0 28 52 53q0 10 19 19h31q70 0 116 -53q16 0 32 -85q-26 -148 -120 -148h-59q-81 0 -96 101zM607 1911q10 -84 76 -84q83 26 83 84q6 0 6 22q-8 97 -83 97q-75 -22 -75 -69q-7 0 -7 -50z" />
<glyph unicode="&#xc6;" horiz-adv-x="2321" d="M74 39l21 21q51 93 100.5 191t72.5 144t32 54q452 740 657 1109q15 63 80 93t187 30q2 0 5.5 -0.5t9.5 -6t6 -14.5l615 42q162 -17 235 -35t73 -47q-17 -52 -35 -77.5t-47 -25.5h-657l-40 20q0 -15 -2.5 -17.5t-18.5 -2.5l21 -102v-452q460 0 739 -63v-122 q-268 21 -617 21q-40 0 -122 20q0 -47 9.5 -231.5t9.5 -322.5q-2 0 -5 -0.5t-8.5 -6t-5.5 -14.5q30 0 35 -5t5 -36q433 -17 617.5 -38.5t184.5 -64.5q0 -44 -88.5 -65t-302.5 -38q-195 0 -534 63h-61l-21 19h-21v515v81q-9 0 -81 5t-200 10t-272 5l-63 -40 q-95 -201 -180.5 -359t-131.5 -228.5t-57 -70.5h-102q-16 0 -29 13t-13 29zM731 860q124 -21 288 -21h163v42q-40 390 -40 656h-21q-22 -66 -65.5 -151t-75.5 -139t-114.5 -185.5t-113.5 -180.5z" />
<glyph unicode="&#xc7;" horiz-adv-x="1485" d="M73 541v121q0 318 362 745q277 162 564 162q115 -20 161 -20v-41q0 -34 -303 -101q-543 -250 -543 -604v-141q0 -196 324 -503q212 -61 422 -61h19q18 0 223 40h80q40 -6 40 -40q-66 -140 -262 -140h-60q-168 19 -352 55l-3 -4l-21 -44q-2 -2 -2 -5q46 -21 83 -60l2 -2 l1 -3q8 -27 -1 -59l-2 -10l-1 -1q-31 -47 -109 -56h-2l-3 1h-3q-3 1 -14 2t-27 2h-1l-2 1q-13 3 -23.5 11.5t-7.5 21.5v4q4 15 68 15h16q37 9 43 31l1 4q8 38 -51 58h-13l-2 1q-36 18 -20 52l11 23v-1q1 1 2 1l1 7l11 25q-546 120 -546 332q-45 0 -60 181z" />
<glyph unicode="&#xc8;" horiz-adv-x="1245" d="M60 1359l42 107q-42 0 -42 42q21 40 21 64l701 42q319 -34 319 -85q-40 -97 -85 -106h-680l-42 21q0 -21 -22 -21l22 -106v-467q462 0 764 -64v-128q-415 22 -637 22q-16 0 -127 21q0 -181 21 -574q-21 0 -21 -21q42 0 42 -42q829 -28 829 -106q0 -93 -404 -107 q-221 0 -659 85v722q0 310 -42 701zM392 2002q0 31 20.5 51t53.5 20q21 0 41.5 -12.5t54.5 -46.5l291 -296h-69l-330 202q-62 41 -62 82z" />
<glyph unicode="&#xc9;" horiz-adv-x="1245" d="M60 1359l42 107q-42 0 -42 42q21 40 21 64l701 42q319 -34 319 -85q-40 -97 -85 -106h-680l-42 21q0 -21 -22 -21l22 -106v-467q462 0 764 -64v-128q-415 22 -637 22q-16 0 -127 21q0 -181 21 -574q-21 0 -21 -21q42 0 42 -42q829 -28 829 -106q0 -93 -404 -107 q-221 0 -659 85v722q0 310 -42 701zM392 1722l291 297q34 34 54.5 46.5t41.5 12.5q33 0 53.5 -20t20.5 -51q0 -41 -62 -82l-330 -203h-69z" />
<glyph unicode="&#xca;" horiz-adv-x="1245" d="M60 1359q42 -391 42 -701v-722q438 -85 659 -85q404 14 404 107q0 78 -829 106q0 42 -42 42q0 21 21 21q-21 393 -21 574q111 -21 127 -21q222 0 637 -22v128q-302 64 -764 64v467l-22 106q22 0 22 21l42 -21h680q45 9 85 106q0 51 -319 85l-701 -42q0 -24 -21 -64 q0 -42 42 -42zM346 1775v21q93 201 272 282h10q171 -85 261 -282l11 -21q-32 0 -52 -10q-97 123 -209 199q-4 4 -7.5 9.5t-6.5 8t-7 2.5q-11 -10 -21 -20q-116 -94 -209 -199q-21 10 -42 10z" />
<glyph unicode="&#xcb;" horiz-adv-x="1245" d="M60 1359q42 -391 42 -701v-722q438 -85 659 -85q404 14 404 107q0 78 -829 106q0 42 -42 42q0 21 21 21q-21 393 -21 574q111 -21 127 -21q222 0 637 -22v128q-302 64 -764 64v467l-22 106q22 0 22 21l42 -21h680q45 9 85 106q0 51 -319 85l-701 -42q0 -24 -21 -64 q0 -42 42 -42zM359 1796q0 73 20 113t51 40l30 9q72 0 102 -61q-15 -141 -60 -141h-101q-5 0 -10.5 5t-15 16.5t-16.5 18.5zM684 1796q0 153 71 153q10 9 31 9q56 0 102 -61q-32 -141 -61 -141h-103q-7 0 -19.5 12.5t-20.5 27.5z" />
<glyph unicode="&#xcc;" horiz-adv-x="1266" d="M60 1487q21 41 21 64h659q135 0 297 -64v-85q0 -31 -64 -64l-255 21v-1168h107q184 0 361 -85v-42q0 -85 -595 -85q-299 0 -510 106v21q0 56 170 85h170q21 0 21 -21q40 21 64 21q0 85 -42 276h21q-21 41 -21 64q0 121 -22 297q43 386 43 574h-106q-319 0 -319 85z M402 2007q0 31 20.5 51t53.5 20q21 0 41.5 -12.5t54.5 -46.5l291 -296h-69l-330 202q-62 41 -62 82z" />
<glyph unicode="&#xcd;" horiz-adv-x="1266" d="M60 1487q21 41 21 64h659q135 0 297 -64v-85q0 -31 -64 -64l-255 21v-1168h107q184 0 361 -85v-42q0 -85 -595 -85q-299 0 -510 106v21q0 56 170 85h170q21 0 21 -21q40 21 64 21q0 85 -42 276h21q-21 41 -21 64q0 121 -22 297q43 386 43 574h-106q-319 0 -319 85z M402 1718l291 297q34 34 54.5 46.5t41.5 12.5q33 0 53.5 -20t20.5 -51q0 -41 -62 -82l-330 -203h-69z" />
<glyph unicode="&#xce;" horiz-adv-x="1266" d="M60 1487q0 -85 319 -85h106q0 -188 -43 -574q22 -176 22 -297q0 -23 21 -64h-21q42 -191 42 -276q-24 0 -64 -21q0 21 -21 21h-170q-170 -29 -170 -85v-21q211 -106 510 -106q595 0 595 85v42q-177 85 -361 85h-107v1168l255 -21q64 33 64 64v85q-162 64 -297 64h-659 q0 -23 -21 -64zM357 1769v21q93 201 272 282h10q171 -85 261 -282l11 -21q-32 0 -52 -10q-97 123 -209 199q-4 4 -7.5 9.5t-6.5 8t-7 2.5q-11 -10 -21 -20q-116 -94 -209 -199q-21 10 -42 10z" />
<glyph unicode="&#xcf;" horiz-adv-x="1266" d="M60 1487q0 -85 319 -85h106q0 -188 -43 -574q22 -176 22 -297q0 -23 21 -64h-21q42 -191 42 -276q-24 0 -64 -21q0 21 -21 21h-170q-170 -29 -170 -85v-21q211 -106 510 -106q595 0 595 85v42q-177 85 -361 85h-107v1168l255 -21q64 33 64 64v85q-162 64 -297 64h-659 q0 -23 -21 -64zM369 1795q0 73 20 113t51 40l30 9q72 0 102 -61q-15 -141 -60 -141h-101q-5 0 -10.5 5t-15 16.5t-16.5 18.5zM694 1795q0 153 71 153q10 9 31 9q56 0 102 -61q-32 -141 -61 -141h-103q-7 0 -19.5 12.5t-20.5 27.5z" />
<glyph unicode="&#xd1;" horiz-adv-x="1436" d="M60 21v1275q93 340 170 340q282 0 404 -425q283 -700 403 -892h21v892q14 318 149 318q135 -42 149 -42q-22 -207 -22 -319v-1104q0 -106 -106 -191q-252 0 -488 467q-166 216 -340 807q-43 -7 -43 -42v-213q-42 -478 -42 -510v-255q0 -114 -85 -148q-78 42 -170 42z M422 1865v20q0 63 18 95.5t63 47.5h103q106 -15 155 -60.5t49 -123.5h40q10 58 26 101.5t31 63t26 19.5h20q61 -30 61 -122q-15 -91 -58 -137.5t-106 -46.5q-111 32 -167 81t-56 124h-42l-20 -144v-41h-82q-61 31 -61 123z" />
<glyph unicode="&#xd2;" horiz-adv-x="1754" d="M60 552h21l-21 43q0 428 149 616q0 135 297 318q0 32 128 107h169q388 0 680 -319q99 0 191 -510q-160 -871 -701 -871h-339q-474 0 -574 616zM357 637q42 -488 446 -488q489 163 489 488q21 0 42 149q-80 573 -488 573q-446 -147 -446 -403q-37 0 -43 -319zM646 2003 q0 31 20.5 51t53.5 20q21 0 41.5 -12.5t54.5 -46.5l291 -296h-69l-330 202q-62 41 -62 82z" />
<glyph unicode="&#xd3;" horiz-adv-x="1754" d="M60 552h21l-21 43q0 428 149 616q0 135 297 318q0 32 128 107h169q388 0 680 -319q99 0 191 -510q-160 -871 -701 -871h-339q-474 0 -574 616zM357 637q42 -488 446 -488q489 163 489 488q21 0 42 149q-80 573 -488 573q-446 -147 -446 -403q-37 0 -43 -319zM646 1720 l291 297q34 34 54.5 46.5t41.5 12.5q33 0 53.5 -20t20.5 -51q0 -41 -62 -82l-330 -203h-69z" />
<glyph unicode="&#xd4;" horiz-adv-x="1754" d="M60 552q100 -616 574 -616h339q541 0 701 871q-92 510 -191 510q-292 319 -680 319h-169q-128 -75 -128 -107q-297 -183 -297 -318q-149 -188 -149 -616l21 -43h-21zM357 637q6 319 43 319q0 256 446 403q408 0 488 -573q-21 -149 -42 -149q0 -325 -489 -488 q-404 0 -446 488zM601 1773v21q93 201 272 282h10q171 -85 261 -282l11 -21q-32 0 -52 -10q-97 123 -209 199q-4 4 -7.5 9.5t-6.5 8t-7 2.5q-11 -10 -21 -20q-116 -94 -209 -199q-21 10 -42 10z" />
<glyph unicode="&#xd5;" horiz-adv-x="1754" d="M60 552h21l-21 43q0 428 149 616q0 135 297 318q0 32 128 107h169q388 0 680 -319q99 0 191 -510q-160 -871 -701 -871h-339q-474 0 -574 616zM357 637q42 -488 446 -488q489 163 489 488q21 0 42 149q-80 573 -488 573q-446 -147 -446 -403q-37 0 -43 -319zM541 1864v20 q0 63 18 95.5t63 47.5h103q106 -15 155 -60.5t49 -123.5h40q10 58 26 101.5t31 63t26 19.5h20q61 -30 61 -122q-15 -91 -58 -137.5t-106 -46.5q-111 32 -167 81t-56 124h-42l-20 -144v-41h-82q-61 31 -61 123z" />
<glyph unicode="&#xd6;" horiz-adv-x="1754" d="M60 552q100 -616 574 -616h339q541 0 701 871q-92 510 -191 510q-292 319 -680 319h-169q-128 -75 -128 -107q-297 -183 -297 -318q-149 -188 -149 -616l21 -43h-21zM357 637q6 319 43 319q0 256 446 403q408 0 488 -573q-21 -149 -42 -149q0 -325 -489 -488 q-404 0 -446 488zM556 1795q0 73 20 113t51 40l30 9q72 0 102 -61q-15 -141 -60 -141h-101q-5 0 -10.5 5t-15 16.5t-16.5 18.5zM881 1795q0 153 71 153q10 9 31 9q56 0 102 -61q-32 -141 -61 -141h-103q-7 0 -19.5 12.5t-20.5 27.5z" />
<glyph unicode="&#xd8;" horiz-adv-x="1665" d="M7 636h22l-22 41q0 429 149 615q0 137 295 317q0 33 128 107h169q238 0 443 -123q19 18 39.5 38t45 44.5t38.5 37.5q158 -90 123 -185q-4 -5 -55 -85q29 -29 43 -45q99 0 191 -508q-160 -868 -700 -868h-337q-94 0 -167 23q-87 -106 -112 -120l-27 11q-211 129 -180 209 q8 14 28 45t30 48q-101 144 -144 398zM304 720q8 -108 36 -192q329 486 664 862q-94 50 -214 50q-444 -148 -444 -402q-36 0 -42 -318zM575 263q78 -29 173 -29q487 162 487 486q21 0 42 149q-26 182 -81 297q-408 -611 -621 -903z" />
<glyph unicode="&#xd9;" d="M60 1062v489q0 31 127 106h64q64 -13 64 -170v-191q0 -64 -21 -64l21 -106v-298q0 -500 340 -807q41 -21 63 -21q404 83 404 637q21 0 21 170l-21 85q37 56 64 616q16 0 64 64q169 -13 169 -64v-85q43 -307 43 -340v-212q0 -775 -531 -1020h-191q-638 167 -638 489v42 q0 53 -42 680zM540 2004q0 31 20.5 51t53.5 20q21 0 41.5 -12.5t54.5 -46.5l291 -296h-69l-330 202q-62 41 -62 82z" />
<glyph unicode="&#xda;" d="M60 1062v489q0 31 127 106h64q64 -13 64 -170v-191q0 -64 -21 -64l21 -106v-298q0 -500 340 -807q41 -21 63 -21q404 83 404 637q21 0 21 170l-21 85q37 56 64 616q16 0 64 64q169 -13 169 -64v-85q43 -307 43 -340v-212q0 -775 -531 -1020h-191q-638 167 -638 489v42 q0 53 -42 680zM540 1720l291 297q34 34 54.5 46.5t41.5 12.5q33 0 53.5 -20t20.5 -51q0 -41 -62 -82l-330 -203h-69z" />
<glyph unicode="&#xdb;" d="M60 1062q42 -627 42 -680v-42q0 -322 638 -489h191q531 245 531 1020v212q0 33 -43 340v85q0 51 -169 64q-48 -64 -64 -64q-27 -560 -64 -616l21 -85q0 -170 -21 -170q0 -554 -404 -637q-22 0 -63 21q-340 307 -340 807v298l-21 106q21 0 21 64v191q0 157 -64 170h-64 q-127 -75 -127 -106v-489zM495 1773v21q93 201 272 282h10q171 -85 261 -282l11 -21q-32 0 -52 -10q-97 123 -209 199q-4 4 -7.5 9.5t-6.5 8t-7 2.5q-11 -10 -21 -20q-116 -94 -209 -199q-21 10 -42 10z" />
<glyph unicode="&#xdc;" d="M60 1062q42 -627 42 -680v-42q0 -322 638 -489h191q531 245 531 1020v212q0 33 -43 340v85q0 51 -169 64q-48 -64 -64 -64q-27 -560 -64 -616l21 -85q0 -170 -21 -170q0 -554 -404 -637q-22 0 -63 21q-340 307 -340 807v298l-21 106q21 0 21 64v191q0 157 -64 170h-64 q-127 -75 -127 -106v-489zM507 1795q0 73 20 113t51 40l30 9q72 0 102 -61q-15 -141 -60 -141h-101q-5 0 -10.5 5t-15 16.5t-16.5 18.5zM832 1795q0 153 71 153q10 9 31 9q56 0 102 -61q-32 -141 -61 -141h-103q-7 0 -19.5 12.5t-20.5 27.5z" />
<glyph unicode="&#xdd;" horiz-adv-x="1372" d="M60 1678l42 21h22q183 0 255 -170q246 -290 297 -467h21v43q-21 0 -21 21q252 243 382 573q40 22 64 22q148 -22 170 -22q0 -194 -425 -871q-64 -107 -64 -212v-510q0 -114 -85 -148h-21q-120 0 -148 106q21 443 21 722q-510 606 -510 892zM455 1719l291 297 q34 34 54.5 46.5t41.5 12.5q33 0 53.5 -20t20.5 -51q0 -41 -62 -82l-330 -203h-69z" />
<glyph unicode="&#xdf;" horiz-adv-x="1451" d="M99 1153v108q13 148 51 227.5t93 79.5q19 18 55 18q293 0 444.5 -37.5t151.5 -106.5q162 -81 162 -270v-128q-82 -108 -109 -108v-18q150 0 246.5 -70t151.5 -219q0 -184 -398 -469l-163 -91q-17 0 -35 -17q-74 -37 -144 -37q-20 -6 -37.5 -7.5t-34 3.5t-27.5 9.5 t-28 13.5v18q-14 41 0.5 77t53.5 49q143 26 258.5 78.5t229.5 137.5q30 0 108 181q-40 121 -106 187t-147 66h-36q-8 0 -31.5 -4.5t-69.5 -14.5t-80 -17v-18q-71 0 -162 -37h-18q-65 -32 -90 18v19q-13 27 -2.5 51.5t38.5 37.5q0 2 1 5t10 8.5t25 5.5q207 28 311 85t104 150 q0 149 -106 241.5t-309 119.5q-84 0 -123 -16.5t-39 -55.5q0 -29 -9 -124t-9 -165q0 -126 18 -163v-18v-18q0 -57 35 -199q6 -57 16.5 -138t15.5 -126.5t5 -78.5v-72l18 -524q0 -99 -55 -126h-18q-55 0 -84 16t-42 57q-7 96 -16.5 305t-20.5 290q0 45 -3.5 114t-7 125.5 t-11.5 172.5t-13 184l18 36q-17 17 -25.5 50.5t-9.5 62t-1 86.5z" />
<glyph unicode="&#xe0;" horiz-adv-x="1351" d="M60 340q0 322 446 658q106 64 170 64q203 0 340 -64q0 22 21 22q0 -374 234 -999q0 -30 -64 -63q-191 0 -255 169q-42 161 -42 192q-250 -298 -383 -298q-467 75 -467 319zM315 361q36 -191 191 -191q255 274 255 595v170h-21q-266 -122 -361 -383q-38 0 -64 -191z M330 1487q0 31 20.5 51t53.5 20q21 0 41.5 -12.5t54.5 -46.5l291 -296h-69l-330 202q-62 41 -62 82z" />
<glyph unicode="&#xe1;" horiz-adv-x="1351" d="M60 340q0 322 446 658q106 64 170 64q203 0 340 -64q0 22 21 22q0 -374 234 -999q0 -30 -64 -63q-191 0 -255 169q-42 161 -42 192q-250 -298 -383 -298q-467 75 -467 319zM315 361q36 -191 191 -191q255 274 255 595v170h-21q-266 -122 -361 -383q-38 0 -64 -191z M445 1201l291 297q34 34 54.5 46.5t41.5 12.5q33 0 53.5 -20t20.5 -51q0 -41 -62 -82l-330 -203h-69z" />
<glyph unicode="&#xe2;" horiz-adv-x="1351" d="M60 340q0 -244 467 -319q133 0 383 298q0 -31 42 -192q64 -169 255 -169q64 33 64 63q-234 625 -234 999q-21 0 -21 -22q-137 64 -340 64q-64 0 -170 -64q-446 -336 -446 -658zM315 361q26 191 64 191q95 261 361 383h21v-170q0 -321 -255 -595q-155 0 -191 191z M399 1255v21q93 201 272 282h10q171 -85 261 -282l11 -21q-32 0 -52 -10q-97 123 -209 199q-4 4 -7.5 9.5t-6.5 8t-7 2.5q-11 -10 -21 -20q-116 -94 -209 -199q-21 10 -42 10z" />
<glyph unicode="&#xe3;" horiz-adv-x="1351" d="M60 340q0 322 446 658q106 64 170 64q203 0 340 -64q0 22 21 22q0 -374 234 -999q0 -30 -64 -63q-191 0 -255 169q-42 161 -42 192q-250 -298 -383 -298q-467 75 -467 319zM315 361q36 -191 191 -191q255 274 255 595v170h-21q-266 -122 -361 -383q-38 0 -64 -191z M379 1263v20q0 63 18 95.5t63 47.5h103q106 -15 155 -60.5t49 -123.5h40q10 58 26 101.5t31 63t26 19.5h20q61 -30 61 -122q-15 -91 -58 -137.5t-106 -46.5q-111 32 -167 81t-56 124h-42l-20 -144v-41h-82q-61 31 -61 123z" />
<glyph unicode="&#xe4;" horiz-adv-x="1351" d="M60 340q0 -244 467 -319q133 0 383 298q0 -31 42 -192q64 -169 255 -169q64 33 64 63q-234 625 -234 999q-21 0 -21 -22q-137 64 -340 64q-64 0 -170 -64q-446 -336 -446 -658zM315 361q26 191 64 191q95 261 361 383h21v-170q0 -321 -255 -595q-155 0 -191 191z M412 1338q0 73 20 113t51 40l30 9q72 0 102 -61q-15 -141 -60 -141h-101q-5 0 -10.5 5t-15 16.5t-16.5 18.5zM737 1338q0 153 71 153q10 9 31 9q56 0 102 -61q-32 -141 -61 -141h-103q-7 0 -19.5 12.5t-20.5 27.5z" />
<glyph unicode="&#xe5;" horiz-adv-x="1351" d="M60 340q0 322 446 658q106 64 170 64q203 0 340 -64q0 22 21 22q0 -374 234 -999q0 -30 -64 -63q-191 0 -255 169q-42 161 -42 192q-250 -298 -383 -298q-467 75 -467 319zM315 361q36 -191 191 -191q255 274 255 595v170h-21q-266 -122 -361 -383q-38 0 -64 -191z M486 1331h4l-4 9q0 74 25 104q0 28 52 53q0 10 19 19h31q70 0 116 -53q16 0 32 -85q-26 -148 -120 -148h-59q-81 0 -96 101zM537 1350q10 -84 76 -84q83 26 83 84q6 0 6 22q-8 97 -83 97q-75 -23 -75 -69q-7 0 -7 -50z" />
<glyph unicode="&#xe6;" horiz-adv-x="1958" d="M67 308q0 354 464 684q75 38 110.5 52.5t66.5 14.5q222 0 353 -67q0 10 5.5 14.5t11 0t5.5 -14.5q31 21 76 31.5t77 12t91 1.5q0 15 38.5 18.5t137.5 3.5q137 0 201.5 -40.5t64.5 -136.5v-110q0 -17 -3 -20t-20 -3l23 -66q0 -100 -597 -198q95 -222 331 -222h22 q63 32 124 49.5t97 17.5h23l110 -22v-23q0 -127 -177 -199h-220q-173 0 -307 54.5t-224 144.5q-255 -287 -398 -287q-233 34 -359.5 114t-126.5 196zM332 330q18 -88 69 -143.5t130 -55.5q265 298 265 641v177h-22q-280 -141 -375 -399q-30 0 -67 -220zM1172 683l265 89v88 q-131 0 -198 -46t-67 -131z" />
<glyph unicode="&#xe7;" horiz-adv-x="1011" d="M53 470v44q104 272 483 418q44 0 263 43q154 -21 154 -66v-21q0 -36 -395 -132q-242 -133 -242 -308v-22q0 -329 550 -329v-22l-133 -110q-117 12 -242 50l-1 -2l-20 -41v-2l-1 -2q41 -19 78 -57l2 -2l1 -2q6 -25 -1 -55l-2 -9l-2 -2q-31 -43 -101 -52h-2l-3 1h-1 q-1 0 -4 0.5t-7 1t-11.5 1t-17.5 1.5h-2l-2 1q-34 10 -29 31l1 3q5 15 63 15h15q34 7 40 28l1 4q10 35 -48 54h-10l-3 1q-34 16 -18 49l9 21l1 -1l1 1l1 6l14 28q-157 57 -314 150q-65 109 -65 285z" />
<glyph unicode="&#xe8;" horiz-adv-x="1117" d="M60 340v234q80 339 446 339q0 22 170 22q255 0 255 -170v-128q0 -21 -21 -21l21 -42q0 -113 -574 -192q89 -233 319 -233h21q136 85 213 85h21l106 -22v-21q0 -129 -170 -191h-212q-468 0 -595 340zM328 1363q0 31 20.5 51t53.5 20q21 0 41.5 -12.5t54.5 -46.5l291 -296 h-69l-330 202q-62 41 -62 82zM357 574l255 63v106q-255 -29 -255 -169z" />
<glyph unicode="&#xe9;" horiz-adv-x="1117" d="M60 340v234q80 339 446 339q0 22 170 22q255 0 255 -170v-128q0 -21 -21 -21l21 -42q0 -113 -574 -192q89 -233 319 -233h21q136 85 213 85h21l106 -22v-21q0 -129 -170 -191h-212q-468 0 -595 340zM328 1078l291 297q34 34 54.5 46.5t41.5 12.5q33 0 53.5 -20t20.5 -51 q0 -41 -62 -82l-330 -203h-69zM357 574l255 63v106q-255 -29 -255 -169z" />
<glyph unicode="&#xea;" horiz-adv-x="1117" d="M60 340q127 -340 595 -340h212q170 62 170 191v21l-106 22h-21q-77 0 -213 -85h-21q-230 0 -319 233q574 79 574 192l-21 42q21 0 21 21v128q0 170 -255 170q-170 0 -170 -22q-366 0 -446 -339v-234zM282 1131v21q93 201 272 282h10q171 -85 261 -282l11 -21 q-32 0 -52 -10q-97 123 -209 199q-4 4 -7.5 9.5t-6.5 8t-7 2.5q-11 -10 -21 -20q-116 -94 -209 -199q-21 10 -42 10zM357 574q0 140 255 169v-106z" />
<glyph unicode="&#xeb;" horiz-adv-x="1117" d="M60 340q127 -340 595 -340h212q170 62 170 191v21l-106 22h-21q-77 0 -213 -85h-21q-230 0 -319 233q574 79 574 192l-21 42q21 0 21 21v128q0 170 -255 170q-170 0 -170 -22q-366 0 -446 -339v-234zM295 1216q0 73 20 113t51 40l30 9q72 0 102 -61q-15 -141 -60 -141 h-101q-5 0 -10.5 5t-15 16.5t-16.5 18.5zM357 574q0 140 255 169v-106zM620 1216q0 153 71 153q10 9 31 9q56 0 102 -61q-32 -141 -61 -141h-103q-7 0 -19.5 12.5t-20.5 27.5z" />
<glyph unicode="&#xec;" horiz-adv-x="522" d="M31 1363q0 31 20.5 51t53.5 20q21 0 41.5 -12.5t54.5 -46.5l291 -296h-69l-330 202q-62 41 -62 82zM142 206v85h21q-9 18 -14.5 34t-6.5 23v6q0 16 2.5 18.5t18.5 2.5l-21 107v296q0 63 28.5 108t77.5 62q48 0 100.5 -11t68.5 -11l-21 -148v-403q0 -169 21 -318l-106 -63 q-79 0 -124 58t-45 154z" />
<glyph unicode="&#xed;" horiz-adv-x="522" d="M31 1078l291 297q34 34 54.5 46.5t41.5 12.5q33 0 53.5 -20t20.5 -51q0 -41 -62 -82l-330 -203h-69zM130 218v80h21q-9 18 -14.5 33.5t-6.5 21.5v6q0 15 2.5 17.5t18.5 2.5l-21 101v284q0 59 28 102.5t73 59.5q46 0 97 -10.5t66 -10.5l-21 -141v-385q0 -161 21 -303 l-102 -61q-75 0 -118.5 55.5t-43.5 147.5z" />
<glyph unicode="&#xee;" horiz-adv-x="522" d="M-16 1131v21q93 201 272 282h10q171 -85 261 -282l11 -21q-32 0 -52 -10q-97 123 -209 199q-4 4 -7.5 9.5t-6.5 8t-7 2.5q-11 -10 -21 -20q-116 -94 -209 -199q-21 10 -42 10zM127 218v84h21q-9 19 -14.5 34.5t-5.5 21.5l-1 7q0 16 2.5 18.5t18.5 2.5l-21 106v296 q0 63 29 108.5t77 61.5q48 0 101 -10.5t69 -10.5l-21 -149v-402q0 -168 21 -317l-106 -63q-79 0 -124.5 57.5t-45.5 154.5z" />
<glyph unicode="&#xef;" horiz-adv-x="522" d="M-2 1216q0 73 20 113t51 40l30 9q72 0 102 -61q-15 -141 -60 -141h-101q-5 0 -10.5 5t-15 16.5t-16.5 18.5zM131 209v85h21q-9 18 -14.5 34t-5.5 22l-1 7q0 16 2.5 18.5t18.5 2.5l-21 107v296q0 63 28.5 108t77.5 62q48 0 100.5 -11t68.5 -11l-21 -148v-403 q0 -169 21 -318l-106 -63q-79 0 -124 58t-45 154zM323 1216q0 153 71 153q10 9 31 9q56 0 102 -61q-32 -141 -61 -141h-103q-7 0 -19.5 12.5t-20.5 27.5z" />
<glyph unicode="&#xf1;" horiz-adv-x="1096" d="M60 489v382q0 115 85 149l616 -85q255 -358 255 -659q0 -55 -64 -234h-64q-191 0 -191 447q-97 241 -191 339q-191 -462 -191 -722h-21q-213 0 -213 149q0 22 21 64q-42 76 -42 170zM252 1220v20q0 63 18 95.5t63 47.5h103q106 -15 155 -60.5t49 -123.5h40 q10 58 26 101.5t31 63t26 19.5h20q61 -30 61 -122q-15 -91 -58 -137.5t-106 -46.5q-111 32 -167 81t-56 124h-42l-20 -144v-41h-82q-61 31 -61 123z" />
<glyph unicode="&#xf2;" horiz-adv-x="1202" d="M60 319v233q0 164 361 425q101 64 191 64q322 0 468 -255l42 -191q-67 -574 -488 -574h-43q-368 0 -531 298zM357 467q0 -203 192 -276q201 0 276 383q-87 265 -170 297q-298 -186 -298 -340v-64zM370 1363q0 31 20.5 51t53.5 20q21 0 41.5 -12.5t54.5 -46.5l291 -296 h-69l-330 202q-62 41 -62 82z" />
<glyph unicode="&#xf3;" horiz-adv-x="1202" d="M60 319v233q0 164 361 425q101 64 191 64q322 0 468 -255l42 -191q-67 -574 -488 -574h-43q-368 0 -531 298zM357 467q0 -203 192 -276q201 0 276 383q-87 265 -170 297q-298 -186 -298 -340v-64zM370 1078l291 297q34 34 54.5 46.5t41.5 12.5q33 0 53.5 -20t20.5 -51 q0 -41 -62 -82l-330 -203h-69z" />
<glyph unicode="&#xf4;" horiz-adv-x="1202" d="M60 319q163 -298 531 -298h43q421 0 488 574l-42 191q-146 255 -468 255q-90 0 -191 -64q-361 -261 -361 -425v-233zM325 1131v21q93 201 272 282h10q171 -85 261 -282l11 -21q-32 0 -52 -10q-97 123 -209 199q-4 4 -7.5 9.5t-6.5 8t-7 2.5q-11 -10 -21 -20 q-116 -94 -209 -199q-21 10 -42 10zM357 467v64q0 154 298 340q83 -32 170 -297q-75 -383 -276 -383q-192 73 -192 276z" />
<glyph unicode="&#xf5;" horiz-adv-x="1202" d="M60 319v233q0 164 361 425q101 64 191 64q322 0 468 -255l42 -191q-67 -574 -488 -574h-43q-368 0 -531 298zM306 1220v20q0 63 18 95.5t63 47.5h103q106 -15 155 -60.5t49 -123.5h40q10 58 26 101.5t31 63t26 19.5h20q61 -30 61 -122q-15 -91 -58 -137.5t-106 -46.5 q-111 32 -167 81t-56 124h-42l-20 -144v-41h-82q-61 31 -61 123zM357 467q0 -203 192 -276q201 0 276 383q-87 265 -170 297q-298 -186 -298 -340v-64z" />
<glyph unicode="&#xf6;" horiz-adv-x="1202" d="M60 319q163 -298 531 -298h43q421 0 488 574l-42 191q-146 255 -468 255q-90 0 -191 -64q-361 -261 -361 -425v-233zM337 1216q0 73 20 113t51 40l30 9q72 0 102 -61q-15 -141 -60 -141h-101q-5 0 -10.5 5t-15 16.5t-16.5 18.5zM357 467v64q0 154 298 340 q83 -32 170 -297q-75 -383 -276 -383q-192 73 -192 276zM662 1216q0 153 71 153q10 9 31 9q56 0 102 -61q-32 -141 -61 -141h-103q-7 0 -19.5 12.5t-20.5 27.5z" />
<glyph unicode="&#xf7;" horiz-adv-x="977" d="M81 770v33q0 50 101 101h269q437 0 437 -101v-33q-33 -7 -95 -20.5t-93.5 -19.5t-76 -14t-78 -11.5t-62.5 -3.5q-30 0 -81.5 8.5t-150 28t-170.5 32.5zM349 467q0 48 24 77.5t78 56.5q18 -6 39 -12.5t32 -10t23.5 -7.5t18.5 -7.5t11.5 -8t7.5 -9.5t2 -12v-135l-33 -34 q-73 0 -121 20.5t-48 47.5q0 15 -8.5 23.5t-16.5 9.5zM349 1140q0 50 102 100q18 -6 39 -12.5t32 -9.5t23.5 -7.5t18.5 -7.5t11.5 -8t7.5 -10t2 -13v-134l-33 -34q-73 0 -121 20.5t-48 46.5q-25 26 -29.5 34.5t-4.5 34.5z" />
<glyph unicode="&#xf8;" horiz-adv-x="1202" d="M106 291v209q0 149 347 417q107 52 174 52h35q18 26 44 78t43 78q68 -13 94.5 -31t26.5 -56q-9 -17 -17.5 -52t-16.5 -52q74 -25 130.5 -75t112.5 -133l35 -174q-26 -275 -143.5 -415.5t-325.5 -140.5h-35h-18q-14 -21 -24 -44.5t-15 -33t-13 -9.5h-17q-94 13 -134 28.5 t-40 40.5q18 18 18 70q-151 50 -261 243zM384 430q0 -20 1.5 -36.5t6 -35t7 -26t10.5 -30.5t10 -28q77 259 156 469q-191 -136 -191 -261v-52zM645 170q65 26 115 115.5t76 231.5q-28 107 -52 156q-17 -50 -33 -102t-26 -87.5t-24.5 -90t-19.5 -75t-19.5 -79.5t-16.5 -69z " />
<glyph unicode="&#xf9;" horiz-adv-x="1266" d="M60 531l21 149v212q0 119 106 149q117 -21 170 -21q0 -64 -21 -64l21 -106v-234q0 -281 277 -510h21q233 149 233 361l-21 85l21 43q-21 41 -21 63h21q0 22 -21 22q21 382 106 382q213 0 213 -170v-234q0 -21 -21 -21l21 -42v-85q0 -21 -21 -21l21 -43q0 -241 -425 -510 h-43q-616 102 -616 574zM402 1484q0 31 20.5 51t53.5 20q21 0 41.5 -12.5t54.5 -46.5l291 -296h-69l-330 202q-62 41 -62 82z" />
<glyph unicode="&#xfa;" horiz-adv-x="1266" d="M60 531l21 149v212q0 119 106 149q117 -21 170 -21q0 -64 -21 -64l21 -106v-234q0 -281 277 -510h21q233 149 233 361l-21 85l21 43q-21 41 -21 63h21q0 22 -21 22q21 382 106 382q213 0 213 -170v-234q0 -21 -21 -21l21 -42v-85q0 -21 -21 -21l21 -43q0 -241 -425 -510 h-43q-616 102 -616 574zM402 1206l291 297q34 34 54.5 46.5t41.5 12.5q33 0 53.5 -20t20.5 -51q0 -41 -62 -82l-330 -203h-69z" />
<glyph unicode="&#xfb;" horiz-adv-x="1266" d="M60 531l42 -21q0 -472 616 -574h43q425 269 425 510l-21 43q21 0 21 21v85l-21 42q21 0 21 21v234q0 170 -213 170q-85 0 -106 -382q21 0 21 -22h-21q0 -22 21 -63l-21 -43l21 -85q0 -212 -233 -361h-21q-277 229 -277 510v234l-21 106q21 0 21 64q-53 0 -170 21 q-106 -30 -106 -149v-212zM357 1432v21q93 201 272 282h10q171 -85 261 -282l11 -21q-32 0 -52 -10q-97 123 -209 199q-4 4 -7.5 9.5t-6.5 8t-7 2.5q-11 -10 -21 -20q-116 -94 -209 -199q-21 10 -42 10z" />
<glyph unicode="&#xfc;" horiz-adv-x="1266" d="M60 531l42 -21q0 -472 616 -574h43q425 269 425 510l-21 43q21 0 21 21v85l-21 42q21 0 21 21v234q0 170 -213 170q-85 0 -106 -382q21 0 21 -22h-21q0 -22 21 -63l-21 -43l21 -85q0 -212 -233 -361h-21q-277 229 -277 510v234l-21 106q21 0 21 64q-53 0 -170 21 q-106 -30 -106 -149v-212zM369 1216q0 73 20 113t51 40l30 9q72 0 102 -61q-15 -141 -60 -141h-101q-5 0 -10.5 5t-15 16.5t-16.5 18.5zM694 1216q0 153 71 153q10 9 31 9q56 0 102 -61q-32 -141 -61 -141h-103q-7 0 -19.5 12.5t-20.5 27.5z" />
<glyph unicode="&#xfd;" horiz-adv-x="1223" d="M60 828q40 96 85 107q255 -49 255 -107v-21q0 -21 -21 -21q106 -291 212 -340h21q131 397 383 616h148v-64l-425 -1019q-146 -621 -361 -765l-212 21q340 780 340 977q-141 0 -383 468zM381 1078l291 297q34 34 54.5 46.5t41.5 12.5q33 0 53.5 -20t20.5 -51 q0 -41 -62 -82l-330 -203h-69z" />
<glyph unicode="&#xff;" horiz-adv-x="1223" d="M60 828l42 -148q242 -468 383 -468q0 -197 -340 -977l212 -21q215 144 361 765l425 1019v64h-148q-252 -219 -383 -616h-21q-106 49 -212 340q21 0 21 21v21q0 58 -255 107q-45 -11 -85 -107zM348 1216q0 73 20 113t51 40l30 9q72 0 102 -61q-15 -141 -60 -141h-101 q-5 0 -10.5 5t-15 16.5t-16.5 18.5zM673 1216q0 153 71 153q10 9 31 9q56 0 102 -61q-32 -141 -61 -141h-103q-7 0 -19.5 12.5t-20.5 27.5z" />
<glyph unicode="&#x152;" horiz-adv-x="2329" d="M2 570h19l-19 40q0 398 139 571q0 126 274 295q0 30 120 99h156q336 0 594 -258q-1 6 -2 17t-2 20t-2 17l39 98q-39 0 -39 38q19 37 19 58l638 39q290 -31 290 -78q-36 -88 -77 -97h-618l-39 19q0 -19 -20 -19l20 -96v-424q407 0 696 -59v-116q-377 19 -580 19 q-11 0 -116 20q0 -183 20 -523q-20 0 -20 -18q39 0 39 -39q754 -27 754 -96q0 -86 -367 -98q-205 0 -600 77v205q-174 -282 -470 -282h-313q-439 0 -533 571zM278 648q37 -451 413 -451q453 152 453 451q21 0 39 139q-75 531 -452 531q-413 -136 -413 -373q-34 0 -40 -297z " />
<glyph unicode="&#x153;" horiz-adv-x="1836" d="M17 301v234q0 166 362 426q104 66 193 66q228 0 370 -131q119 89 310 89q0 23 180 23q269 0 269 -181v-135q0 -21 -22 -21l22 -45q0 -121 -607 -203q93 -246 338 -246h23q144 90 224 90h22l113 -24v-21q0 -136 -180 -203h-224q-306 0 -473 137q-125 -155 -344 -155h-42 q-371 0 -534 300zM315 449q0 -202 193 -277q196 0 273 362v37q-85 252 -166 285q-300 -188 -300 -343v-64zM1094 626l271 66v113q-271 -30 -271 -179z" />
<glyph unicode="&#x178;" horiz-adv-x="1372" d="M60 1678q0 -286 510 -892q0 -280 -21 -722q28 -106 148 -106h21q85 34 85 148v510q0 105 64 212q425 677 425 871q-22 0 -170 22q-24 0 -64 -22q-130 -330 -382 -573q0 -21 21 -21v-43h-21q-51 177 -297 467q-72 170 -255 170h-22zM413 1796q0 73 20 113t51 40l30 9 q72 0 102 -61q-15 -141 -60 -141h-101q-5 0 -10.5 5t-15 16.5t-16.5 18.5zM738 1796q0 153 71 153q10 9 31 9q56 0 102 -61q-32 -141 -61 -141h-103q-7 0 -19.5 12.5t-20.5 27.5z" />
<glyph unicode="&#x2c6;" horiz-adv-x="722" d="M75 1131v21q93 201 272 282h10q171 -85 261 -282l11 -21q-32 0 -52 -10q-97 123 -209 199q-4 4 -7.5 9.5t-6.5 8t-7 2.5q-11 -10 -21 -20q-116 -94 -209 -199q-21 10 -42 10z" />
<glyph unicode="&#x2dc;" horiz-adv-x="714" d="M52 1220v20q0 63 18 95.5t63 47.5h103q106 -15 155 -60.5t49 -123.5h40q10 58 26 101.5t31 63t26 19.5h20q61 -30 61 -122q-15 -91 -58 -137.5t-106 -46.5q-111 32 -167 81t-56 124h-42l-20 -144v-41h-82q-61 31 -61 123z" />
<glyph unicode="&#x2000;" horiz-adv-x="1074" />
<glyph unicode="&#x2001;" horiz-adv-x="2148" />
<glyph unicode="&#x2002;" horiz-adv-x="1074" />
<glyph unicode="&#x2003;" horiz-adv-x="2148" />
<glyph unicode="&#x2004;" horiz-adv-x="716" />
<glyph unicode="&#x2005;" horiz-adv-x="537" />
<glyph unicode="&#x2006;" horiz-adv-x="358" />
<glyph unicode="&#x2007;" horiz-adv-x="358" />
<glyph unicode="&#x2008;" horiz-adv-x="268" />
<glyph unicode="&#x2009;" horiz-adv-x="429" />
<glyph unicode="&#x200a;" horiz-adv-x="119" />
<glyph unicode="&#x2010;" horiz-adv-x="650" d="M60 722v21q0 31 64 64h170q276 0 276 -64v-21q-170 -42 -255 -42q-55 0 -255 42z" />
<glyph unicode="&#x2011;" horiz-adv-x="650" d="M60 722v21q0 31 64 64h170q276 0 276 -64v-21q-170 -42 -255 -42q-55 0 -255 42z" />
<glyph unicode="&#x2012;" horiz-adv-x="650" d="M60 722v21q0 31 64 64h170q276 0 276 -64v-21q-170 -42 -255 -42q-55 0 -255 42z" />
<glyph unicode="&#x2013;" horiz-adv-x="621" d="M60 722v21q0 31 64 64h170q276 0 276 -64v-21q-170 -42 -255 -42q-55 0 -255 42z" />
<glyph unicode="&#x2014;" horiz-adv-x="872" d="M61 723v21q0 31 95 63h254q411 0 411 -63v-21q-255 -41 -380 -41q-78 0 -380 41z" />
<glyph unicode="&#x2018;" horiz-adv-x="523" d="M60 1194v21q112 553 255 553q0 21 22 21q26 0 106 -128v-85q-101 -446 -213 -446q-170 23 -170 64z" />
<glyph unicode="&#x2019;" horiz-adv-x="523" d="M60 1258v85q101 446 213 446q170 -23 170 -64v-21q-112 -553 -255 -553q0 -21 -22 -21q-26 0 -106 128z" />
<glyph unicode="&#x201a;" horiz-adv-x="513" d="M109 89v60q34 160 69.5 237t79.5 77q120 -24 120 -45v-14q-90 -389 -179 -389q0 -11 -2 -13t-13 -2q-5 0 -9.5 3t-11.5 11.5t-13 17t-18 26t-23 31.5z" />
<glyph unicode="&#x201c;" horiz-adv-x="1059" d="M60 1194v21q112 553 255 553q0 21 22 21q26 0 106 -128v-85q-101 -446 -213 -446q-170 23 -170 64zM596 1194v21q112 553 255 553q0 21 22 21q26 0 106 -128v-85q-101 -446 -213 -446q-170 23 -170 64z" />
<glyph unicode="&#x201d;" horiz-adv-x="1059" d="M60 1258v85q101 446 213 446q170 -23 170 -64v-21q-112 -553 -255 -553q0 -21 -22 -21q-26 0 -106 128zM596 1258v85q101 446 213 446q170 -23 170 -64v-21q-112 -553 -255 -553q0 -21 -22 -21q-26 0 -106 128z" />
<glyph unicode="&#x201e;" horiz-adv-x="757" d="M109 89v60q34 160 69.5 237t79.5 77q120 -24 120 -45v-14q-90 -389 -179 -389q0 -11 -2 -13t-13 -2q-5 0 -9.5 3t-11.5 11.5t-13 17t-18 26t-23 31.5zM425 89v60q34 160 69.5 237t79.5 77q120 -24 120 -45v-14q-90 -389 -179 -389q0 -11 -2 -13t-13 -2q-5 0 -9.5 3 t-11.5 11.5t-13 17t-18 26t-23 31.5z" />
<glyph unicode="&#x2022;" horiz-adv-x="586" d="M60 722q0 80 127 170q319 0 319 -85v-149q-64 -106 -149 -106q-297 20 -297 170z" />
<glyph unicode="&#x2026;" horiz-adv-x="2087" d="M89 190l53 92q58 101 235 109l92 -53q103 -75 78 -118l-11 -20l-39 -25q74 -44 52 -80l-31 -55q-194 -108 -279 -59q-179 158 -150 209zM806 190l53 92q58 101 235 109l92 -53q104 -75 79 -118l-11 -20l-40 -25q74 -44 52 -80l-31 -55q-194 -108 -279 -59 q-179 158 -150 209zM1524 190l53 92q58 101 235 109l91 -53q104 -75 79 -118l-11 -20l-39 -25q73 -43 52 -80l-32 -55q-194 -108 -279 -59q-178 157 -149 209z" />
<glyph unicode="&#x202f;" horiz-adv-x="429" />
<glyph unicode="&#x205f;" horiz-adv-x="537" />
<glyph unicode="&#x20ac;" horiz-adv-x="1786" d="M-10 945v32q0 63 378 95q293 536 884 536q378 -50 378 -126q0 -64 -64 -64l-157 64q-662 -171 -662 -442h378v-63q-244 -95 -442 -95v-158h32l189 32l379 -62v-64l-568 -63v-33q0 -345 726 -345l315 -32v-32q0 -85 -315 -126h-96q-1071 0 -1071 568q-221 32 -221 94v33 q34 0 94 30q56 -30 127 -30v219h-127z" />
<glyph unicode="&#x2122;" horiz-adv-x="1563" d="M60 1253v21l149 22h212q616 0 616 -128l128 106q297 0 297 -552q21 0 21 -21q-49 -127 -85 -127h-42q-101 0 -149 488h-21q-35 -191 -85 -191h-85q-58 0 -128 42q-15 -255 -85 -255h-42l-149 22v21q0 99 64 467l-42 22h-277v-22q85 0 85 -42v-489q0 -30 -63 -63h-43 l-106 21v106q0 294 64 489q-234 21 -234 63z" />
<glyph unicode="&#x25fc;" horiz-adv-x="1380" d="M0 0v1380h1380v-1380h-1380z" />
</font>
</defs>
</svg>
