<?xml version="1.0" standalone="no"?>
<!DOCTYPE svg PUBLIC "-//W3C//DTD SVG 1.1//EN" "http://www.w3.org/Graphics/SVG/1.1/DTD/svg11.dtd" >
<svg xmlns="http://www.w3.org/2000/svg" xmlns:xlink="http://www.w3.org/1999/xlink" version="1.1">
<metadata></metadata>
<defs>
<font id="exo_2medium" horiz-adv-x="1171" >
<font-face units-per-em="2048" ascent="1638" descent="-410" />
<missing-glyph horiz-adv-x="454" />
<glyph horiz-adv-x="0" />
<glyph unicode="&#xd;" horiz-adv-x="681" />
<glyph unicode=" "  horiz-adv-x="454" />
<glyph unicode="&#x09;" horiz-adv-x="454" />
<glyph unicode="&#xa0;" horiz-adv-x="454" />
<glyph unicode="!" horiz-adv-x="567" d="M184 811v612h199v-612l-21 -375h-157zM188 74v108q0 39 16.5 55.5t55.5 16.5h49q41 0 57.5 -16.5t16.5 -55.5v-108q0 -41 -16.5 -57.5t-57.5 -16.5h-49q-41 0 -56.5 16.5t-15.5 57.5z" />
<glyph unicode="&#x22;" horiz-adv-x="733" d="M137 1413h160l-12 -442h-135zM438 1413h160l-12 -442h-135z" />
<glyph unicode="#" horiz-adv-x="1409" d="M84 430l25 125h233l64 354h-236l25 125h231l66 379h157l-65 -379h356l66 379h157l-65 -379h225l-25 -125h-223l-61 -354h223l-25 -125h-221l-73 -430h-158l76 430h-359l-74 -430h-157l76 430h-238zM500 555h356l64 354h-359z" />
<glyph unicode="$" horiz-adv-x="1157" d="M113 1065q0 121 25.5 195.5t89 113.5t141 51.5t209.5 12.5h22l14 196h103l-15 -200q172 -6 302 -39l-13 -150q-180 8 -303 8l-35 -454l117 -33q158 -43 222.5 -139.5t64.5 -261.5q0 -236 -106.5 -313t-377.5 -77l-18 -231h-104l18 233q-170 8 -338 39l14 158 q262 -6 340 -8l37 463l-129 35q-152 41 -216 138t-64 263zM319 1059q0 -104 38 -147.5t135 -67.5l59 -17l35 428q-160 0 -213.5 -31.5t-53.5 -164.5zM588 166q154 0 207 39t53 162q0 109 -37 150.5t-131 66.5l-57 16z" />
<glyph unicode="%" horiz-adv-x="1835" d="M90 1020q0 229 75 324.5t259 95.5t259 -95.5t75 -324.5q0 -227 -75 -323.5t-259 -96.5t-259 96.5t-75 323.5zM242 1020q0 -168 38.5 -232.5t141.5 -64.5q104 0 143 64.5t39 232.5t-39 232.5t-143 64.5q-102 0 -141 -65.5t-39 -231.5zM393 0l903 1413h140l-904 -1413h-139 zM1077 399q0 227 75 323.5t259 96.5q182 0 257 -96t75 -324q0 -229 -75 -324t-257 -95q-184 0 -259 95t-75 324zM1229 399q-2 -168 37 -232.5t143 -64.5t143 64.5t39 232.5q0 170 -39 232.5t-143 62.5t-143 -63.5t-37 -231.5z" />
<glyph unicode="&#x26;" horiz-adv-x="1576" d="M131 358q0 170 64.5 264.5t214.5 106.5v8q-127 12 -182.5 92t-55.5 238q0 98 21.5 164.5t58.5 106.5t106.5 61.5t148.5 29t202 7.5q190 0 327 -23l-24 -153q-86 6 -310 6q-190 0 -255.5 -42t-65.5 -186q0 -135 55.5 -182t202.5 -47h369l16 252h166v-252h250v-156h-250 v-370q0 -72 27.5 -100.5t97.5 -28.5h145l23 -146q-92 -27 -223 -26q-209 0 -248 168q-90 -94 -197.5 -133.5t-267.5 -39.5q-225 0 -320.5 85t-95.5 296zM348 393q0 -137 53.5 -187t196.5 -50q256 2 406 147v350h-377q-158 0 -218.5 -54t-60.5 -206z" />
<glyph unicode="'" horiz-adv-x="432" d="M137 1413h160l-12 -442h-135z" />
<glyph unicode="(" horiz-adv-x="737" d="M104 639q0 399 133 637t416 342l25 -92q-199 -94 -290 -313.5t-91 -571.5q0 -692 381 -887l-25 -92q-283 106 -416 343t-133 634z" />
<glyph unicode=")" horiz-adv-x="737" d="M59 -246q381 195 381 887q0 352 -91 571.5t-290 313.5l25 92q285 -104 418 -342t133 -637q0 -397 -133 -633.5t-418 -343.5z" />
<glyph unicode="*" horiz-adv-x="921" d="M102 1124l39 111l240 -94v-51l-25 -33zM209 821l209 262l-17 332h119l-20 -332l209 -264l-95 -69l-155 254l-154 -252zM537 1090v51l243 94l37 -113l-254 -65z" />
<glyph unicode="+" horiz-adv-x="1126" d="M111 539v147h374v358h152v-358h377v-147h-377v-357h-150v357h-376z" />
<glyph unicode="," horiz-adv-x="475" d="M133 63v119q2 39 19.5 55.5t58.5 16.5h57q39 0 54.5 -15.5t15.5 -56.5v-131q-2 -182 -78 -325l-94 24q23 115 22 250q-55 0 -55 63z" />
<glyph unicode="-" horiz-adv-x="905" d="M141 442v152h623v-152h-623z" />
<glyph unicode="." horiz-adv-x="477" d="M133 74v108q0 41 16.5 56.5t57.5 15.5h63q41 0 57.5 -15.5t16.5 -56.5v-108q0 -41 -16.5 -57.5t-57.5 -16.5h-63q-41 0 -57.5 16.5t-16.5 57.5z" />
<glyph unicode="/" horiz-adv-x="1069" d="M51 -137l805 1550h162l-805 -1550h-162z" />
<glyph unicode="0" horiz-adv-x="1243" d="M125 706.5q0 395.5 111.5 564.5t384 169t384 -169t111.5 -564.5t-111.5 -564.5t-384 -169t-384 169t-111.5 564.5zM326 706.5q0 -307.5 64.5 -431t227.5 -123.5q170 0 235 122.5t65 432t-65 432.5t-235 123q-164 0 -228 -124t-64 -431.5z" />
<glyph unicode="1" horiz-adv-x="823" d="M41 1270l354 143h205v-1413h-205v1094q0 74 11 127l-340 -105z" />
<glyph unicode="2" horiz-adv-x="1153" d="M111 0v129q0 55 30 86l394 444q262 283 256 457q-2 88 -60.5 114.5t-189.5 26.5q-185 1 -408 -30l-12 159q229 51 438 52q223 0 330.5 -63.5t107.5 -246.5q0 -131 -53 -241.5t-192 -263.5l-394 -433q96 8 226 9h463v-199h-936z" />
<glyph unicode="3" horiz-adv-x="1140" d="M104 10l13 166q240 -20 389 -20q166 0 233.5 57t67.5 203q0 125 -55.5 185.5t-210.5 60.5h-260v159h260q145 2 190 63.5t45 178.5q-2 125 -57 161t-217 36q-168 -1 -361 -17l-14 160q211 37 405 37q236 0 338.5 -72t102.5 -256q0 -317 -207 -356v-8q131 -23 185.5 -110 t58.5 -245q4 -219 -100.5 -319.5t-352.5 -100.5q-195 0 -453 37z" />
<glyph unicode="4" horiz-adv-x="1267" d="M92 567l391 846h201l-381 -831q-16 -41 -2 -60.5t51 -19.5h451v409l37 230h157v-639h185v-146l-185 -20v-336h-194v336h-567q-92 0 -136.5 72.5t-7.5 158.5z" />
<glyph unicode="5" horiz-adv-x="1101" d="M100 27l25 166q193 -35 356 -35q182 0 243.5 61.5t66.5 204.5q2 41 -3.5 73.5t-11.5 58.5t-25.5 46.5t-34 33.5t-49 24.5t-58 17.5t-77 12t-87 9t-105.5 10l-107 10q-35 2 -56 26.5t-19 61.5l32 606h760l-8 -176h-586l-20 -352l160 -15q272 -23 384.5 -124t110.5 -322 q0 -94 -18.5 -167t-65.5 -140.5t-142 -104.5t-235 -37q-201 0 -430 52z" />
<glyph unicode="6" horiz-adv-x="1175" d="M131 680q0 244 32 395.5t106.5 230t168.5 105.5t246 27q176 0 293 -31l-16 -150q-92 6 -277 7q-98 0 -156.5 -16.5t-103.5 -68t-65.5 -144.5t-24.5 -247q70 76 148.5 107t195.5 31q221 0 305 -102.5t84 -360.5q0 -121 -17.5 -202t-64.5 -149.5t-138 -102.5t-233 -34 q-154 0 -246 32t-146 118t-72.5 213t-18.5 342zM332 643q0 -160 7 -242t38 -145t86 -83.5t153 -20.5q160 0 208 71.5t48 239.5q0 166 -52 231.5t-195 65.5q-84 0 -148.5 -25.5t-144.5 -91.5z" />
<glyph unicode="7" horiz-adv-x="1052" d="M76 1413h805q66 0 92 -36t8 -97l-436 -1280h-205l387 1130q23 66 47 109h-690z" />
<glyph unicode="8" horiz-adv-x="1243" d="M135 352q0 174 52.5 269.5t181.5 107.5v8q-201 23 -201 324q0 203 95 289t358 86q264 -2 359 -87t95 -288q0 -301 -201 -324v-8q127 -12 180.5 -107.5t53.5 -269.5q0 -201 -101.5 -286.5t-385.5 -88.5q-279 -2 -382.5 86.5t-103.5 288.5zM328 397q0 -141 59 -192t236 -51 q174 0 231 51t57 192q0 154 -56 204t-230 50q-178 -2 -237.5 -52t-59.5 -202zM354 1040q0 -135 53.5 -180t217 -45t214 44t50.5 181q0 133 -52.5 181.5t-214 48.5t-215 -48t-53.5 -182z" />
<glyph unicode="9" horiz-adv-x="1175" d="M109 948q-2 254 103 372t355 118q90 0 157 -11.5t118 -34t85 -64.5t57.5 -93t34.5 -132t16 -168t5 -212q0 -190 -20.5 -319.5t-59 -214.5t-108.5 -132t-154 -64.5t-211 -17.5q-184 0 -313 31l16 152q98 -6 295 -6t273 97t84 382q-74 -80 -154 -112t-196 -32 q-383 0 -383 461zM303 948q-2 -152 51.5 -224.5t192.5 -72.5q84 0 148.5 27t146.5 96q0 106 -2 169t-12.5 126.5t-28 94t-48 57t-75.5 35t-111 8.5q-158 0 -211 -75t-51 -241z" />
<glyph unicode=":" horiz-adv-x="495" d="M135 74v108q0 39 16.5 55.5t55.5 16.5h65q41 0 57.5 -15.5t16.5 -56.5v-108q0 -41 -16.5 -57.5t-57.5 -16.5h-65q-41 0 -56.5 16.5t-15.5 57.5zM135 723v111q0 39 16.5 55t55.5 16h65q41 0 57.5 -15.5t16.5 -55.5v-111q0 -41 -16.5 -56.5t-57.5 -15.5h-65 q-39 0 -55.5 16.5t-16.5 55.5z" />
<glyph unicode=";" horiz-adv-x="497" d="M145 723v111q0 41 16.5 56t57.5 15h64q41 0 57 -15.5t16 -55.5v-111q0 -41 -16 -56.5t-57 -15.5h-64q-41 0 -57.5 15.5t-16.5 56.5zM147 63v119q2 39 18.5 55.5t57.5 16.5h58q39 0 54 -15.5t15 -56.5v-131q-2 -182 -78 -325l-92 24q20 121 21 250q-57 0 -54 63z" />
<glyph unicode="&#x3c;" horiz-adv-x="1081" d="M104 532v156l838 354v-157l-668 -275l668 -268v-158z" />
<glyph unicode="=" horiz-adv-x="1198" d="M145 311v148h906v-148h-906zM145 743v148h906v-148h-906z" />
<glyph unicode="&#x3e;" horiz-adv-x="1081" d="M139 184v158l668 268l-668 275v157l838 -354v-156z" />
<glyph unicode="?" horiz-adv-x="1032" d="M78 1415q25 4 76 13.5t77.5 12.5t73.5 8t102.5 7t127.5 2q418 0 417 -317q0 -84 -36.5 -156t-90 -126t-106.5 -110.5t-93 -136.5t-44 -176h-168q-2 104 29.5 191.5t79.5 145.5t97.5 109.5t84 109t36.5 114.5q4 94 -56 139t-193 45q-197 0 -404 -18zM399 74v108 q0 41 16.5 56.5t57.5 15.5h49q41 0 57.5 -15.5t16.5 -56.5v-108q0 -41 -16.5 -57.5t-57.5 -16.5h-49q-41 0 -57.5 16.5t-16.5 57.5z" />
<glyph unicode="@" horiz-adv-x="1480" d="M145 547q0 156 6.5 250t30 175t58 121t105.5 67.5t156 35.5t224 8h297q156 0 235.5 -70.5t79.5 -230.5v-633h-147l-21 154q-63 -66 -170.5 -118t-222.5 -52q-123 0 -196.5 64.5t-73.5 185.5v102q0 102 59.5 157.5t175.5 55.5h410v78q0 82 -36 112.5t-132 30.5h-256 q-100 0 -151.5 -3t-103.5 -20.5t-72.5 -45t-39 -88t-22.5 -136t-4 -200.5q0 -98 2 -163t13 -123t21.5 -90t41 -59.5t56.5 -39t84 -19.5t106.5 -9t140.5 -1h534v-147q-317 -18 -532 -19q-158 -2 -254 5t-176 36t-119 69t-65.5 123t-34 180t-7.5 257zM690 539q0 -127 125 -127 q86 0 179 33.5t157 93.5v159l-340 -8q-70 -2 -95.5 -25.5t-25.5 -82.5v-43z" />
<glyph unicode="A" horiz-adv-x="1282" d="M18 0l443 1358q16 55 76 55h208q61 0 74 -55l445 -1358h-211l-131 426h-564l-131 -426h-209zM414 604h454l-166 537q-6 18 -17 57t-17 57h-56l-32 -114z" />
<glyph unicode="B" horiz-adv-x="1273" d="M172 0v1413q166 16 471 17q266 0 369.5 -77t103.5 -292q0 -154 -57 -233t-182 -91v-8q154 -14 218 -107.5t64 -269.5q0 -213 -101.5 -290.5t-352.5 -77.5q-346 0 -533 16zM373 160l301 -2q162 0 220 46t58 183q0 154 -62.5 209t-227.5 57h-289v-493zM373 811h286 q147 0 204 46t57 179q0 131 -61.5 175t-225.5 44h-260v-444z" />
<glyph unicode="C" d="M121 706.5q0 403.5 125 567.5t434 164q221 0 391 -41l-20 -158q-164 16 -371 16q-195 0 -269.5 -118.5t-74.5 -430t74.5 -430t269.5 -118.5h21q244 0 378 22l21 -155q-170 -49 -420 -50q-309 0 -434 164t-125 567.5z" />
<glyph unicode="D" horiz-adv-x="1361" d="M172 0v1413q268 18 510 19q311 0 435 -158t124 -567.5t-124 -567t-435 -157.5q-242 0 -510 18zM377 166q131 -6 305 -6q193 0 267.5 118.5t74.5 428t-75 428t-267 118.5q-61 0 -162.5 -1t-142.5 -1v-1085z" />
<glyph unicode="E" horiz-adv-x="1150" d="M160 250v913q2 117 77.5 185.5t206.5 68.5q420 0 607 -16l-11 -160h-561q-61 0 -86.5 -29.5t-25.5 -101.5v-283h596v-165h-596v-361q0 -72 25.5 -101.5t86.5 -29.5h561l11 -158q-186 -16 -607 -16q-131 0 -206.5 68.5t-77.5 185.5z" />
<glyph unicode="F" horiz-adv-x="1105" d="M168 0v1153q0 125 77 194.5t208 69.5q406 0 585 -18l-10 -158h-524q-72 0 -101.5 -29.5t-29.5 -101.5v-305h577v-166h-577v-639h-205z" />
<glyph unicode="G" horiz-adv-x="1288" d="M121 713q0 285 59.5 441.5t186.5 221t356 64.5q221 0 393 -43l-20 -156q-172 16 -361 16q-96 0 -155.5 -11t-110.5 -44t-76.5 -96.5t-40 -161.5t-14.5 -246q0 -305 62.5 -425.5t220.5 -120.5q150 0 333 124v539h201v-815h-151l-21 143q-178 -170 -420 -170 q-233 0 -337.5 178.5t-104.5 561.5z" />
<glyph unicode="H" horiz-adv-x="1372" d="M172 0v1413h205v-571h618v571h205v-1413h-205v666h-618v-666h-205z" />
<glyph unicode="I" horiz-adv-x="548" d="M172 0v1413h205v-1413h-205z" />
<glyph unicode="J" horiz-adv-x="702" d="M57 8l23 148h100q152 0 152 143v1114h205v-1104q0 -162 -72 -245q-70 -82 -201 -82h-6q-121 0 -201 26z" />
<glyph unicode="K" horiz-adv-x="1222" d="M172 0v1413h205v-434q0 -88 -15 -160h160l416 594h223l-399 -577q-33 -47 -86 -99v-6q57 -49 98 -106l414 -625h-227l-439 653h-160q14 -86 15 -145v-508h-205z" />
<glyph unicode="L" horiz-adv-x="1054" d="M168 274v1139h205v-1110q0 -72 28.5 -101.5t100.5 -29.5h502l10 -158q-199 -18 -545 -18q-301 0 -301 278z" />
<glyph unicode="M" horiz-adv-x="1804" d="M145 0l54 1329q4 84 84 84h227q63 0 86 -70l240 -827q20 -74 47 -190h37q25 109 49 192l237 825q22 70 90 70h224q80 0 84 -84l57 -1329h-205l-49 1243h-41l-287 -1005q-18 -70 -88 -70h-178q-72 0 -90 70l-289 1005h-39l-47 -1243h-203z" />
<glyph unicode="N" horiz-adv-x="1449" d="M172 0v1333q0 80 78 80h188q59 0 90 -63l428 -938q8 -18 29 -60.5t38 -80.5t32 -70h30q-10 123 -10 219v993h203v-1333q0 -80 -76 -80h-194q-61 0 -88 63l-441 963q-74 160 -84 197h-28q10 -82 10 -197v-1026h-205z" />
<glyph unicode="O" horiz-adv-x="1370" d="M121 706.5q0 413.5 125 573.5t438 160q315 0 440 -160t125 -573.5t-125 -573.5t-440 -160q-313 0 -438 160t-125 573.5zM336 706.5q0 -313.5 74.5 -432t273.5 -118.5t274.5 118.5t75.5 432t-75.5 432t-274.5 118.5t-273.5 -118.5t-74.5 -432z" />
<glyph unicode="P" horiz-adv-x="1212" d="M172 0v1413q174 18 492 19q264 0 363 -94.5t99 -352.5q0 -260 -95 -354t-343 -94q-154 0 -311 18v-555h-205zM377 713h282q150 2 205.5 57t55.5 215t-55.5 215t-205.5 55q-205 0 -282 -2v-540z" />
<glyph unicode="Q" horiz-adv-x="1374" d="M121 706.5q0 413.5 126 573.5t439 160q315 0 440 -160t125 -573.5t-125 -573.5t-440 -160q-313 0 -439 160t-126 573.5zM338 706.5q0 -313.5 74.5 -432t273.5 -118.5t274.5 118.5t75.5 432t-75.5 432t-274.5 118.5t-273.5 -118.5t-74.5 -432zM545 -209l55 125 q244 -94 559 -139l-65 -205q-262 55 -549 219z" />
<glyph unicode="R" horiz-adv-x="1269" d="M172 0v1413q174 18 494 19q256 0 361.5 -88.5t105.5 -321.5q0 -170 -60.5 -256t-200.5 -104v-11q137 -41 179 -205l133 -446h-219l-121 440q-45 141 -178 142l-291 2v-584h-203zM375 758h287q152 2 208 54t56 198q0 143 -56.5 194t-207.5 51q-209 0 -287 -2v-495z" />
<glyph unicode="S" horiz-adv-x="1153" d="M109 1065q0 121 25.5 195.5t89 113.5t141 51.5t208.5 12.5q250 0 426 -43l-12 -150q-297 10 -405 10q-160 0 -213.5 -31.5t-53.5 -164.5q0 -104 38 -147.5t132 -67.5l281 -78q158 -43 222.5 -139.5t64.5 -261.5q0 -233 -106.5 -311.5t-375.5 -78.5q-225 0 -444 41l14 152 q319 -10 434 -10q160 2 214.5 41t54.5 168q0 109 -37 150.5t-131 66.5l-287 80q-152 41 -216 138t-64 263z" />
<glyph unicode="T" horiz-adv-x="1196" d="M49 1231v182h1100v-182h-449v-1231h-206v1231h-445z" />
<glyph unicode="U" horiz-adv-x="1363" d="M162 545v868h205v-868q0 -217 69.5 -303t245.5 -86q174 0 244.5 86t70.5 303v868h205v-868q0 -311 -115.5 -441.5t-396.5 -130.5q-289 0 -408.5 130t-119.5 442z" />
<glyph unicode="V" horiz-adv-x="1253" d="M31 1413h211l319 -1100q10 -39 39 -155h55q12 59 39 155l318 1100h211l-418 -1356q-18 -57 -78 -57h-201q-59 0 -77 57z" />
<glyph unicode="W" horiz-adv-x="1947" d="M61 1413h218l202 -1077q6 -35 25 -180h47q10 88 31 180l202 1010q14 67 76 67h2h219q29 0 50.5 -19.5t27.5 -47.5l201 -1012q16 -82 31 -178h47q4 29 12 88t14 88l203 1081h217l-270 -1354q-18 -59 -80 -59h-227q-66 0 -80 61l-205 1039q-20 106 -29 160h-43l-30 -160 l-203 -1039q-4 -27 -27.5 -44t-52.5 -17h-229q-63 0 -78 59z" />
<glyph unicode="X" horiz-adv-x="1259" d="M45 0l389 731l-362 682h221l309 -602h53l310 602h221l-363 -682l389 -731h-223l-336 655h-49l-336 -655h-223z" />
<glyph unicode="Y" horiz-adv-x="1175" d="M18 1413h218l284 -579q16 -35 62 -164h14q43 127 61 161l285 582h213l-465 -924v-489h-205v492z" />
<glyph unicode="Z" horiz-adv-x="1163" d="M98 0v174l731 1065h-720v174h944v-174l-729 -1065h743v-174h-969z" />
<glyph unicode="[" horiz-adv-x="679" d="M182 -219v1673q0 53 34 86t85 33h297v-129h-199q-31 0 -30 -33v-1587q0 -33 30 -33h199v-129h-297q-119 0 -119 119z" />
<glyph unicode="\" horiz-adv-x="1071" d="M51 1413h164l805 -1550h-164z" />
<glyph unicode="]" horiz-adv-x="679" d="M82 -209h197q33 0 32 33v1587q0 33 -32 33h-197v129h297q51 0 85 -33t34 -86v-1673q0 -51 -34 -85t-85 -34h-297v129z" />
<glyph unicode="^" horiz-adv-x="886" d="M61 803l312 436h143l309 -436l-80 -49l-292 354h-17l-295 -354z" />
<glyph unicode="_" horiz-adv-x="1179" d="M141 0h897v-150h-897v150z" />
<glyph unicode="`" horiz-adv-x="659" d="M51 1335l111 152l362 -299l-65 -92z" />
<glyph unicode="a" horiz-adv-x="1128" d="M100 264v105q0 119 74 184t209 65h401v78q-2 92 -43 127t-155 35h-9q-116 0 -415 -24l-19 145q270 47 486 47q182 0 268 -73.5t86 -256.5v-696h-156l-22 158q-172 -176 -399 -176q-139 0 -222.5 73.5t-83.5 208.5zM301 289q0 -74 35 -106.5t110 -32.5q178 0 338 139v180 h-364q-66 -2 -92.5 -34t-26.5 -93v-53z" />
<glyph unicode="b" horiz-adv-x="1173" d="M150 47v1387h198v-359q0 -137 -20 -227q168 178 377 178q186 0 274 -123t88 -399q0 -268 -99.5 -398.5t-351.5 -130.5q-268 0 -466 72zM348 172q123 -31 264 -31q137 2 192.5 82t57.5 281q-2 201 -47 275.5t-180 74.5q-70 0 -132.5 -32.5t-154.5 -106.5v-543z" />
<glyph unicode="c" horiz-adv-x="1005" d="M106 499.5q0 288.5 108 407.5t370 119q201 0 331 -51l-26 -127q-154 10 -271 10q-172 0 -238.5 -75.5t-66.5 -282.5t66.5 -283t238.5 -76q168 0 295 23l19 -133q-152 -55 -348 -56q-262 0 -370 118t-108 406.5z" />
<glyph unicode="d" horiz-adv-x="1177" d="M109 504q0 287 92 404.5t288 117.5q188 0 345 -90q-8 88 -9 197v301h199v-1434h-156l-16 137q-193 -162 -393 -162q-184 0 -267 132.5t-83 396.5zM313 506q0 -207 48.5 -283t164.5 -76q76 0 134.5 26.5t164.5 98.5v533q-186 49 -286 49q-127 0 -176.5 -70.5t-49.5 -277.5 z" />
<glyph unicode="e" horiz-adv-x="1103" d="M106 502q0 291 108 407.5t355 116.5q229 0 334 -84t105 -252q0 -287 -244 -287h-449q14 -156 81 -209t218 -53q133 0 351 25l18 -131q-135 -59 -395 -60q-262 0 -372 119t-110 408zM313 557h398q98 0 98 133q-2 92 -52 130t-177 38q-147 0 -205 -62.5t-62 -238.5z" />
<glyph unicode="f" horiz-adv-x="788" d="M55 846v143l181 10v175q0 145 69.5 219.5t226.5 74.5q193 0 289 -14l-16 -147h-203q-92 0 -130 -35t-38 -121v-152h309v-153h-309v-846h-198v846h-181z" />
<glyph unicode="g" horiz-adv-x="1148" d="M78 -102q0 84 37 133t123 98q-66 54 -66 141q0 9 1 18q7 99 79 150q-131 68 -131 264q0 176 96 250t340 74q150 0 238 -27h311l-10 -106l-142 -14q35 -70 35 -174q0 -170 -97 -245t-337 -75q-111 0 -199 16q-22 -29 -22 -62q0 -16 4 -32q16 -51 82 -61l368 -58 q141 -20 202 -87.5t61 -196.5q0 -178 -104.5 -246t-379.5 -68q-276 0 -382.5 67t-106.5 241zM270 -86q0 -98 56.5 -127t238.5 -29q176 0 233.5 30t57.5 126q0 70 -30.5 91.5t-139.5 37.5l-321 43q-94 -78 -95 -172zM301 705q0 -92 56.5 -131t197.5 -39q139 0 194.5 37.5 t55.5 132.5q0 96 -54.5 132.5t-195.5 36.5q-143 0 -198.5 -36.5t-55.5 -132.5z" />
<glyph unicode="h" horiz-adv-x="1193" d="M154 0v1434h200v-387q0 -102 -14 -195q238 174 436 174q131 0 201 -70.5t70 -205.5v-750h-199v692q0 94 -27.5 130t-99.5 36q-78 0 -159 -35t-210 -112v-711h-198z" />
<glyph unicode="i" horiz-adv-x="520" d="M156 1253v115q0 57 57 57h94q57 0 58 -57v-115q0 -59 -58 -59h-94q-57 0 -57 59zM162 0v999h196v-999h-196z" />
<glyph unicode="j" horiz-adv-x="524" d="M49 -328q115 145 115 318v1009h198v-1009q0 -123 -54 -229.5t-148 -174.5zM158 1253v115q0 57 59 57h94q57 0 58 -57v-115q0 -59 -58 -59h-94q-59 0 -59 59z" />
<glyph unicode="k" horiz-adv-x="1058" d="M154 0v1434h200v-629q0 -88 -12 -170h123l301 364h229l-301 -362q-27 -37 -73 -74v-4q39 -31 73 -86l334 -473h-229l-332 492h-125q10 -88 10 -156v-336h-198z" />
<glyph unicode="l" horiz-adv-x="618" d="M156 244v1190h198v-1145v-7q0 -58 31 -88q33 -32 98 -32h92l23 -154q-57 -26 -181 -26h-9q-117 0 -184.5 68.5t-67.5 193.5z" />
<glyph unicode="m" horiz-adv-x="1792" d="M154 0v999h163l11 -153q209 180 401 180q207 0 254 -174q199 174 393 174q131 0 200 -70.5t69 -205.5v-750h-195v692q-2 88 -35 127t-110 39q-68 0 -129.5 -30.5t-180.5 -116.5v-711h-190v692q0 90 -35 128t-111 38q-66 0 -128 -30.5t-181 -114.5v-713h-196z" />
<glyph unicode="n" horiz-adv-x="1193" d="M154 0v999h168l12 -153q236 180 442 180q133 0 202 -70.5t69 -205.5v-750h-199v692q0 94 -27.5 130t-99.5 36q-78 0 -156 -35t-213 -114v-709h-198z" />
<glyph unicode="o" horiz-adv-x="1167" d="M106 497.5q0 286.5 109 407.5t369 121t368.5 -121t108.5 -407.5t-108.5 -405.5t-368.5 -119t-369 119t-109 405.5zM313 498q0 -207 57.5 -283t213 -76t213 76t57.5 283q0 209 -57.5 284.5t-213 75.5t-213 -75.5t-57.5 -284.5z" />
<glyph unicode="p" horiz-adv-x="1196" d="M154 -408v1407h163l15 -153q78 82 192.5 131t223.5 49q339 0 339 -529q0 -286 -92 -404t-288 -118q-201 0 -361 101q5 -57 5 -128q0 -36 -1 -75v-281h-196zM350 201q207 -53 303 -54q129 0 179.5 71t50.5 278q0 199 -46 278.5t-157 79.5q-129 0 -330 -145v-508z" />
<glyph unicode="q" d="M106 498q0 268 100.5 398t356.5 130q262 0 459 -74v-1360h-199v328q0 131 17 207q-186 -154 -389 -154q-174 0 -259.5 126t-85.5 399zM311 483q0 -180 43 -258t164 -78q78 0 143.5 29.5t163.5 95.5v555q-114 31 -236 31h-28q-141 -4 -195.5 -81t-54.5 -294z" />
<glyph unicode="r" horiz-adv-x="827" d="M154 0v999h153l21 -151q223 178 420 178h47l-23 -186h-61q-117 0 -359 -115v-725h-198z" />
<glyph unicode="s" horiz-adv-x="1042" d="M98 748q0 166 89 223q86 55 292 55h15q240 -4 426 -35l-17 -143q-313 10 -379 10q-145 0 -189 -17.5t-44 -92.5q0 -35 6 -56.5t31.5 -36t40 -19.5t63.5 -20l283 -69q127 -33 180 -93.5t53 -187.5q0 -176 -97 -232.5t-337 -56.5q-209 0 -397 29l14 148q115 -10 342 -11 q168 0 225.5 23.5t57.5 99.5q0 33 -8.5 54.5t-35 36t-42 19.5t-66.5 17l-278 70q-125 33 -176.5 97.5t-51.5 187.5z" />
<glyph unicode="t" horiz-adv-x="794" d="M51 846v143l182 8v295h197v-293h309v-153h-309v-557q0 -70 29.5 -98.5t101.5 -28.5h146l22 -154q-91 -26 -225 -26h-10q-127 0 -194 72.5t-67 207.5v584h-182z" />
<glyph unicode="u" d="M147 250v749h199v-692v-10q0 -84 31 -118q33 -36 112 -36q117 0 332 133v723h197v-999h-158l-14 137q-219 -164 -426 -164q-272 0 -273 277z" />
<glyph unicode="v" horiz-adv-x="1093" d="M33 999h211l233 -688l55 -172h27l59 172l232 688h211l-356 -950q-20 -49 -70 -49h-178q-51 0 -68 49z" />
<glyph unicode="w" horiz-adv-x="1691" d="M47 999h205l192 -720q25 -102 31 -154h27l35 154l147 659q14 61 74 61h178q59 0 74 -63l145 -657q4 -20 35 -154h27q14 92 30 154l193 720h205l-281 -944q-16 -55 -76 -55h-178q-61 0 -76 63l-145 658q-4 18 -9.5 50t-10.5 58.5t-11 51.5h-24l-33 -160l-144 -658 q-14 -63 -77 -63h-177q-61 0 -73 55z" />
<glyph unicode="x" horiz-adv-x="1091" d="M41 0l328 516l-303 483h213l245 -403h43l244 403h213l-301 -483l328 -516h-215l-271 442h-39l-270 -442h-215z" />
<glyph unicode="y" horiz-adv-x="1091" d="M33 999h213l248 -727q25 -63 34 -122h29q20 55 41 122l246 727h213l-387 -1046q-139 -369 -459 -373l-21 131q117 35 184.5 96.5t108.5 155.5l15 37h-41q-57 0 -70 51z" />
<glyph unicode="z" horiz-adv-x="1048" d="M98 0v162l625 676h-617v161h836v-161l-623 -676h631v-162h-852z" />
<glyph unicode="{" horiz-adv-x="661" d="M90 602v139q80 25 98.5 46.5t18.5 109.5v401q-1 306 368 275v-125q-102 0 -140 -37t-38 -129v-354q2 -127 -36.5 -181.5t-151.5 -74.5q115 -35 154.5 -87.5t42.5 -160.5v-473q0 -92 37.5 -128t140.5 -36v-125q-369 -31 -369 275v518q0 39 -5 61.5t-25.5 38.5t-34 22.5 t-60.5 24.5z" />
<glyph unicode="|" horiz-adv-x="509" d="M182 -346v1945h144v-1945h-144z" />
<glyph unicode="}" horiz-adv-x="663" d="M80 -213q102 0 140 36t38 128v473q2 109 42 161t155 87q-113 20 -152 74.5t-37 181.5v354q0 92 -38 129t-140 37v125q369 31 369 -275v-401q0 -88 18.5 -109.5t97.5 -46.5v-139q-84 -33 -102 -55q-23 -27 -22 -92v-518q0 -305 -369 -275v125z" />
<glyph unicode="~" horiz-adv-x="1071" d="M154 461q-16 129 29.5 195.5t127.5 62.5q74 -4 221.5 -57.5t198.5 -59.5t69.5 18.5t18.5 88.5h103q14 -125 -31 -191.5t-129 -60.5q-84 4 -229.5 57t-192.5 57q-51 6 -68.5 -19t-17.5 -91h-100z" />
<glyph unicode="&#xa1;" horiz-adv-x="534" d="M168 205l20 375h158l21 -375v-602h-199v602zM170 831v111q0 41 17.5 57.5t56.5 16.5h49q39 0 55.5 -16.5t16.5 -57.5v-111q0 -41 -16.5 -56t-55.5 -15h-49q-41 0 -57.5 16.5t-16.5 54.5z" />
<glyph unicode="&#xa2;" horiz-adv-x="1040" d="M104 715q0 289 109 406.5t371 117.5h16l16 174h103l-17 -178q123 -14 211 -45l-24 -133q-86 10 -203 14l-61 -715q143 1 286 21l19 -133q-143 -49 -324 -54l-18 -190h-101l19 193q-219 14 -310.5 133.5t-91.5 388.5zM301 715q0 -178 50 -257.5t171 -95.5l60 709 q-158 -6 -219.5 -83t-61.5 -273z" />
<glyph unicode="&#xa3;" horiz-adv-x="1169" d="M113 686v115h153l-14 264q-6 117 16.5 192.5t77.5 114.5t124 52.5t175 13.5q164 0 377 -21l-12 -164q-158 6 -361 7q-119 0 -162 -41t-34 -158l14 -260h420l-6 -115h-406l8 -139q8 -141 -25.5 -226t-119.5 -155q47 10 139 10h590v-176h-944v176q176 82 158 371l-9 139 h-159z" />
<glyph unicode="&#xa4;" horiz-adv-x="1212" d="M129 340l145 145q-74 102 -73 234q0 137 80 242l-146 145l86 86l144 -145q106 78 241 77q137 0 242 -80l147 148l84 -86l-147 -148q78 -106 78 -239q0 -131 -80 -238l151 -149l-88 -86l-149 149q-102 -80 -237.5 -80t-239.5 78l-146 -145zM319 721q0 -119 84 -204 t203 -83q115 -2 198 83t83 204t-83 203t-198 84q-119 0 -203 -84t-84 -203z" />
<glyph unicode="&#xa5;" horiz-adv-x="1271" d="M68 1413h213l282 -553q14 -29 37 -85t31 -77h14q6 12 28.5 71.5t35.5 90.5l282 553h213l-391 -745h283v-117h-346l-11 -23v-92h357v-117h-357v-319h-204v319h-349v117h349v92l-13 23h-334l-4 117h277z" />
<glyph unicode="&#xa6;" horiz-adv-x="514" d="M184 -346v819h144v-819h-144zM184 780v819h144v-819h-144z" />
<glyph unicode="&#xa7;" horiz-adv-x="1116" d="M123 1169q0 160 98 215.5t314 55.5q258 -4 446 -25l-12 -155q-178 12 -379 12q-70 0 -108 -2t-75.5 -11.5t-54 -32t-18.5 -61.5q-2 -66 30.5 -104.5t100.5 -73.5l319 -180q145 -78 183.5 -200t-6.5 -288h-144q10 133 -19.5 207t-123.5 127l-344 199q-106 61 -156.5 129 t-50.5 188zM135 -313l17 155q190 -12 380 -14q68 0 105 2t75 13.5t54 35t16 62.5q4 63 -28.5 103t-96.5 77l-321 178q-145 76 -184 196.5t4 288.5h143q-10 -135 19.5 -206.5t125.5 -124.5l344 -197q104 -59 155.5 -129t51.5 -193q0 -88 -27.5 -144t-87 -82.5t-126 -36 t-170.5 -9.5q-262 4 -449 25z" />
<glyph unicode="&#xa8;" horiz-adv-x="845" d="M158 1262v110q0 55 53 55h65q53 0 54 -55v-110q0 -55 -54 -56h-65q-53 0 -53 56zM520 1262v110q0 55 53 55h66q55 0 55 -55v-110q0 -55 -55 -56h-66q-53 0 -53 56z" />
<glyph unicode="&#xa9;" horiz-adv-x="1703" d="M115 706.5q0 315.5 213 524.5t524 209t524 -208t213 -525.5t-213 -525.5t-524 -208t-524 209t-213 524.5zM223 706.5q0 -268.5 183.5 -448.5t445.5 -180t445.5 180t183.5 448.5t-183.5 448.5t-445.5 180t-445.5 -180t-183.5 -448.5zM463 710.5q0 245.5 90 346t309 100.5 q162 0 277 -29l-17 -112q-117 8 -262 8q-139 0 -191.5 -67.5t-52.5 -246t52.5 -246t191.5 -67.5q185 1 285 13l14 -113q-123 -33 -297 -33q-219 0 -309 100.5t-90 346z" />
<glyph unicode="&#xaa;" horiz-adv-x="903" d="M125 725v78q0 78 51 122t143 44h291v51q0 102 -123 102q-102 0 -315 -16l-16 111q211 31 362 30q121 0 181.5 -52t60.5 -175v-461h-119l-18 123q-129 -137 -293 -137q-92 0 -148.5 47t-56.5 133zM270 758q0 -47 26 -66.5t81 -19.5q113 0 233 94v119l-243 -19 q-53 -2 -75 -21.5t-22 -56.5v-30z" />
<glyph unicode="&#xab;" horiz-adv-x="1005" d="M88 492v45l328 405l104 -68l-250 -360l252 -367l-104 -69zM469 492v45l328 405l104 -68l-250 -360l252 -367l-104 -69z" />
<glyph unicode="&#xac;" horiz-adv-x="1208" d="M145 535v149h906v-414h-150v265h-756z" />
<glyph unicode="&#xad;" horiz-adv-x="903" d="M141 442v152h623v-152h-623z" />
<glyph unicode="&#xae;" horiz-adv-x="1122" d="M104 983q0 188 133.5 321.5t323.5 133.5q188 0 321.5 -133.5t133.5 -321.5q0 -190 -133 -323.5t-322 -133.5q-190 0 -323.5 133.5t-133.5 323.5zM174 983q0 -162 113.5 -276.5t273.5 -114.5t273.5 114.5t113.5 276.5t-113.5 275.5t-273.5 113.5t-273.5 -113.5 t-113.5 -275.5zM356 725v520q72 6 224 6q115 0 163 -32.5t48 -116.5q0 -117 -119 -131v-4q59 -8 80 -78l59 -164h-96l-53 160q-23 53 -82 53h-134v-213h-90zM446 1004h132q70 2 96 20t24 68q2 53 -24.5 70.5t-95.5 17.5h-132v-176z" />
<glyph unicode="&#xaf;" horiz-adv-x="819" d="M121 1241v145h577v-145h-577z" />
<glyph unicode="&#xb0;" horiz-adv-x="735" d="M100 1180q0 106 79 183t190 77q109 0 188.5 -77t79.5 -183q0 -109 -80 -188t-188 -79q-111 0 -190 79t-79 188zM225 1180q0 -63 41 -104.5t103 -41.5q59 0 101 41t42 105q0 61 -41 101t-102.5 40t-102.5 -40t-41 -101z" />
<glyph unicode="&#xb1;" horiz-adv-x="1200" d="M147 133v148h906v-148h-906zM147 666v147h377v268h152v-268h377v-147h-379v-269h-150v269h-377z" />
<glyph unicode="&#xb2;" horiz-adv-x="888" d="M121 737v86q0 41 24 66l252 244q162 156 168 251q2 51 -35.5 67.5t-119.5 16.5q-134 0 -273 -14l-8 117q154 29 291 28q168 0 240.5 -39.5t72.5 -158.5q0 -129 -164 -287l-250 -244q57 8 138 4h309v-137h-645z" />
<glyph unicode="&#xb3;" horiz-adv-x="849" d="M117 743l8 115q133 -8 262 -8q109 0 151 30.5t42 112.5q0 59 -36 93t-134 34h-174v117h174q51 0 83.5 10t47 31.5t18.5 40t4 47.5q0 63 -37 85t-139 22q-148 -1 -246 -7l-8 113q152 23 279 23q170 0 236.5 -43t66.5 -154q0 -193 -156 -215v-4q96 -12 136 -64.5t42 -148.5 q4 -133 -67.5 -192.5t-243.5 -59.5q-129 0 -309 22z" />
<glyph unicode="&#xb4;" horiz-adv-x="657" d="M111 1188l362 299l111 -152l-408 -239z" />
<glyph unicode="&#xb6;" horiz-adv-x="1214" d="M76 922q0 283 144.5 399.5t484.5 116.5q190 0 315 -35v-1403h-148v1303q-41 2 -180 8v-1741h-147v842q-250 23 -359.5 141.5t-109.5 368.5z" />
<glyph unicode="&#xb7;" horiz-adv-x="495" d="M141 473v111q0 39 16.5 55t57.5 16h66q39 0 55 -16t16 -55v-111q0 -39 -16.5 -55.5t-54.5 -16.5h-66q-41 0 -57.5 16.5t-16.5 55.5z" />
<glyph unicode="&#xb8;" horiz-adv-x="483" d="M66 -473l32 104q78 -2 128 35t53 98q2 33 -22.5 44.5t-98.5 13.5l20 92q135 12 189.5 -14.5t52.5 -118.5q-2 -133 -102.5 -204t-251.5 -50z" />
<glyph unicode="&#xb9;" horiz-adv-x="606" d="M63 1499l238 86h154v-848h-154v627q0 55 6 84l-223 -57z" />
<glyph unicode="&#xba;" horiz-adv-x="907" d="M115 892.5q0 194.5 76 274.5t262 80q188 0 264 -80t76 -274.5t-76 -272t-264 -77.5q-186 0 -262 77.5t-76 272zM268 893q2 -133 41 -180t144 -47q106 0 145 47t39 180t-40 182t-144.5 49t-143.5 -49t-41 -182z" />
<glyph unicode="&#xbb;" horiz-adv-x="1005" d="M102 147l252 367l-250 360l107 68l326 -405v-45l-328 -414zM483 147l252 367l-250 360l105 68l328 -405v-45l-330 -414z" />
<glyph unicode="&#xbc;" horiz-adv-x="1775" d="M72 1327l235 86h154v-848h-154v627q0 45 8 84l-225 -57zM285 0l903 1413h139l-903 -1413h-139zM979 229.5q-27 36.5 2 102.5l250 516h149l-239 -492q-8 -16 2 -29.5t33 -13.5h274v236l27 135h118v-371h99v-106l-99 -12v-195h-145v193h-387q-57 0 -84 36.5z" />
<glyph unicode="&#xbd;" horiz-adv-x="1822" d="M72 1327l235 86h154v-848h-154v627q0 45 8 84l-225 -57zM268 0l903 1413h140l-901 -1413h-142zM1079 0v86q0 41 25 66l252 243q162 156 168 252q2 51 -36 67.5t-120 16.5q-133 0 -272 -14l-9 117q154 29 291 28q166 0 240 -40t74 -158q0 -125 -164 -287l-252 -244 q61 8 137 4h311v-137h-645z" />
<glyph unicode="&#xbe;" horiz-adv-x="1964" d="M111 567l8 115q133 -8 262 -8q109 0 150.5 30.5t41.5 110.5q0 61 -35.5 95t-134.5 34l-174 4v107l174 6q66 0 102 21.5t44 45t8 60.5q0 63 -37 85.5t-139 22.5q-147 0 -246 -6l-8 113q137 20 276 20q172 0 238 -42t66 -152q0 -94 -34 -148.5t-120 -66.5v-4 q96 -12 136 -64.5t42 -148.5q2 -133 -69.5 -192.5t-243.5 -59.5q-127 0 -307 22zM492 0l901 1413h141l-903 -1413h-139zM1167 332l252 516h150l-240 -492q-8 -16 1 -29.5t32 -13.5h272v236l27 135h119v-371h102v-106l-102 -12v-195h-146v193h-383q-57 0 -83.5 36.5 t-0.5 102.5z" />
<glyph unicode="&#xbf;" horiz-adv-x="1024" d="M78 -115q0 84 37 156t89 126t106.5 110.5t94.5 137.5t44 177h165q2 -104 -29.5 -192.5t-79.5 -146.5t-96.5 -109.5t-84 -109t-37.5 -114.5q-4 -94 56 -139t194 -45q158 0 405 18l10 -141q-14 -2 -56 -10.5t-56.5 -10.5t-50 -8t-58 -7t-61.5 -4t-81 -4t-93 -1 q-418 0 -418 317zM436 844v110q0 41 16.5 56.5t57.5 15.5h49q39 0 55.5 -15.5t16.5 -56.5v-110q0 -41 -15.5 -57.5t-56.5 -16.5h-49q-41 0 -57.5 16.5t-16.5 57.5z" />
<glyph unicode="&#xc0;" horiz-adv-x="1282" d="M18 0l443 1358q16 55 76 55h208q61 0 74 -55l445 -1358h-211l-131 426h-564l-131 -426h-209zM274 1726l111 152l363 -299l-66 -92zM414 604h454l-166 537q-6 18 -17 57t-17 57h-56l-32 -114z" />
<glyph unicode="&#xc1;" horiz-adv-x="1282" d="M18 0l443 1358q16 55 76 55h208q61 0 74 -55l445 -1358h-211l-131 426h-564l-131 -426h-209zM414 604h454l-166 537q-6 18 -17 57t-17 57h-56l-32 -114zM500 1579l362 299l113 -152l-408 -239z" />
<glyph unicode="&#xc2;" horiz-adv-x="1282" d="M18 0l443 1358q16 55 76 55h208q61 0 74 -55l445 -1358h-211l-131 426h-564l-131 -426h-209zM301 1577l268 264h144l270 -264l-70 -84l-264 197h-16l-266 -197zM414 604h454l-166 537q-6 18 -17 57t-17 57h-56l-32 -114z" />
<glyph unicode="&#xc3;" horiz-adv-x="1282" d="M18 0l443 1358q16 55 76 55h208q61 0 74 -55l445 -1358h-211l-131 426h-564l-131 -426h-209zM313 1563q-14 123 33 187.5t127 57.5q68 -6 162 -55t147 -55q55 -6 76 17.5t21 82.5h90q14 -119 -31 -183.5t-129 -58.5q-76 6 -173 56.5t-140 56.5q-53 6 -73 -18.5t-20 -87.5 h-90zM414 604h454l-166 537q-6 18 -17 57t-17 57h-56l-32 -114z" />
<glyph unicode="&#xc4;" horiz-adv-x="1282" d="M18 0l443 1358q16 55 76 55h208q61 0 74 -55l445 -1358h-211l-131 426h-564l-131 -426h-209zM373 1622v111q0 53 53 53h68q51 0 51 -53v-111q0 -55 -51 -55h-68q-53 0 -53 55zM414 604h454l-166 537q-6 18 -17 57t-17 57h-56l-32 -114zM735 1622v111q0 53 56 53h65 q53 0 53 -53v-111q0 -55 -53 -55h-65q-55 0 -56 55z" />
<glyph unicode="&#xc5;" horiz-adv-x="1282" d="M18 0l443 1358q16 55 76 55h208q61 0 74 -55l445 -1358h-211l-131 426h-564l-131 -426h-209zM414 604h454l-166 537q-6 18 -17 57t-17 57h-56l-32 -114zM418 1679.5q0 92.5 65.5 155.5t157.5 63t158.5 -63t66.5 -155.5t-65.5 -155t-159.5 -62.5q-92 0 -157.5 62.5 t-65.5 155zM526 1679q0 -53 33 -85.5t82 -32.5q51 0 84 32.5t33 86t-33 87t-84 33.5q-49 0 -82 -32.5t-33 -88.5z" />
<glyph unicode="&#xc6;" horiz-adv-x="1873" d="M-8 0l682 1182q74 135 176 184t307 49q397 0 615 -14l-9 -162h-518q-59 0 -95 -37t-36 -100v-275h569v-168h-569v-356q0 -70 31 -100.5t100 -30.5h518l9 -160q-195 -16 -609 -16q-109 0 -175 71.5t-66 182.5v192h-465l-250 -442h-215zM551 612h371v518q0 41 18 83t43 63 h-18q-57 -33 -111 -125z" />
<glyph unicode="&#xc7;" d="M121 706.5q0 403.5 125 567.5t434 164q221 0 391 -41l-20 -158q-164 16 -371 16q-195 0 -269.5 -118.5t-74.5 -430t74.5 -430t269.5 -118.5q260 -1 399 22l21 -155q-170 -49 -420 -50q-309 0 -434 164t-125 567.5zM457 -498l30 105q78 -2 128.5 34.5t54.5 98.5 q2 33 -22.5 44t-98.5 13l20 92q133 12 188.5 -14.5t53.5 -118.5q-4 -133 -104.5 -203.5t-249.5 -50.5z" />
<glyph unicode="&#xc8;" horiz-adv-x="1150" d="M160 250v913q2 117 77.5 185.5t206.5 68.5q420 0 607 -16l-11 -160h-561q-61 0 -86.5 -29.5t-25.5 -101.5v-283h596v-165h-596v-361q0 -72 25.5 -101.5t86.5 -29.5h561l11 -158q-186 -16 -607 -16q-131 0 -206.5 68.5t-77.5 185.5zM266 1767l113 152l362 -301l-67 -90z " />
<glyph unicode="&#xc9;" horiz-adv-x="1150" d="M160 250v913q2 117 77.5 185.5t206.5 68.5q420 0 607 -16l-11 -160h-561q-61 0 -86.5 -29.5t-25.5 -101.5v-283h596v-165h-596v-361q0 -72 25.5 -101.5t86.5 -29.5h561l11 -158q-186 -16 -607 -16q-131 0 -206.5 68.5t-77.5 185.5zM494 1618l362 301l113 -152l-410 -239z " />
<glyph unicode="&#xca;" horiz-adv-x="1150" d="M160 250v913q2 117 77.5 185.5t206.5 68.5q420 0 607 -16l-11 -160h-561q-61 0 -86.5 -29.5t-25.5 -101.5v-283h596v-165h-596v-361q0 -72 25.5 -101.5t86.5 -29.5h561l11 -158q-186 -16 -607 -16q-131 0 -206.5 68.5t-77.5 185.5zM295 1618l268 264h144l268 -264 l-68 -86l-264 199h-16l-267 -199z" />
<glyph unicode="&#xcb;" horiz-adv-x="1150" d="M160 250v913q2 117 77.5 185.5t206.5 68.5q420 0 607 -16l-11 -160h-561q-61 0 -86.5 -29.5t-25.5 -101.5v-283h596v-165h-596v-361q0 -72 25.5 -101.5t86.5 -29.5h561l11 -158q-186 -16 -607 -16q-131 0 -206.5 68.5t-77.5 185.5zM367 1661v113q0 53 53 53h65 q53 0 54 -53v-113q-1 -53 -54 -53h-65q-53 0 -53 53zM729 1661v113q0 53 55 53h64q55 0 55 -53v-113q0 -53 -55 -53h-64q-55 0 -55 53z" />
<glyph unicode="&#xcc;" horiz-adv-x="548" d="M-94 1726l112 152l363 -299l-66 -92zM172 0v1413h205v-1413h-205z" />
<glyph unicode="&#xcd;" horiz-adv-x="548" d="M133 1579l363 299l112 -152l-407 -239zM172 0v1413h205v-1413h-205z" />
<glyph unicode="&#xce;" horiz-adv-x="548" d="M-66 1577l269 264h143l270 -264l-69 -84l-264 197h-17l-266 -197zM172 0v1413h205v-1413h-205z" />
<glyph unicode="&#xcf;" horiz-adv-x="548" d="M6 1622v111q0 53 53 53h68q51 0 51 -53v-111q0 -55 -51 -55h-68q-53 0 -53 55zM172 0v1413h205v-1413h-205zM369 1622v111q0 53 55 53h65q53 0 54 -53v-111q0 -55 -54 -55h-65q-55 0 -55 55z" />
<glyph unicode="&#xd0;" horiz-adv-x="1372" d="M45 692v113h137v608q268 18 510 19q309 0 433 -159t124 -566.5t-124 -566t-433 -158.5q-242 0 -510 18v692h-137zM385 166q135 -6 307 -6q193 0 267.5 118.5t74.5 428t-74.5 428t-267.5 118.5q-63 0 -163.5 -1t-143.5 -1v-446h299v-113h-299v-526z" />
<glyph unicode="&#xd1;" horiz-adv-x="1449" d="M172 0v1333q0 80 78 80h188q59 0 90 -63l428 -938q8 -18 29 -60.5t38 -80.5t32 -70h30q-10 123 -10 219v993h203v-1333q0 -80 -76 -80h-194q-61 0 -88 63l-441 963q-74 160 -84 197h-28q10 -82 10 -197v-1026h-205zM412 1563q-14 123 33 187.5t126 57.5q68 -6 162 -55 t150 -55q53 -6 73.5 17.5t20.5 82.5h90q14 -119 -31 -183.5t-129 -58.5q-76 6 -173 56.5t-138 56.5q-55 6 -74.5 -18.5t-19.5 -87.5h-90z" />
<glyph unicode="&#xd2;" horiz-adv-x="1370" d="M121 706.5q0 413.5 125 573.5t438 160q315 0 440 -160t125 -573.5t-125 -573.5t-440 -160q-313 0 -438 160t-125 573.5zM315 1726l113 152l360 -299l-65 -92zM336 706.5q0 -313.5 74.5 -432t273.5 -118.5t274.5 118.5t75.5 432t-75.5 432t-274.5 118.5t-273.5 -118.5 t-74.5 -432z" />
<glyph unicode="&#xd3;" horiz-adv-x="1370" d="M121 706.5q0 413.5 125 573.5t438 160q315 0 440 -160t125 -573.5t-125 -573.5t-440 -160q-313 0 -438 160t-125 573.5zM336 706.5q0 -313.5 74.5 -432t273.5 -118.5t274.5 118.5t75.5 432t-75.5 432t-274.5 118.5t-273.5 -118.5t-74.5 -432zM543 1579l362 299l111 -152 l-408 -239z" />
<glyph unicode="&#xd4;" horiz-adv-x="1370" d="M121 706.5q0 413.5 125 573.5t438 160q315 0 440 -160t125 -573.5t-125 -573.5t-440 -160q-313 0 -438 160t-125 573.5zM336 706.5q0 -313.5 74.5 -432t273.5 -118.5t274.5 118.5t75.5 432t-75.5 432t-274.5 118.5t-273.5 -118.5t-74.5 -432zM344 1577l266 264h146 l268 -264l-68 -84l-266 197h-16l-264 -197z" />
<glyph unicode="&#xd5;" horiz-adv-x="1370" d="M121 706.5q0 413.5 125 573.5t438 160q315 0 440 -160t125 -573.5t-125 -573.5t-440 -160q-313 0 -438 160t-125 573.5zM336 706.5q0 -313.5 74.5 -432t273.5 -118.5t274.5 118.5t75.5 432t-75.5 432t-274.5 118.5t-273.5 -118.5t-74.5 -432zM354 1563q-14 123 33 187.5 t129 57.5q66 -6 160 -55t149.5 -55t76 17.5t20.5 82.5h90q14 -119 -32 -183.5t-130 -58.5q-76 6 -173 56.5t-138 56.5q-55 6 -75 -18.5t-20 -87.5h-90z" />
<glyph unicode="&#xd6;" horiz-adv-x="1370" d="M121 706.5q0 413.5 125 573.5t438 160q315 0 440 -160t125 -573.5t-125 -573.5t-440 -160q-313 0 -438 160t-125 573.5zM336 706.5q0 -313.5 74.5 -432t273.5 -118.5t274.5 118.5t75.5 432t-75.5 432t-274.5 118.5t-273.5 -118.5t-74.5 -432zM416 1622v111q0 53 51 53h68 q53 0 53 -53v-111q0 -55 -53 -55h-68q-51 0 -51 55zM778 1622v111q0 53 53 53h66q55 0 55 -53v-111q0 -55 -55 -55h-66q-53 0 -53 55z" />
<glyph unicode="&#xd7;" horiz-adv-x="991" d="M86 864l731 -657l96 117l-729 657z" />
<glyph unicode="&#xd8;" horiz-adv-x="1370" d="M121 707q0 414 125 573.5t438 159.5q160 0 262 -35l62 133l104 -41l-65 -141q109 -76 155.5 -230.5t46.5 -418.5q0 -414 -125 -574t-440 -160q-162 0 -266 39l-64 -133l-102 43l65 141q-104 76 -150 229.5t-46 414.5zM336 707q0 -316 78 -437l448 955q-68 33 -178 32 q-199 0 -273.5 -118.5t-74.5 -431.5zM502 193q72 -37 182 -37q199 0 274.5 118.5t75.5 432.5q0 329 -84 444z" />
<glyph unicode="&#xd9;" horiz-adv-x="1363" d="M162 545v868h205v-868q0 -217 69.5 -303t245.5 -86q174 0 244.5 86t70.5 303v868h205v-868q0 -311 -115.5 -441.5t-396.5 -130.5q-289 0 -408.5 130t-119.5 442zM315 1726l113 152l363 -299l-66 -92z" />
<glyph unicode="&#xda;" horiz-adv-x="1363" d="M162 545v868h205v-868q0 -217 69.5 -303t245.5 -86q174 0 244.5 86t70.5 303v868h205v-868q0 -311 -115.5 -441.5t-396.5 -130.5q-289 0 -408.5 130t-119.5 442zM543 1579l362 299l113 -152l-408 -239z" />
<glyph unicode="&#xdb;" horiz-adv-x="1363" d="M162 545v868h205v-868q0 -217 69.5 -303t245.5 -86q174 0 244.5 86t70.5 303v868h205v-868q0 -311 -115.5 -441.5t-396.5 -130.5q-289 0 -408.5 130t-119.5 442zM344 1577l268 264h144l270 -264l-70 -84l-264 197h-16l-266 -197z" />
<glyph unicode="&#xdc;" horiz-adv-x="1363" d="M162 545v868h205v-868q0 -217 69.5 -303t245.5 -86q174 0 244.5 86t70.5 303v868h205v-868q0 -311 -115.5 -441.5t-396.5 -130.5q-289 0 -408.5 130t-119.5 442zM416 1622v111q0 53 53 53h66q53 0 53 -53v-111q0 -55 -53 -55h-66q-53 0 -53 55zM778 1622v111q1 53 56 53 h63q55 0 55 -53v-111q0 -55 -55 -55h-63q-55 0 -56 55z" />
<glyph unicode="&#xdd;" horiz-adv-x="1175" d="M18 1413h218l284 -579q16 -35 62 -164h14q43 127 61 161l285 582h213l-465 -924v-489h-205v492zM446 1579l363 299l111 -152l-408 -239z" />
<glyph unicode="&#xde;" horiz-adv-x="1216" d="M172 0v1149v264h205v-250q78 4 289 4q262 0 361 -95t99 -359q0 -262 -95 -356.5t-343 -94.5q-135 0 -311 17v-279h-205zM377 438h282q152 2 206.5 57.5t54.5 217.5q0 166 -55.5 222t-205.5 56q-205 0 -282 -2v-551z" />
<glyph unicode="&#xdf;" horiz-adv-x="1392" d="M53 844v155h180v117q0 221 112 293t360 72q258 0 363.5 -60.5t105.5 -220.5q0 -82 -35 -142.5t-138 -125.5q-27 -18 -77 -47t-66 -41.5t-31.5 -36t-15.5 -53.5q0 -45 28.5 -68.5t104.5 -60.5l203 -97q96 -47 135 -104t39 -164q0 -166 -86 -224.5t-283 -58.5 q-147 0 -325 23l12 150q125 -10 272 -11q127 2 172 24.5t45 106.5q0 31 -6 50.5t-28.5 38t-38 26.5t-60.5 31l-207 98q-166 80 -165 234q0 31 5 57t21.5 50t27.5 39t39.5 36.5t42 30t52.5 31t51 30.5q72 47 98.5 82t26.5 92q0 63 -56.5 93t-217.5 30q-166 0 -223.5 -45 t-57.5 -180v-1094h-199v844h-180z" />
<glyph unicode="&#xe0;" horiz-adv-x="1128" d="M100 264v105q0 119 74 184t209 65h401v78q-2 92 -43 127t-155 35q-113 1 -424 -24l-19 145q270 47 486 47q182 0 268 -73.5t86 -256.5v-696h-156l-22 158q-172 -176 -399 -176q-139 0 -222.5 73.5t-83.5 208.5zM184 1360l111 151l362 -301l-65 -90zM301 289 q0 -74 35 -106.5t110 -32.5q178 0 338 139v180h-364q-66 -2 -92.5 -34t-26.5 -93v-53z" />
<glyph unicode="&#xe1;" horiz-adv-x="1128" d="M100 264v105q0 119 74 184t209 65h401v78q-2 92 -43 127t-155 35q-113 1 -424 -24l-19 145q270 47 486 47q182 0 268 -73.5t86 -256.5v-696h-156l-22 158q-172 -176 -399 -176q-139 0 -222.5 73.5t-83.5 208.5zM301 289q0 -74 35 -106.5t110 -32.5q178 0 338 139v180 h-364q-66 -2 -92.5 -34t-26.5 -93v-53zM412 1210l362 301l111 -151l-408 -240z" />
<glyph unicode="&#xe2;" horiz-adv-x="1128" d="M100 264v105q0 119 74 184t209 65h401v78q-2 92 -43 127t-155 35q-113 1 -424 -24l-19 145q270 47 486 47q182 0 268 -73.5t86 -256.5v-696h-156l-22 158q-172 -176 -399 -176q-139 0 -222.5 73.5t-83.5 208.5zM211 1210l268 265h144l270 -265l-70 -86l-264 199h-16 l-267 -199zM301 289q0 -74 35 -106.5t110 -32.5q178 0 338 139v180h-364q-66 -2 -92.5 -34t-26.5 -93v-53z" />
<glyph unicode="&#xe3;" horiz-adv-x="1128" d="M100 264v105q0 119 74 184t209 65h401v78q-2 92 -43 127t-155 35q-113 1 -424 -24l-19 145q270 47 486 47q182 0 268 -73.5t86 -256.5v-696h-156l-22 158q-172 -176 -399 -176q-139 0 -222.5 73.5t-83.5 208.5zM223 1196q-14 121 33 185.5t127 58.5q68 -6 162 -54.5 t149 -54.5q53 -8 73.5 16.5t20.5 82.5h91q14 -119 -31 -182.5t-129 -57.5q-76 6 -173 56t-138 57q-55 6 -75 -20t-20 -87h-90zM301 289q0 -74 35 -106.5t110 -32.5q178 0 338 139v180h-364q-66 -2 -92.5 -34t-26.5 -93v-53z" />
<glyph unicode="&#xe4;" horiz-adv-x="1128" d="M100 264v105q0 119 74 184t209 65h401v78q-2 92 -43 127t-155 35q-113 1 -424 -24l-19 145q270 47 486 47q182 0 268 -73.5t86 -256.5v-696h-156l-22 158q-172 -176 -399 -176q-139 0 -222.5 73.5t-83.5 208.5zM285 1253v111q0 55 51 55h67q53 0 54 -55v-111 q-1 -55 -54 -55h-67q-51 0 -51 55zM301 289q0 -74 35 -106.5t110 -32.5q178 0 338 139v180h-364q-66 -2 -92.5 -34t-26.5 -93v-53zM647 1253v111q0 55 53 55h66q55 0 55 -55v-111q0 -55 -55 -55h-66q-53 0 -53 55z" />
<glyph unicode="&#xe5;" horiz-adv-x="1128" d="M100 264v105q0 119 74 184t209 65h401v78q-2 92 -43 127t-155 35q-113 1 -424 -24l-19 145q270 47 486 47q182 0 268 -73.5t86 -256.5v-696h-156l-22 158q-172 -176 -399 -176q-139 0 -222.5 73.5t-83.5 208.5zM301 289q0 -74 35 -106.5t110 -32.5q178 0 338 139v180 h-364q-66 -2 -92.5 -34t-26.5 -93v-53zM330 1313q0 92 65.5 155.5t157.5 63.5t157.5 -63.5t65.5 -155.5t-65.5 -155.5t-157.5 -63.5q-94 0 -158.5 62.5t-64.5 156.5zM436 1313q0 -53 33 -86t84 -33q49 0 82 33t33 86t-33 86t-82 33q-51 0 -84 -32t-33 -87z" />
<glyph unicode="&#xe6;" horiz-adv-x="1781" d="M100 264v105q0 119 74 184t209 65h401v78q0 92 -42 127t-156 35q-113 0 -424 -24l-19 145q270 47 486 47q205 0 286 -92q106 92 332 92q227 0 331.5 -84t104.5 -252q5 -287 -251 -287h-439q12 -156 79 -209t218 -53q137 0 350 25l19 -131q-133 -59 -393 -60 q-174 0 -277.5 50.5t-154.5 160.5q-66 -78 -178.5 -141t-249.5 -63q-139 0 -222.5 73.5t-83.5 208.5zM301 289q0 -74 35 -106.5t110 -32.5q78 0 174.5 37.5t178.5 113.5q-14 82 -17 168h-362q-66 -2 -92.5 -34t-26.5 -93v-53zM989 557h387q109 0 109 133q0 90 -51.5 129 t-178.5 39q-147 0 -204.5 -62.5t-61.5 -238.5z" />
<glyph unicode="&#xe7;" horiz-adv-x="1005" d="M106 499.5q0 288.5 108 407.5t370 119q201 0 331 -51l-26 -127q-154 10 -271 10q-172 0 -238.5 -75.5t-66.5 -282.5t66.5 -283t238.5 -76q168 0 295 23l19 -133q-152 -55 -348 -56q-262 0 -370 118t-108 406.5zM360 -498l31 105q78 -2 128 34.5t54 98.5q2 33 -22 44 t-98 13l20 92q133 12 188.5 -14.5t53.5 -118.5q-4 -133 -104.5 -203.5t-250.5 -50.5z" />
<glyph unicode="&#xe8;" horiz-adv-x="1103" d="M106 502q0 291 108 407.5t355 116.5q229 0 334 -84t105 -252q0 -287 -244 -287h-449q14 -156 81 -209t218 -53q133 0 351 25l18 -131q-135 -59 -395 -60q-262 0 -372 119t-110 408zM207 1360l110 151l363 -301l-66 -90zM313 557h398q98 0 98 133q-2 92 -52 130t-177 38 q-147 0 -205 -62.5t-62 -238.5z" />
<glyph unicode="&#xe9;" horiz-adv-x="1103" d="M106 502q0 291 108 407.5t355 116.5q229 0 334 -84t105 -252q0 -287 -244 -287h-449q14 -156 81 -209t218 -53q133 0 351 25l18 -131q-135 -59 -395 -60q-262 0 -372 119t-110 408zM313 557h398q98 0 98 133q-2 92 -52 130t-177 38q-147 0 -205 -62.5t-62 -238.5z M434 1210l361 301l112 -151l-407 -240z" />
<glyph unicode="&#xea;" horiz-adv-x="1103" d="M106 502q0 291 108 407.5t355 116.5q229 0 334 -84t105 -252q0 -287 -244 -287h-449q14 -156 81 -209t218 -53q133 0 351 25l18 -131q-135 -59 -395 -60q-262 0 -372 119t-110 408zM233 1210l269 265h143l270 -265l-69 -86l-264 199h-17l-266 -199zM313 557h398 q98 0 98 133q-2 92 -52 130t-177 38q-147 0 -205 -62.5t-62 -238.5z" />
<glyph unicode="&#xeb;" horiz-adv-x="1103" d="M106 502q0 291 108 407.5t355 116.5q229 0 334 -84t105 -252q0 -287 -244 -287h-449q14 -156 81 -209t218 -53q133 0 351 25l18 -131q-135 -59 -395 -60q-262 0 -372 119t-110 408zM307 1253v111q0 55 51 55h68q53 0 53 -55v-111q0 -55 -53 -55h-68q-51 0 -51 55z M313 557h398q98 0 98 133q-2 92 -52 130t-177 38q-147 0 -205 -62.5t-62 -238.5zM670 1253v111q0 55 53 55h65q53 0 54 -55v-111q-1 -55 -54 -55h-65q-53 0 -53 55z" />
<glyph unicode="&#xec;" horiz-adv-x="522" d="M-106 1360l112 151l363 -301l-66 -90zM162 0v999h198v-999h-198z" />
<glyph unicode="&#xed;" horiz-adv-x="522" d="M121 1210l362 301l113 -151l-408 -240zM162 0v999h198v-999h-198z" />
<glyph unicode="&#xee;" horiz-adv-x="522" d="M-78 1210l268 265h144l270 -265l-69 -86l-265 199h-16l-266 -199zM162 0v999h198v-999h-198z" />
<glyph unicode="&#xef;" horiz-adv-x="522" d="M-6 1253v111q0 55 53 55h68q51 0 51 -55v-111q0 -55 -51 -55h-68q-53 0 -53 55zM162 0v999h198v-999h-198zM356 1253v111q1 55 56 55h65q53 0 53 -55v-111q0 -55 -53 -55h-65q-55 0 -56 55z" />
<glyph unicode="&#xf0;" horiz-adv-x="1148" d="M109 446q0 238 97 356t322 118q154 0 269 -68q-37 203 -152 313l-153 -121l-70 86l129 103q-123 59 -307 53l22 144q242 12 422 -91l156 125l71 -90l-133 -102q244 -217 244 -692q0 -301 -99.5 -454t-361.5 -153q-236 0 -346 114t-110 359zM315 449q0 -170 58.5 -240 t193.5 -70q156 0 204 103.5t48 347.5q0 84 -4 123q-111 39 -254 39q-135 0 -190.5 -75t-55.5 -228z" />
<glyph unicode="&#xf1;" horiz-adv-x="1193" d="M154 0v999h168l12 -153q236 180 442 180q133 0 202 -70.5t69 -205.5v-750h-199v692q0 94 -27.5 130t-99.5 36q-78 0 -156 -35t-213 -114v-709h-198zM283 1196q-14 123 31.5 186.5t127.5 57.5q68 -6 162 -54.5t148 -54.5q55 -8 75.5 16.5t20.5 82.5h90q14 -119 -31 -182.5 t-129 -57.5q-76 6 -173 56t-140 57q-53 6 -72.5 -20t-19.5 -87h-90z" />
<glyph unicode="&#xf2;" horiz-adv-x="1167" d="M106 497.5q0 286.5 109 407.5t369 121t368.5 -121t108.5 -407.5t-108.5 -405.5t-368.5 -119t-369 119t-109 405.5zM213 1360l113 151l362 -301l-65 -90zM313 498q0 -207 57.5 -283t213 -76t213 76t57.5 283q0 209 -57.5 284.5t-213 75.5t-213 -75.5t-57.5 -284.5z" />
<glyph unicode="&#xf3;" horiz-adv-x="1167" d="M106 497.5q0 286.5 109 407.5t369 121t368.5 -121t108.5 -407.5t-108.5 -405.5t-368.5 -119t-369 119t-109 405.5zM313 498q0 -207 57.5 -283t213 -76t213 76t57.5 283q0 209 -57.5 284.5t-213 75.5t-213 -75.5t-57.5 -284.5zM440 1210l363 301l112 -151l-407 -240z" />
<glyph unicode="&#xf4;" horiz-adv-x="1167" d="M106 497.5q0 286.5 109 407.5t369 121t368.5 -121t108.5 -407.5t-108.5 -405.5t-368.5 -119t-369 119t-109 405.5zM242 1210l268 265h143l271 -265l-70 -86l-264 199h-17l-266 -199zM313 498q0 -207 57.5 -283t213 -76t213 76t57.5 283q0 209 -57.5 284.5t-213 75.5 t-213 -75.5t-57.5 -284.5z" />
<glyph unicode="&#xf5;" horiz-adv-x="1167" d="M106 497.5q0 286.5 109 407.5t369 121t368.5 -121t108.5 -407.5t-108.5 -405.5t-368.5 -119t-369 119t-109 405.5zM254 1196q-14 123 32 186.5t128 57.5q68 -6 162 -54.5t147 -54.5q55 -8 75.5 16.5t20.5 82.5h90q14 -119 -30.5 -182.5t-128.5 -57.5q-76 6 -173.5 56 t-140.5 57q-53 6 -72.5 -20t-19.5 -87h-90zM313 498q0 -207 57.5 -283t213 -76t213 76t57.5 283q0 209 -57.5 284.5t-213 75.5t-213 -75.5t-57.5 -284.5z" />
<glyph unicode="&#xf6;" horiz-adv-x="1167" d="M106 497.5q0 286.5 109 407.5t369 121t368.5 -121t108.5 -407.5t-108.5 -405.5t-368.5 -119t-369 119t-109 405.5zM313 498q0 -207 57.5 -283t213 -76t213 76t57.5 283q0 209 -57.5 284.5t-213 75.5t-213 -75.5t-57.5 -284.5zM313 1253v111q1 55 54 55h67q51 0 51 -55 v-111q0 -55 -51 -55h-67q-53 0 -54 55zM676 1253v111q0 55 55 55h66q53 0 53 -55v-111q0 -55 -53 -55h-66q-55 0 -55 55z" />
<glyph unicode="&#xf7;" horiz-adv-x="1161" d="M127 530v148h907v-148h-907zM481 195v92q0 41 15.5 57t56.5 16h51q41 0 56.5 -16t15.5 -57v-92q0 -41 -15.5 -56.5t-56.5 -15.5h-51q-41 0 -56.5 15.5t-15.5 56.5zM481 915v95q0 41 15.5 57t56.5 16h51q41 0 56.5 -16t15.5 -57v-95q0 -39 -15.5 -54t-56.5 -15h-51 q-41 0 -56.5 14t-15.5 55z" />
<glyph unicode="&#xf8;" horiz-adv-x="1167" d="M106 498q0 287 109 407.5t369 120.5q96 0 178 -16l67 145l89 -43l-62 -135q109 -51 157 -167t48 -312q0 -287 -108.5 -406t-368.5 -119q-106 0 -187 19l-71 -152l-88 43l65 144q-102 51 -149.5 165.5t-47.5 305.5zM313 498q0 -225 72 -297l301 649q-39 8 -102 8 q-156 0 -213.5 -75.5t-57.5 -284.5zM471 152q47 -12 113 -13q156 0 213 76t57 283q0 237 -78 309z" />
<glyph unicode="&#xf9;" d="M147 250v749h199v-692q-2 -92 31 -128t112 -36q117 0 332 133v723h197v-999h-158l-14 137q-219 -164 -426 -164q-272 0 -273 277zM223 1368l113 152l360 -299l-65 -93z" />
<glyph unicode="&#xfa;" d="M147 250v749h199v-692q-2 -92 31 -128t112 -36q117 0 332 133v723h197v-999h-158l-14 137q-219 -164 -426 -164q-272 0 -273 277zM451 1221l362 299l111 -152l-408 -240z" />
<glyph unicode="&#xfb;" d="M147 250v749h199v-692q-2 -92 31 -128t112 -36q117 0 332 133v723h197v-999h-158l-14 137q-219 -164 -426 -164q-272 0 -273 277zM250 1219l268 264h144l270 -264l-68 -84l-266 196h-16l-265 -196z" />
<glyph unicode="&#xfc;" d="M147 250v749h199v-692q-2 -92 31 -128t112 -36q117 0 332 133v723h197v-999h-158l-14 137q-219 -164 -426 -164q-272 0 -273 277zM324 1264v110q0 53 51 53h67q53 0 54 -53v-110q-1 -56 -54 -56h-67q-51 0 -51 56zM686 1264v110q0 53 53 53h66q55 0 55 -53v-110 q0 -56 -55 -56h-66q-53 0 -53 56z" />
<glyph unicode="&#xfd;" horiz-adv-x="1091" d="M33 999h213l248 -727q25 -63 34 -122h29q20 55 41 122l246 727h213l-387 -1046q-139 -369 -459 -373l-21 131q117 35 184.5 96.5t108.5 155.5l15 37h-41q-57 0 -70 51zM410 1210l362 301l113 -151l-410 -240z" />
<glyph unicode="&#xfe;" horiz-adv-x="1179" d="M154 -408v1842h198v-334q0 -139 -8 -209q170 133 364.5 133t277.5 -126t83 -406q0 -287 -86 -403t-281 -116q-190 0 -356 86q6 -61 6 -186v-281h-198zM352 207q176 -70 285 -70q127 0 177 77t50 280q0 207 -50 284.5t-169 77.5q-117 0 -293 -129v-520z" />
<glyph unicode="&#xff;" horiz-adv-x="1091" d="M33 999h213l248 -727q25 -63 34 -122h29q20 55 41 122l246 727h213l-387 -1046q-139 -369 -459 -373l-21 131q117 35 184.5 96.5t108.5 155.5l15 37h-41q-57 0 -70 51zM283 1253v111q0 55 53 55h65q53 0 54 -55v-111q-1 -55 -54 -55h-65q-53 0 -53 55zM645 1253v111 q0 55 55 55h64q55 0 55 -55v-111q0 -55 -55 -55h-64q-55 0 -55 55z" />
<glyph unicode="&#x152;" horiz-adv-x="1880" d="M121 706.5q0 413.5 125 573.5t438 160q186 0 348 -64q63 41 148 41q414 0 598 -16l-9 -160h-520q-72 0 -101.5 -29.5t-29.5 -101.5v-283h572v-168h-572v-358q0 -72 30 -101.5t101 -29.5h520l9 -158q-188 -16 -617 -16q-80 0 -141 45q-147 -68 -336 -68q-313 0 -438 160 t-125 573.5zM336 707q0 -313 74.5 -432t273.5 -119q135 0 240 28q-13 43 -13 90v865q0 41 15 90q-121 29 -242 28q-199 0 -273.5 -117.5t-74.5 -432.5z" />
<glyph unicode="&#x153;" horiz-adv-x="1853" d="M106 497.5q0 286.5 109 407.5t369 121q262 0 370 -121q102 121 351 121q451 0 450 -313q2 -170 -69.5 -234.5t-243.5 -64.5h-379q12 -164 77.5 -218.5t223.5 -54.5q133 0 346 25l21 -131q-135 -59 -396 -60q-268 0 -377 123q-106 -125 -374 -125q-260 0 -369 119 t-109 405.5zM313 498q0 -207 57.5 -283t213.5 -76q145 0 204.5 66.5t65.5 245.5l-2 57q0 33 2 49q-8 172 -67.5 236.5t-202.5 64.5q-156 0 -213.5 -75.5t-57.5 -284.5zM1059 559h371q74 0 102.5 35t23.5 121q-6 74 -64 108.5t-181 34.5q-135 0 -190.5 -64.5t-61.5 -234.5z " />
<glyph unicode="&#x178;" horiz-adv-x="1175" d="M18 1413h218l284 -579q16 -35 62 -164h14q43 127 61 161l285 582h213l-465 -924v-489h-205v492zM319 1622v111q0 53 52 53h67q53 0 54 -53v-111q-1 -55 -54 -55h-67q-51 0 -52 55zM682 1622v111q0 53 53 53h66q55 0 55 -53v-111q0 -55 -55 -55h-66q-53 0 -53 55z" />
<glyph unicode="&#x2c6;" horiz-adv-x="870" d="M98 1198l267 264h145l268 -264l-67 -84l-267 197h-16l-264 -197z" />
<glyph unicode="&#x2dc;" horiz-adv-x="868" d="M106 1192q-14 123 32 187.5t128 58.5q66 -6 160 -54.5t149 -54.5q55 -8 76 15.5t21 82.5h90q14 -119 -31 -182t-129 -57q-76 6 -173 56t-140 56q-53 6 -72.5 -19.5t-19.5 -88.5h-91z" />
<glyph unicode="&#x2000;" horiz-adv-x="959" />
<glyph unicode="&#x2001;" horiz-adv-x="1919" />
<glyph unicode="&#x2002;" horiz-adv-x="959" />
<glyph unicode="&#x2003;" horiz-adv-x="1919" />
<glyph unicode="&#x2004;" horiz-adv-x="639" />
<glyph unicode="&#x2005;" horiz-adv-x="479" />
<glyph unicode="&#x2006;" horiz-adv-x="319" />
<glyph unicode="&#x2007;" horiz-adv-x="319" />
<glyph unicode="&#x2008;" horiz-adv-x="239" />
<glyph unicode="&#x2009;" horiz-adv-x="383" />
<glyph unicode="&#x200a;" horiz-adv-x="106" />
<glyph unicode="&#x2010;" horiz-adv-x="905" d="M141 442v152h623v-152h-623z" />
<glyph unicode="&#x2011;" horiz-adv-x="905" d="M141 442v152h623v-152h-623z" />
<glyph unicode="&#x2012;" horiz-adv-x="905" d="M141 442v152h623v-152h-623z" />
<glyph unicode="&#x2013;" horiz-adv-x="1200" d="M141 442v152h918v-152h-918z" />
<glyph unicode="&#x2014;" horiz-adv-x="1820" d="M141 442v152h1536v-152h-1536z" />
<glyph unicode="&#x2018;" horiz-adv-x="452" d="M127 1073v119q2 170 78 301l92 -25q-20 -109 -21 -229q57 0 54 -57v-109q-2 -39 -18.5 -53t-57.5 -14h-57q-39 0 -54.5 14t-15.5 53z" />
<glyph unicode="&#x2019;" horiz-adv-x="446" d="M119 1303v110q2 37 19.5 51.5t56.5 14.5h57q41 0 56.5 -14.5t15.5 -51.5v-121q-2 -162 -78 -301l-94 25q23 106 22 229q-55 0 -55 58z" />
<glyph unicode="&#x201a;" horiz-adv-x="475" d="M135 59v111q2 66 76 66h57q41 0 56.5 -14.5t15.5 -51.5v-121q-2 -164 -78 -301l-94 25q23 123 22 229q-55 0 -55 57z" />
<glyph unicode="&#x201c;" horiz-adv-x="780" d="M127 1073v119q2 170 78 301l92 -25q-20 -109 -21 -229q57 0 54 -57v-109q-2 -39 -18.5 -53t-57.5 -14h-57q-39 0 -54.5 14t-15.5 53zM455 1073v119q2 164 77 301l95 -25q-23 -104 -23 -229q57 0 53 -57v-109q-2 -39 -18 -53t-57 -14h-58q-39 0 -54 14t-15 53z" />
<glyph unicode="&#x201d;" horiz-adv-x="774" d="M119 1303v110q2 37 19.5 51.5t56.5 14.5h57q41 0 56.5 -14.5t15.5 -51.5v-121q-2 -162 -78 -301l-94 25q23 106 22 229q-55 0 -55 58zM446 1303v110q2 37 19.5 51.5t56.5 14.5h60q39 0 54 -14.5t15 -51.5v-121q-2 -162 -78 -301l-94 25q23 106 23 229q-55 0 -56 58z" />
<glyph unicode="&#x201e;" horiz-adv-x="802" d="M135 59v111q2 37 19.5 51.5t56.5 14.5h57q41 0 56.5 -14.5t15.5 -51.5v-121q-2 -164 -78 -301l-94 25q23 123 22 229q-55 0 -55 57zM463 59v111q2 37 19.5 51.5t56.5 14.5h57q41 0 56.5 -14.5t15.5 -51.5v-121q-2 -164 -78 -301l-94 25q23 123 22 229q-55 0 -55 57z" />
<glyph unicode="&#x2022;" horiz-adv-x="747" d="M180 539v26q0 98 40.5 137t144.5 39h26q98 0 137 -38.5t39 -137.5v-26q0 -104 -39 -144.5t-137 -40.5h-26q-104 0 -144.5 40t-40.5 145z" />
<glyph unicode="&#x2026;" horiz-adv-x="1761" d="M127 74v108q0 39 16.5 55.5t55.5 16.5h65q39 0 55.5 -16.5t16.5 -55.5v-108q0 -41 -15.5 -57.5t-56.5 -16.5h-65q-41 0 -56.5 16.5t-15.5 57.5zM768 74v108q0 39 15.5 55.5t56.5 16.5h65q41 0 57.5 -15.5t16.5 -56.5v-108q0 -41 -16.5 -57.5t-57.5 -16.5h-65 q-41 0 -56.5 16.5t-15.5 57.5zM1409 74v108q0 39 16.5 55.5t57.5 16.5h65q41 0 56.5 -16.5t15.5 -55.5v-108q0 -41 -15.5 -57.5t-56.5 -16.5h-65q-41 0 -57.5 16.5t-16.5 57.5z" />
<glyph unicode="&#x202f;" horiz-adv-x="383" />
<glyph unicode="&#x2039;" horiz-adv-x="606" d="M80 492v45l328 405l104 -68l-250 -360l252 -367l-104 -69z" />
<glyph unicode="&#x203a;" horiz-adv-x="610" d="M92 147l252 367l-250 360l107 68l327 -405v-45l-329 -414z" />
<glyph unicode="&#x205f;" horiz-adv-x="479" />
<glyph unicode="&#x20ac;" horiz-adv-x="1304" d="M102 528v121h162v58q0 59 2 86h-162v120h170q31 266 164 395.5t398 129.5q184 0 342 -41l-21 -162q-164 29 -334 18q-147 -6 -227 -89t-104 -251h507l-14 -120h-506q0 -14 -1 -44t-1 -47l2 -53h445l-15 -121h-422q20 -184 100.5 -274t235.5 -94q193 -11 359 22l22 -157 q-154 -49 -368 -50q-270 0 -403.5 135.5t-160.5 417.5h-170z" />
<glyph unicode="&#x2122;" horiz-adv-x="1980" d="M133 1309v116h670v-116h-264v-662h-142v662h-264zM899 647l31 723q4 55 53 55h145q39 0 56 -45l143 -432q4 -14 13.5 -52t15.5 -58h20q6 18 15.5 56t15.5 56l139 430q14 45 58 45h147q51 0 53 -55l31 -723h-131l-31 670h-24l-172 -529q-16 -45 -60 -45h-102q-43 0 -60 45 l-172 529h-24l-29 -670h-131z" />
<glyph unicode="&#x25fc;" horiz-adv-x="1003" d="M0 0v1004h1004v-1004h-1004z" />
<glyph unicode="&#xfb01;" horiz-adv-x="1265" d="M55 846v143l181 10v150q0 158 68.5 238.5t227.5 80.5q156 0 240 -14v-147h-170q-94 0 -131 -40t-37 -141v-127h670v-999h-197v846h-473v-846h-198v846h-181zM897 1253v115q0 57 59 57h95q57 0 57 -57v-115q0 -59 -57 -59h-95q-59 0 -59 59z" />
<glyph unicode="&#xfb02;" horiz-adv-x="1390" d="M53 846v143l180 10v150q0 158 70 239.5t227 79.5q444 0 596 -24v-1180q0 -129 129 -129h95l22 -127q-59 -27 -192 -26q-117 0 -184.5 62t-67.5 175v1090h-328q-92 2 -130 -39t-38 -144v-127h291v-153h-291v-846h-199v846h-180z" />
</font>
</defs>
</svg>
